osu file format v14

[General]
AudioFilename: audio.mp3
AudioLeadIn: 0
PreviewTime: 66461
Countdown: 0
SampleSet: None
StackLeniency: 0.7
Mode: 0
LetterboxInBreaks: 0
EpilepsyWarning: 1
WidescreenStoryboard: 1

[Editor]
DistanceSpacing: 1
BeatDivisor: 4
GridSize: 32
TimelineZoom: 2.1

[Metadata]
Title:Your Own Way
TitleUnicode:Your Own Way
Artist:Feint feat. Stan SB
ArtistUnicode:Feint feat. Stan SB
Creator:KeyLoGreen
Version:Expert
Source:
Tags:dnb drum and bass fox stevenson
BeatmapID:1248315
BeatmapSetID:536548

[Difficulty]
HPDrainRate:6
CircleSize:4
OverallDifficulty:8
ApproachRate:10
SliderMultiplier:1.6
SliderTickRate:1

[Events]
//Background and Video events
0,0,"yowbg.jpg",0,0
//Break Periods
2,44592,54827
//Storyboard Layer 0 (Background)
//Storyboard Layer 1 (Fail)
//Storyboard Layer 2 (Pass)
//Storyboard Layer 3 (Foreground)
//Storyboard Sound Samples

[TimingPoints]
255,344.827586206897,4,1,1,50,1,0
22323,-125,4,1,1,50,0,0
41806,-125,4,1,1,5,0,0
43186,-125,4,1,1,12,0,0
43358,-125,4,1,1,25,0,0
43530,-125,4,1,1,37,0,0
43703,-125,4,1,1,50,0,0
43875,-125,4,1,1,62,0,0
44048,-125,4,1,1,75,0,0
44220,-125,4,1,1,87,0,0
44392,-100,4,1,1,100,0,0
55427,-100,4,1,1,45,0,0
60944,-100,4,1,1,50,0,0
62323,-100,4,1,1,55,0,0
63703,-100,4,1,1,60,0,0
65082,-66.6666666666667,4,1,1,60,0,0
65772,-100,4,1,1,80,0,0
66461,-66.6666666666667,4,1,1,100,0,1
87151,-66.6666666666667,4,1,1,100,0,0
88530,-66.6666666666667,4,1,1,100,0,1
109220,-66.6666666666667,4,1,1,100,0,0
112841,-66.6666666666667,4,1,1,75,0,0
113013,-66.6666666666667,4,1,1,50,0,0
113186,-66.6666666666667,4,1,1,25,0,0
113358,-66.6666666666667,4,2,0,5,0,0

[Colours]
Combo1 : 128,0,105
Combo2 : 0,128,255
Combo3 : 170,85,255
Combo4 : 242,24,57
Combo5 : 255,0,210
Combo6 : 0,64,128
Combo7 : 64,0,128
Combo8 : 128,0,0

[HitObjects]
256,192,16806,12,4,22323,0:0:0:0:
91,169,22668,69,0,0:0:0:0:
91,169,22841,2,0,P|109:114|134:94,1,64,2|0,0:0|0:0,0:0:0:0:
114,238,23186,1,0,0:0:0:0:
180,90,23358,2,0,P|222:102|253:130,1,64,2|0,0:0|0:0,0:0:0:0:
42,109,23703,6,0,P|72:52|144:47,1,128,4|0,0:0|0:0,0:0:0:0:
238,113,24220,1,2,0:0:0:0:
46,282,24565,1,0,0:0:0:0:
238,113,24737,1,2,0:0:0:0:
399,311,25082,6,0,P|407:257|372:164,1,128,4|0,0:0|0:0,0:0:0:0:
260,206,25599,2,0,P|272:245|310:278,1,64,2|0,0:0|0:0,0:0:0:0:
387,187,25944,1,0,0:0:0:0:
259,129,26117,2,0,P|220:141|187:179,1,64,2|0,0:0|0:0,0:0:0:0:
214,276,26461,6,0,P|226:220|195:147,1,128,4|0,0:0|0:0,0:0:0:0:
111,63,26979,1,2,0:0:0:0:
62,313,27323,1,0,0:0:0:0:
111,63,27496,1,2,0:0:0:0:
214,276,27841,70,0,P|260:299|357:279,1,128,4|0,0:0|0:0,0:0:0:0:
409,188,28358,2,0,P|411:155|399:116,1,64,2|0,0:0|0:0,0:0:0:0:
291,62,28703,1,0,0:0:0:0:
409,188,28875,2,0,L|483:195,1,64,2|0,0:0|0:0,0:0:0:0:
291,62,29220,6,0,L|163:49,1,128,4|0,0:0|0:0,0:0:0:0:
94,158,29737,1,2,0:0:0:0:
348,183,30082,1,0,0:0:0:0:
94,158,30255,1,2,0:0:0:0:
326,262,30599,6,0,P|387:257|428:205,1,128,4|0,0:0|0:0,0:0:0:0:
360,97,31117,2,0,L|288:89,1,64,2|0,0:0|0:0,0:0:0:0:
427,207,31461,1,0,0:0:0:0:
262,254,31634,2,0,L|325:261,1,64,2|0,0:0|0:0,0:0:0:0:
226,179,31979,6,0,P|187:216|199:309,1,128,4|0,0:0|0:0,0:0:0:0:
141,73,32496,1,2,0:0:0:0:
141,73,32841,1,2,0:0:0:0:
184,286,33013,1,2,0:0:0:0:
262,79,33358,70,0,P|190:59|116:89,1,128,4|0,0:0|0:0,0:0:0:0:
239,153,33875,2,0,P|274:156|305:144,1,64,2|0,0:0|0:0,0:0:0:0:
393,57,34220,1,0,0:0:0:0:
171,130,34392,2,0,P|168:161|178:192,1,64,2|0,0:0|0:0,0:0:0:0:
265,285,34737,6,0,P|201:278|141:297,1,128,4|0,0:0|0:0,0:0:0:0:
34,225,35255,1,2,0:0:0:0:
265,285,35599,1,0,0:0:0:0:
34,225,35772,1,2,0:0:0:0:
265,285,36117,6,0,P|302:224|292:171,1,128,4|0,0:0|0:0,0:0:0:0:
195,256,36634,2,0,P|189:295|199:324,1,64,2|0,0:0|0:0,0:0:0:0:
140,202,36979,1,0,0:0:0:0:
292,171,37151,2,0,L|357:167,1,64,2|0,0:0|0:0,0:0:0:0:
208,141,37496,6,0,P|208:193|272:255,1,128,4|0,0:0|0:0,0:0:0:0:
379,214,38013,1,2,0:0:0:0:
144,111,38358,1,0,0:0:0:0:
379,214,38530,1,2,0:0:0:0:
144,111,38875,70,0,P|97:113|41:173,1,128,4|0,0:0|0:0,0:0:0:0:
150,240,39392,2,0,P|196:237|252:177,1,128,2|0,0:0|0:0,0:0:0:0:
144,111,39910,1,2,0:0:0:0:
358,252,40255,6,0,P|404:249|460:189,1,128,4|0,0:0|0:0,0:0:0:0:
352,123,40772,2,0,P|305:125|249:185,1,128,2|0,0:0|0:0,0:0:0:0:
358,252,41290,1,2,0:0:0:0:
144,111,41634,1,4,0:0:0:0:
256,192,41806,12,4,44392,0:0:0:0:
150,67,55427,102,0,L|318:53,1,160,4|0,0:0|0:0,0:0:0:0:
115,309,56117,2,0,P|77:238|103:146,1,160,4|0,0:0|0:0,0:0:0:0:
409,197,56806,6,0,P|338:235|246:209,1,160,4|0,0:0|0:0,0:0:0:0:
53,68,57496,2,0,B|87:45|87:45|219:59,1,160,4|0,0:0|0:0,0:0:0:0:
227,340,58186,5,4,0:0:0:0:
462,149,58529,1,0,0:0:0:0:
320,353,58874,1,4,0:0:0:0:
453,80,59219,1,0,0:0:0:0:
395,341,59565,5,4,0:0:0:0:
399,38,59909,1,0,0:0:0:0:
450,321,60254,1,4,0:0:0:0:
326,44,60598,1,0,0:0:0:0:
113,233,60944,70,0,L|123:154,1,80,4|0,0:0|0:0,0:0:0:0:
311,221,61289,2,0,L|302:301,1,80,4|0,0:0|0:0,0:0:0:0:
23,189,61634,2,0,L|13:268,1,80,4|0,0:0|0:0,0:0:0:0:
202,336,61979,2,0,L|211:256,1,80,4|0,0:0|0:0,0:0:0:0:
113,82,62323,5,4,0:0:0:0:
112,282,62496,1,0,0:0:0:0:
278,171,62668,1,4,0:0:0:0:
156,330,62841,1,0,0:0:0:0:
205,80,63013,1,4,0:0:0:0:
204,280,63186,1,0,0:0:0:0:
370,169,63358,1,4,0:0:0:0:
248,328,63531,1,0,0:0:0:0:
461,148,63703,6,0,L|453:76,1,40,4|0,0:0|0:0,0:0:0:0:
445,347,63875,2,0,L|437:275,1,40,4|0,0:0|0:0,0:0:0:0:
362,77,64048,2,0,L|354:5,1,40,4|0,0:0|0:0,0:0:0:0:
346,276,64220,2,0,L|338:204,1,40,4|0,0:0|0:0,0:0:0:0:
166,108,64392,2,0,L|174:180,1,40,4|0,0:0|0:0,0:0:0:0:
150,307,64565,2,0,L|158:379,1,40,4|0,0:0|0:0,0:0:0:0:
67,37,64737,2,0,L|75:109,1,40,4|0,0:0|0:0,0:0:0:0:
51,236,64910,2,0,L|59:308,1,40,4|0,0:0|0:0,0:0:0:0:
166,108,65082,5,4,0:0:0:0:
214,74,65168,1,0,0:0:0:0:
274,69,65254,1,4,0:0:0:0:
327,93,65340,1,0,0:0:0:0:
362,142,65426,1,4,0:0:0:0:
369,200,65513,1,0,0:0:0:0:
345,255,65599,1,4,0:0:0:0:
298,291,65685,1,0,0:0:0:0:
239,299,65771,53,8,0:0:0:0:
363,33,65944,1,4,0:0:0:0:
361,326,66117,1,8,0:0:0:0:
160,82,66289,1,4,0:0:0:0:
360,326,66461,69,4,0:2:0:0:
362,272,66547,1,0,0:0:0:0:
345,221,66633,1,6,0:0:0:0:
310,181,66719,1,0,0:0:0:0:
261,157,66806,2,0,P|240:218|254:278,1,120.000004577637,8|6,0:0|0:0,0:0:0:0:
385,71,67151,1,6,0:0:0:0:
385,71,67237,1,0,0:0:0:0:
385,71,67323,1,0,0:0:0:0:
445,304,67496,1,8,0:0:0:0:
311,105,67668,1,6,0:0:0:0:
213,329,67841,5,4,0:2:0:0:
243,285,67927,1,0,0:0:0:0:
254,232,68013,1,6,0:0:0:0:
243,180,68099,1,0,0:0:0:0:
211,137,68186,2,0,L|80:124,1,120.000004577637,8|6,0:0|0:0,0:0:0:0:
320,195,68530,1,6,0:0:0:0:
320,195,68617,1,0,0:0:0:0:
320,195,68703,1,0,0:0:0:0:
128,51,68875,1,8,0:0:0:0:
99,290,69048,1,6,0:0:0:0:
224,85,69220,5,6,0:2:0:0:
272,62,69306,1,0,0:0:0:0:
326,57,69392,1,4,0:0:0:0:
378,68,69478,1,0,0:0:0:0:
425,95,69564,1,8,0:0:0:0:
249,260,69737,1,4,0:0:0:0:
461,136,69910,1,6,0:2:0:0:
476,187,69996,1,0,0:0:0:0:
467,239,70082,1,0,0:0:0:0:
224,85,70255,1,8,0:0:0:0:
467,239,70427,1,4,0:0:0:0:
148,259,70599,5,6,0:2:0:0:
158,207,70685,1,0,0:0:0:0:
194,168,70771,1,4,0:0:0:0:
245,154,70857,1,0,0:0:0:0:
297,169,70943,1,8,0:0:0:0:
66,93,71117,1,4,0:0:0:0:
338,203,71289,1,6,0:2:0:0:
347,256,71375,1,0,0:0:0:0:
357,309,71461,1,0,0:0:0:0:
309,47,71634,2,0,L|319:107,1,60.0000022888184,8|0,0:0|0:0,0:0:0:0:
357,309,71806,1,4,0:0:0:0:
123,280,71979,69,4,0:2:0:0:
133,228,72065,1,0,0:0:0:0:
169,189,72151,1,6,0:0:0:0:
220,175,72237,1,0,0:0:0:0:
272,190,72323,2,0,B|328:215|328:215|404:211,1,120.000004577637,8|6,0:0|0:0,0:0:0:0:
182,84,72668,1,6,0:0:0:0:
128,92,72754,1,0,0:0:0:0:
75,100,72840,1,0,0:0:0:0:
340,139,73013,1,8,0:0:0:0:
123,280,73186,1,6,0:0:0:0:
268,90,73358,5,4,0:2:0:0:
319,75,73444,1,0,0:0:0:0:
373,79,73530,1,6,0:0:0:0:
422,101,73616,1,0,0:0:0:0:
459,138,73703,2,0,L|449:260,1,120.000004577637,8|6,0:0|0:0,0:0:0:0:
233,152,74048,1,6,0:0:0:0:
287,145,74134,1,0,0:0:0:0:
340,139,74220,1,0,0:0:0:0:
469,340,74392,1,8,0:0:0:0:
340,139,74565,1,6,0:0:0:0:
157,307,74737,5,4,0:2:0:0:
210,314,74823,1,0,0:0:0:0:
258,290,74909,1,6,0:0:0:0:
285,245,74995,1,0,0:0:0:0:
283,192,75082,2,0,L|132:174,1,120.000004577637,8|6,0:0|0:0,0:0:0:0:
388,263,75427,2,0,L|447:270,2,60.0000022888184,6|0|0,0:0|0:0|0:0,0:0:0:0:
163,177,75772,1,8,0:0:0:0:
399,139,75944,1,6,0:0:0:0:
201,276,76117,5,4,0:2:0:0:
147,280,76203,1,0,0:0:0:0:
98,259,76289,1,6,0:0:0:0:
66,216,76375,1,0,0:0:0:0:
58,164,76461,2,0,L|81:37,1,120.000004577637,8|6,0:0|0:0,0:0:0:0:
320,166,76806,2,0,L|312:107,2,60.0000022888184,6|0|0,0:0|0:0|0:0,0:0:0:0:
79,45,77151,1,8,0:0:0:0:
74,74,77237,1,0,0:0:0:0:
81,103,77323,1,6,0:0:0:0:
100,125,77409,1,0,0:0:0:0:
127,137,77496,69,4,0:2:0:0:
181,133,77582,1,0,0:0:0:0:
234,130,77668,1,6,0:0:0:0:
288,127,77754,1,0,0:0:0:0:
342,124,77841,2,0,P|361:189|337:251,1,120.000004577637,8|6,0:0|0:0,0:0:0:0:
457,43,78186,1,6,0:0:0:0:
457,43,78272,1,0,0:0:0:0:
457,43,78358,1,0,0:0:0:0:
412,278,78530,1,8,0:0:0:0:
312,58,78703,1,6,0:0:0:0:
242,287,78875,5,4,0:2:0:0:
256,235,78961,1,0,0:0:0:0:
249,182,79047,1,6,0:0:0:0:
221,136,79133,1,0,0:0:0:0:
177,106,79220,2,0,P|167:151|251:174,1,120.000004577637,8|6,0:0|0:0,0:0:0:0:
432,70,79565,1,6,0:0:0:0:
432,70,79651,1,0,0:0:0:0:
432,70,79737,1,0,0:0:0:0:
325,285,79910,1,8,0:0:0:0:
257,55,80082,1,6,0:0:0:0:
396,251,80255,5,6,0:2:0:0:
396,251,80341,1,0,0:0:0:0:
396,251,80427,1,4,0:0:0:0:
396,251,80513,1,0,0:0:0:0:
396,251,80599,1,8,0:0:0:0:
208,99,80772,1,4,0:0:0:0:
127,324,80944,1,6,0:2:0:0:
127,324,81030,1,0,0:0:0:0:
127,324,81117,1,0,0:0:0:0:
208,99,81289,1,8,0:0:0:0:
127,324,81461,1,4,0:0:0:0:
320,180,81634,5,6,0:2:0:0:
320,180,81720,1,0,0:0:0:0:
320,180,81806,1,4,0:0:0:0:
320,180,81892,1,0,0:0:0:0:
320,180,81978,1,8,0:0:0:0:
99,83,82151,1,4,0:0:0:0:
127,324,82323,1,6,0:2:0:0:
127,324,82409,1,0,0:0:0:0:
127,324,82496,1,0,0:0:0:0:
99,83,82668,1,8,0:0:0:0:
127,324,82840,1,4,0:0:0:0:
238,110,83013,69,4,0:2:0:0:
284,84,83099,1,0,0:0:0:0:
338,78,83185,1,6,0:0:0:0:
389,93,83271,1,0,0:0:0:0:
431,126,83358,2,0,B|437:188|437:188|405:248,1,120.000004577637,8|6,0:0|0:0,0:0:0:0:
238,110,83703,1,6,0:0:0:0:
238,110,83789,1,0,0:0:0:0:
238,110,83875,1,0,0:0:0:0:
431,126,84048,1,8,0:0:0:0:
197,176,84220,1,6,0:0:0:0:
410,284,84392,5,4,0:2:0:0:
397,231,84478,1,0,0:0:0:0:
365,188,84564,1,6,0:0:0:0:
319,161,84650,1,0,0:0:0:0:
266,154,84737,2,0,L|135:171,1,120.000004577637,8|6,0:0|0:0,0:0:0:0:
373,85,85082,1,6,0:0:0:0:
373,85,85168,1,0,0:0:0:0:
373,85,85255,1,0,0:0:0:0:
292,310,85427,1,8,0:0:0:0:
170,103,85599,1,6,0:0:0:0:
353,258,85772,5,4,0:2:0:0:
406,262,85858,1,0,0:0:0:0:
452,235,85944,1,6,0:0:0:0:
475,188,86030,1,0,0:0:0:0:
468,135,86117,2,0,P|396:124|345:141,1,120.000004577637,8|6,0:0|0:0,0:0:0:0:
194,317,86461,1,6,0:0:0:0:
194,317,86548,1,0,0:0:0:0:
194,317,86634,1,0,0:0:0:0:
211,78,86806,1,8,0:0:0:0:
109,296,86979,1,6,0:0:0:0:
300,90,87151,5,4,0:0:0:0:
65,138,87323,1,4,0:0:0:0:
55,92,87409,1,0,0:0:0:0:
64,45,87495,1,8,0:0:0:0:
274,162,87668,1,4,0:0:0:0:
274,167,87755,1,4,0:0:0:0:
275,178,87841,1,4,0:0:0:0:
275,195,87927,1,8,0:0:0:0:
271,218,88013,1,4,0:0:0:0:
256,250,88099,1,4,0:0:0:0:
227,281,88186,1,8,0:0:0:0:
183,300,88272,1,4,0:0:0:0:
129,301,88358,1,8,0:0:0:0:
80,276,88444,1,0,0:0:0:0:
47,232,88530,69,12,0:2:0:0:
77,187,88616,1,0,0:0:0:0:
121,158,88702,1,6,0:0:0:0:
174,148,88788,1,0,0:0:0:0:
227,160,88875,2,0,P|241:231|223:288,1,120.000004577637,8|6,0:0|0:0,0:0:0:0:
139,52,89220,1,6,0:0:0:0:
139,52,89306,1,0,0:0:0:0:
139,52,89392,1,0,0:0:0:0:
74,283,89565,1,8,0:0:0:0:
214,89,89737,1,6,0:0:0:0:
155,322,89910,5,12,0:2:0:0:
193,284,89996,1,0,0:0:0:0:
243,264,90082,1,6,0:0:0:0:
296,264,90168,1,0,0:0:0:0:
346,284,90255,2,0,P|363:208|418:164,1,120.000004577637,8|6,0:0|0:0,0:0:0:0:
217,344,90599,1,6,0:0:0:0:
217,344,90686,1,0,0:0:0:0:
217,344,90772,1,0,0:0:0:0:
443,265,90944,1,8,0:0:0:0:
204,232,91117,1,6,0:0:0:0:
443,265,91289,5,14,0:2:0:0:
453,212,91375,1,0,0:0:0:0:
442,159,91461,1,4,0:0:0:0:
412,115,91547,1,0,0:0:0:0:
367,86,91633,1,8,0:0:0:0:
322,323,91806,1,4,0:0:0:0:
131,175,91979,1,6,0:2:0:0:
131,175,92065,1,0,0:0:0:0:
131,175,92151,1,0,0:0:0:0:
322,323,92323,1,8,0:0:0:0:
367,86,92496,1,4,0:0:0:0:
322,323,92668,5,14,0:2:0:0:
272,304,92754,1,0,0:0:0:0:
245,258,92840,1,4,0:0:0:0:
252,206,92926,1,0,0:0:0:0:
290,169,93012,1,8,0:0:0:0:
470,331,93186,1,4,0:0:0:0:
367,86,93358,1,6,0:2:0:0:
367,86,93444,1,0,0:0:0:0:
367,86,93530,1,0,0:0:0:0:
272,304,93703,2,0,L|303:228,1,60.0000022888184,8|0,0:0|0:0,0:0:0:0:
367,86,93875,1,4,0:0:0:0:
114,208,94048,69,12,0:2:0:0:
131,259,94134,1,0,0:0:0:0:
169,297,94220,1,6,0:0:0:0:
220,313,94306,1,0,0:0:0:0:
272,304,94392,2,0,L|325:173,1,120.000004577637,8|6,0:0|0:0,0:0:0:0:
114,322,94737,1,6,0:0:0:0:
114,322,94823,1,0,0:0:0:0:
114,322,94910,1,0,0:0:0:0:
188,94,95082,1,8,0:0:0:0:
382,236,95255,1,6,0:0:0:0:
139,247,95427,5,4,0:2:0:0:
168,202,95513,1,0,0:0:0:0:
214,175,95599,1,6,0:0:0:0:
268,172,95685,1,0,0:0:0:0:
317,192,95772,2,0,P|321:257|300:314,1,120.000004577637,8|6,0:0|0:0,0:0:0:0:
285,68,96117,1,6,0:0:0:0:
285,68,96203,1,0,0:0:0:0:
285,68,96289,1,0,0:0:0:0:
139,247,96461,1,8,0:0:0:0:
361,73,96634,1,6,0:0:0:0:
233,275,96806,5,4,0:2:0:0:
191,308,96892,1,0,0:0:0:0:
138,319,96978,1,6,0:0:0:0:
86,306,97064,1,0,0:0:0:0:
43,270,97151,2,0,L|61:126,1,120.000004577637,8|6,0:0|0:0,0:0:0:0:
233,275,97496,2,0,L|242:203,2,60.0000022888184,6|0|0,0:0|0:0|0:0,0:0:0:0:
57,150,97841,1,8,0:0:0:0:
296,151,98013,1,6,0:0:0:0:
88,297,98186,5,14,0:2:0:0:
55,255,98272,1,0,0:0:0:0:
44,202,98358,1,4,0:0:0:0:
57,150,98444,1,0,0:0:0:0:
93,107,98530,1,8,0:0:0:0:
309,212,98703,1,4,0:0:0:0:
93,107,98875,1,6,0:2:0:0:
57,150,98961,1,0,0:0:0:0:
44,202,99048,1,0,0:0:0:0:
282,224,99220,1,8,0:0:0:0:
239,188,99306,1,0,0:0:0:0:
187,175,99392,2,0,L|128:184,1,60.0000022888184,4|0,0:0|0:0,0:0:0:0:
82,297,99565,69,12,0:2:0:0:
133,313,99651,1,0,0:0:0:0:
187,316,99737,1,6,0:0:0:0:
240,307,99823,1,0,0:0:0:0:
289,286,99910,2,0,P|279:219|215:184,1,120.000004577637,8|6,0:0|0:0,0:0:0:0:
82,297,100255,1,6,0:0:0:0:
82,297,100341,1,0,0:0:0:0:
82,297,100427,1,0,0:0:0:0:
242,119,100599,1,8,0:0:0:0:
32,236,100772,1,6,0:0:0:0:
253,325,100944,5,12,0:2:0:0:
269,274,101030,1,0,0:0:0:0:
272,220,101116,1,6,0:0:0:0:
263,167,101202,1,0,0:0:0:0:
242,119,101289,2,0,L|105:107,1,120.000004577637,8|6,0:0|0:0,0:0:0:0:
346,197,101634,1,6,0:0:0:0:
346,197,101720,1,0,0:0:0:0:
346,197,101806,1,0,0:0:0:0:
106,223,101979,1,8,0:0:0:0:
295,76,102151,1,6,0:0:0:0:
193,292,102323,5,14,0:2:0:0:
233,256,102409,1,0,0:0:0:0:
285,241,102495,1,4,0:0:0:0:
338,250,102581,1,0,0:0:0:0:
382,281,102667,1,8,0:0:0:0:
193,292,102841,1,4,0:0:0:0:
295,76,103013,1,6,0:2:0:0:
295,76,103099,1,0,0:0:0:0:
295,76,103186,1,0,0:0:0:0:
382,281,103358,1,8,0:0:0:0:
295,76,103530,1,4,0:0:0:0:
382,281,103703,5,14,0:2:0:0:
338,250,103789,1,0,0:0:0:0:
285,241,103875,1,4,0:0:0:0:
233,256,103961,1,0,0:0:0:0:
193,292,104047,1,8,0:0:0:0:
382,281,104221,1,4,0:0:0:0:
295,76,104393,1,6,0:2:0:0:
295,76,104479,1,0,0:0:0:0:
295,76,104566,1,0,0:0:0:0:
193,292,104738,1,8,0:0:0:0:
295,75,104910,1,4,0:0:0:0:
382,281,105082,69,14,0:2:0:0:
328,284,105168,1,0,0:0:0:0:
274,287,105254,1,6,0:0:0:0:
220,290,105340,1,0,0:0:0:0:
165,291,105427,2,0,P|179:228|164:171,1,120.000004577637,8|6,0:0|0:0,0:0:0:0:
45,344,105772,1,6,0:0:0:0:
45,344,105858,1,0,0:0:0:0:
45,344,105944,1,0,0:0:0:0:
248,215,106117,1,8,0:0:0:0:
37,101,106289,1,6,0:0:0:0:
160,306,106461,5,6,0:2:0:0:
208,329,106547,1,0,0:0:0:0:
262,331,106633,1,6,0:0:0:0:
312,313,106719,1,0,0:0:0:0:
352,277,106806,2,0,L|343:138,1,120.000004577637,8|6,0:0|0:0,0:0:0:0:
160,306,107151,1,6,0:0:0:0:
160,306,107237,1,0,0:0:0:0:
160,306,107323,1,0,0:0:0:0:
344,158,107496,1,8,0:0:0:0:
117,79,107668,1,6,0:0:0:0:
288,247,107841,5,6,0:2:0:0:
337,266,107927,1,0,0:0:0:0:
390,257,108013,1,6,0:0:0:0:
430,222,108099,1,0,0:0:0:0:
448,172,108186,2,0,P|430:98|394:64,1,120.000004577637,8|6,0:0|0:0,0:0:0:0:
461,300,108530,1,6,0:0:0:0:
461,300,108617,1,0,0:0:0:0:
461,300,108703,1,0,0:0:0:0:
335,96,108875,1,8,0:0:0:0:
261,325,109048,1,6,0:0:0:0:
448,172,109220,5,4,0:0:0:0:
261,325,109392,1,4,0:0:0:0:
306,339,109478,1,0,0:0:0:0:
353,334,109564,1,8,0:0:0:0:
412,101,109737,1,4,0:0:0:0:
406,99,109823,1,4,0:0:0:0:
394,94,109910,1,4,0:0:0:0:
376,89,109996,1,8,0:0:0:0:
352,83,110082,1,4,0:0:0:0:
322,80,110168,1,4,0:0:0:0:
285,83,110255,1,8,0:0:0:0:
245,96,110341,1,4,0:0:0:0:
199,112,110427,1,8,0:0:0:0:
145,116,110513,1,0,0:0:0:0:
86,102,110599,69,6,0:2:0:0:
256,192,110772,12,0,113358,0:0:0:0:
