osu file format v14

[General]
AudioFilename: audio.mp3
AudioLeadIn: 0
PreviewTime: 66461
Countdown: 0
SampleSet: Normal
StackLeniency: 0.7
Mode: 0
LetterboxInBreaks: 0
EpilepsyWarning: 1
WidescreenStoryboard: 1

[Editor]
DistanceSpacing: 1.3
BeatDivisor: 3
GridSize: 32
TimelineZoom: 1

[Metadata]
Title:Your Own Way
TitleUnicode:Your Own Way
Artist:Feint feat. Stan SB
ArtistUnicode:Feint feat. Stan SB
Creator:KeyLoGreen
Version:Advanced
Source:
Tags:dnb drum and bass fox stevenson
BeatmapID:1245453
BeatmapSetID:536548

[Difficulty]
HPDrainRate:4
CircleSize:3.5
OverallDifficulty:5
ApproachRate:7
SliderMultiplier:1.2
SliderTickRate:1

[Events]
//Background and Video events
0,0,"yowbg.jpg",0,0
//Break Periods
2,44592,54527
//Storyboard Layer 0 (Background)
//Storyboard Layer 1 (Fail)
//Storyboard Layer 2 (Pass)
//Storyboard Layer 3 (Foreground)
//Storyboard Sound Samples

[TimingPoints]
255,344.827586206897,4,1,1,50,1,0
22323,-125,4,1,1,50,0,0
41806,-125,4,1,1,5,0,0
43186,-125,4,1,1,12,0,0
43358,-125,4,1,1,25,0,0
43530,-125,4,1,1,37,0,0
43703,-125,4,1,1,50,0,0
43875,-125,4,1,1,62,0,0
44048,-125,4,1,1,75,0,0
44220,-125,4,1,1,87,0,0
44392,-125,4,1,1,100,0,0
55427,-125,4,1,1,45,0,0
60944,-100,4,1,1,50,0,0
62323,-100,4,1,1,55,0,0
63703,-100,4,1,1,60,0,0
65772,-100,4,1,1,80,0,0
66461,-80,4,1,1,100,0,1
87151,-80,4,1,1,100,0,0
88530,-80,4,1,1,100,0,1
109220,-80,4,1,1,100,0,0
112841,-80,4,1,1,75,0,0
113013,-80,4,1,1,50,0,0
113186,-80,4,1,1,25,0,0
113358,-80,4,2,0,5,0,0

[Colours]
Combo1 : 128,0,105
Combo2 : 0,128,255
Combo3 : 170,85,255
Combo4 : 242,24,57
Combo5 : 255,0,210
Combo6 : 0,64,128
Combo7 : 64,0,128
Combo8 : 128,0,0

[HitObjects]
256,192,16806,12,4,22323,0:0:0:0:
166,262,22668,69,0,0:0:0:0:
166,262,22841,2,2,P|240:286|302:260,1,144
367,169,23703,5,4,0:0:0:0:
276,98,24048,1,0,0:0:0:0:
276,98,24220,2,0,L|128:109,1,144,2|2,0:0|0:0,0:0:0:0:
198,202,25082,5,4,0:0:0:0:
86,231,25427,1,0,0:0:0:0:
86,231,25599,2,2,P|81:180|135:107,1,144
198,202,26461,5,4,0:0:0:0:
264,110,26806,1,0,0:0:0:0:
264,110,26979,2,0,P|198:83|132:107,1,144,2|2,0:0|0:0,0:0:0:0:
87,213,27841,70,0,P|93:259|138:296,1,96,4|0,0:0|0:0,0:0:0:0:
184,302,28358,2,2,L|331:286,1,144
442,296,29220,6,0,P|435:249|391:213,1,96,4|0,0:0|0:0,0:0:0:0:
345,207,29737,2,0,L|198:223,1,144,2|2,0:0|0:0,0:0:0:0:
295,290,30599,6,0,L|390:279,1,96,4|0,0:0|0:0,0:0:0:0:
448,272,31117,2,2,P|462:208|441:130,1,144
350,64,31979,6,0,L|254:74,1,96,4|0,0:0|0:0,0:0:0:0:
197,82,32497,2,0,P|183:146|204:224,1,144,2|2,0:0|0:0,0:0:0:0:
289,146,33358,69,4,0:0:0:0:
196,82,33703,1,0,0:0:0:0:
196,82,33875,2,2,L|48:91,1,144
39,205,34737,5,4,0:0:0:0:
146,162,35082,1,0,0:0:0:0:
146,162,35255,2,0,L|289:153,1,144,2|2,0:0|0:0,0:0:0:0:
391,99,36117,5,4,0:0:0:0:
396,213,36461,1,0,0:0:0:0:
396,213,36634,2,2,P|349:266|263:268,1,144
189,202,37496,5,4,0:0:0:0:
285,142,37840,1,0,0:0:0:0:
285,142,38013,2,0,P|354:156|399:229,1,144,2|2,0:0|0:0,0:0:0:0:
287,251,38875,70,0,L|171:261,1,96,4|0,0:0|0:0,0:0:0:0:
133,264,39392,2,2,P|108:227|133:128,1,144
231,183,40255,6,0,L|347:173,1,96,4|0,0:0|0:0,0:0:0:0:
385,170,40772,2,0,P|410:207|385:306,1,144,2|2,0:0|0:0,0:0:0:0:
256,192,41634,12,4,44392,0:0:0:0:
160,76,55427,102,0,L|363:96,1,192,4|4,0:0|0:0,0:0:0:0:
411,192,56806,2,0,L|208:172,1,192,4|4,0:0|0:0,0:0:0:0:
117,226,58186,6,0,P|158:273|295:259,1,192,4|4,0:0|0:0,0:0:0:0:
382,218,59565,2,0,P|341:171|204:185,1,192,4|4,0:0|0:0,0:0:0:0:
280,271,60944,6,0,L|412:298,1,120,4|0,0:0|0:0,0:0:0:0:
460,165,61634,2,0,L|328:138,1,120,4|0,0:0|0:0,0:0:0:0:
204,183,62323,2,0,P|188:128|223:61,1,120,4|0,0:0|0:0,0:0:0:0:
342,140,63013,2,0,P|358:195|323:262,1,120,4|0,0:0|0:0,0:0:0:0:
210,323,63703,6,0,L|134:333,1,60,4|0,0:0|0:0,0:0:0:0:
87,253,64048,2,0,L|163:263,1,60,4|0,0:0|0:0,0:0:0:0:
207,184,64392,2,0,L|131:194,1,60,4|0,0:0|0:0,0:0:0:0:
84,114,64737,2,0,L|160:124,1,60,4|0,0:0|0:0,0:0:0:0:
201,78,65082,2,0,L|248:67,3,30,4|0|4|0,0:0|0:0|0:0|0:0,0:0:0:0:
277,72,65427,2,0,L|324:83,3,30,4|0|4|0,0:0|0:0|0:0|0:0,0:0:0:0:
343,90,65772,54,0,P|354:118|354:148,1,60,8|4,0:0|0:0,0:0:0:0:
319,230,66117,2,0,P|300:253|274:268,1,60,8|4,0:0|0:0,0:0:0:0:
188,294,66461,70,0,L|97:286,1,75,6|6,2:0|0:0,0:0:0:0:
51,211,66806,1,8,0:0:0:0:
100,126,66979,2,0,P|136:108|197:114,2,75,6|6|0,0:0|0:0|0:0,0:0:0:0:
163,200,67496,2,0,P|200:197|233:180,1,75,8|6,0:0|0:0,0:0:0:0:
300,108,67841,6,0,L|391:119,2,75,6|6|8,2:0|0:0|0:0,0:0:0:0:
213,63,68358,2,0,L|122:74,2,75,6|6|0,0:0|0:0|0:0,0:0:0:0:
169,150,68875,2,0,L|78:161,1,75,8|6,0:0|0:0,0:0:0:0:
43,242,69220,6,2,P|89:295|179:280,1,150,6|10,2:0|0:0,0:0:0:0:
176,95,69910,2,2,P|123:141|138:231,1,150,6|10,2:0|0:0,0:0:0:0:
321,225,70599,6,2,P|275:172|185:187,1,150,6|10,2:0|0:0,0:0:0:0:
344,308,71289,2,2,P|397:262|382:172,1,150,6|10,2:0|0:0,0:0:0:0:
304,50,71979,70,0,L|213:42,1,75,6|6,2:0|0:0,0:0:0:0:
149,100,72324,1,8,0:0:0:0:
156,197,72497,2,0,P|118:194|85:177,2,75,6|6|0,0:0|0:0|0:0,0:0:0:0:
219,119,73013,2,0,P|185:101|148:99,1,75,8|6,0:0|0:0,0:0:0:0:
254,210,73359,6,0,L|345:221,2,75,6|6|8,2:0|0:0|0:0,0:0:0:0:
180,273,73875,1,6,0:0:0:0:
107,207,74048,2,0,P|111:169|128:136,1,75,6|0,0:0|0:0,0:0:0:0:
217,98,74392,2,0,P|212:135|195:168,1,75,8|6,0:0|0:0,0:0:0:0:
107,207,74737,6,0,L|16:199,1,75,6|6,2:0|0:0,0:0:0:0:
74,112,75082,1,8,0:0:0:0:
149,49,75255,2,0,P|167:85|161:146,2,75,6|6|0,0:0|0:0|0:0,0:0:0:0:
153,195,75772,2,0,P|190:192|223:175,1,75,8|6,0:0|0:0,0:0:0:0:
287,101,76117,6,0,L|378:112,2,75,6|6|8,2:0|0:0|0:0,0:0:0:0:
325,190,76634,2,0,L|416:201,2,75,6|6|0,0:0|0:0|0:0,0:0:0:0:
436,289,77151,2,0,L|362:280,1,75,8|6,0:0|0:0,0:0:0:0:
270,244,77496,70,0,P|250:214|264:144,1,75,6|6,2:0|0:0,0:0:0:0:
322,105,77841,1,8,0:0:0:0:
227,80,78014,2,0,L|145:60,2,75,6|6|0,0:0|0:0|0:0,0:0:0:0:
322,105,78531,2,0,P|359:101|392:84,1,75,8|6,0:0|0:0,0:0:0:0:
451,162,78876,6,0,L|440:253,2,75,6|6|8,2:0|0:0|0:0,0:0:0:0:
359,194,79392,2,0,L|348:285,2,75,6|6|0,0:0|0:0|0:0,0:0:0:0:
266,226,79910,2,0,L|255:317,1,75,8|6,0:0|0:0,0:0:0:0:
171,252,80255,6,2,P|191:168|261:127,1,150,6|10,2:0|0:0,0:0:0:0:
292,320,80944,2,2,P|208:300|167:230,1,150,6|10,2:0|0:0,0:0:0:0:
360,200,81634,6,2,P|340:284|270:325,1,150,6|10,2:0|0:0,0:0:0:0:
239,132,82323,2,2,P|323:152|364:222,1,150,6|10,2:0|0:0,0:0:0:0:
172,251,83014,70,0,L|81:243,1,75,6|6,2:0|0:0,0:0:0:0:
143,158,83359,1,8,0:0:0:0:
86,78,83532,2,0,P|119:60|156:58,2,75,6|6|0,0:0|0:0|0:0,0:0:0:0:
143,158,84049,2,0,P|180:155|213:138,1,75,8|6,0:0|0:0,0:0:0:0:
298,89,84394,6,0,L|309:180,2,75,6|6|8,2:0|0:0|0:0,0:0:0:0:
388,124,84910,1,6,0:0:0:0:
373,220,85082,2,0,P|322:248|284:246,1,75,6|0,0:0|0:0,0:0:0:0:
211,224,85427,2,0,P|170:181|162:144,1,75,8|6,0:0|0:0,0:0:0:0:
162,69,85772,6,0,L|236:75,1,75,6|6,2:0|0:0,0:0:0:0:
298,151,86117,1,8,0:0:0:0:
347,66,86290,2,0,P|383:48|444:54,2,75,6|6|0,0:0|0:0|0:0,0:0:0:0:
298,151,86807,2,0,P|264:168|227:171,1,75,8|6,0:0|0:0,0:0:0:0:
240,74,87151,6,0,P|332:57|380:100,1,150,4|8,0:0|0:0,0:0:0:0:
280,260,87841,2,0,P|188:277|140:234,1,150,4|8,0:0|0:0,0:0:0:0:
58,72,88530,70,0,L|132:78,1,75,14|6,2:0|0:0,0:0:0:0:
186,160,88875,1,8,0:0:0:0:
262,99,89048,2,0,P|280:135|274:196,2,75,6|6|0,0:0|0:0|0:0,0:0:0:0:
186,160,89565,2,0,P|189:197|206:230,1,75,8|6,0:0|0:0,0:0:0:0:
300,256,89910,6,0,L|391:267,2,75,14|6|8,2:0|0:0|0:0,0:0:0:0:
224,318,90427,2,0,L|133:329,2,75,6|6|0,0:0|0:0|0:0,0:0:0:0:
169,236,90944,2,0,L|78:247,1,75,8|6,0:0|0:0,0:0:0:0:
140,158,91289,6,2,P|241:198|250:235,1,150,14|10,2:0|0:0,0:0:0:0:
179,337,91979,2,2,P|219:236|256:227,1,150,6|10,2:0|0:0,0:0:0:0:
358,297,92668,6,2,P|257:257|248:220,1,150,14|10,2:0|0:0,0:0:0:0:
319,118,93358,2,2,P|279:219|242:228,1,150,6|10,2:0|0:0,0:0:0:0:
319,118,94048,70,0,L|410:126,1,75,14|6,2:0|0:0,0:0:0:0:
422,217,94393,1,8,0:0:0:0:
327,244,94566,2,0,P|291:231|264:206,2,75,6|6|0,0:0|0:0|0:0,0:0:0:0:
287,333,95083,2,0,P|253:315|216:312,1,75,8|6,0:0|0:0,0:0:0:0:
129,344,95428,6,0,L|118:253,2,75,6|6|8,2:0|0:0|0:0,0:0:0:0:
212,293,95944,1,6,0:0:0:0:
173,202,96117,2,0,P|125:183|75:198,1,75,6|0,0:0|0:0,0:0:0:0:
35,255,96461,2,0,P|42:306|80:341,1,75,8|6,0:0|0:0,0:0:0:0:
149,351,96806,6,0,L|223:344,1,75,6|6,2:0|0:0,0:0:0:0:
263,255,97151,1,8,0:0:0:0:
300,164,97324,2,0,P|336:146|397:152,2,75,6|6|0,0:0|0:0|0:0,0:0:0:0:
360,241,97841,2,0,P|397:238|430:221,1,75,8|6,0:0|0:0,0:0:0:0:
472,132,98186,6,2,P|428:62|351:44,1,150,14|10,2:0|0:0,0:0:0:0:
330,234,98875,2,2,P|412:230|466:173,1,150,6|10,2:0|0:0,0:0:0:0:
275,121,99565,70,0,L|182:101,1,75,14|6,2:0|0:0,0:0:0:0:
125,166,99910,1,8,0:0:0:0:
219,188,100082,2,0,L|312:208,2,75,6|6|0,0:0|0:0|0:0,0:0:0:0:
180,278,100600,2,0,P|148:297|111:300,1,75,8|6,0:0|0:0,0:0:0:0:
118,203,100944,6,0,P|96:172|63:154,2,75,14|6|8,2:0|0:0|0:0,0:0:0:0:
219,188,101461,2,0,P|249:166|267:133,2,75,6|6|0,0:0|0:0|0:0,0:0:0:0:
174,100,101979,2,0,P|191:67|222:46,1,75,8|6,0:0|0:0,0:0:0:0:
319,49,102323,6,2,P|356:91|351:186,1,150,14|10,2:0|0:0,0:0:0:0:
158,166,103013,2,2,P|200:129|295:134,1,150,6|10,2:0|0:0,0:0:0:0:
334,329,103703,6,2,L|355:164,1,150,14|10,2:0|0:0,0:0:0:0:
208,311,104392,2,2,L|229:146,1,150,6|10,2:0|0:0,0:0:0:0:
88,300,105083,70,0,L|96:209,1,75,14|6,2:0|0:0,0:0:0:0:
26,154,105428,1,8,0:0:0:0:
68,65,105601,2,0,P|104:47|165:53,2,75,6|6|0,0:0|0:0|0:0,0:0:0:0:
130,140,106118,2,0,P|167:137|200:120,1,75,8|6,0:0|0:0,0:0:0:0:
268,50,106463,6,0,L|359:61,2,75,6|6|8,2:0|0:0|0:0,0:0:0:0:
200,119,106979,1,6,0:0:0:0:
251,201,107151,2,0,L|342:212,1,75,6|0,0:0|0:0,0:0:0:0:
252,275,107496,2,0,L|343:286,1,75,8|6,0:0|0:0,0:0:0:0:
256,352,107841,6,0,L|165:344,1,75,6|6,2:0|0:0,0:0:0:0:
100,290,108186,1,8,0:0:0:0:
88,192,108359,2,0,P|125:194|158:211,2,75,6|6|0,0:0|0:0|0:0,0:0:0:0:
29,270,108875,2,0,P|62:287|99:289,1,75,8|6,0:0|0:0,0:0:0:0:
196,275,109220,6,0,P|277:287|311:349,1,150,4|8,0:0|0:0,0:0:0:0:
99,289,109910,2,0,P|125:210|187:176,1,150,4|8,0:0|0:0,0:0:0:0:
276,189,110427,1,8,0:0:0:0:
234,101,110599,69,6,2:0:0:0:
256,192,110772,12,0,113358,0:0:0:0:
