osu file format v14

[General]
AudioFilename: audio.mp3
AudioLeadIn: 0
PreviewTime: 66461
Countdown: 0
SampleSet: Normal
StackLeniency: 0.7
Mode: 1
LetterboxInBreaks: 0
EpilepsyWarning: 1
WidescreenStoryboard: 1

[Editor]
DistanceSpacing: 1.1
BeatDivisor: 4
GridSize: 32
TimelineZoom: 2.1

[Metadata]
Title:Your Own Way
TitleUnicode:Your Own Way
Artist:Feint feat. Stan SB
ArtistUnicode:Feint feat. Stan SB
Creator:KeyLoGreen
Version:Oni
Source:
Tags:dnb drum and bass fox stevenson
BeatmapID:1151083
BeatmapSetID:536548

[Difficulty]
HPDrainRate:6
CircleSize:2
OverallDifficulty:6
ApproachRate:9
SliderMultiplier:1.59999990844727
SliderTickRate:1

[Events]
//Background and Video events
0,0,"yowbg.jpg",0,0
//Break Periods
2,44592,54827
//Storyboard Layer 0 (Background)
//Storyboard Layer 1 (Fail)
//Storyboard Layer 2 (Pass)
//Storyboard Layer 3 (Foreground)
//Storyboard Sound Samples

[TimingPoints]
255,344.827586206897,4,1,1,50,1,0
22323,-100,4,1,1,50,0,0
41806,-100,4,1,1,5,0,0
43186,-100,4,1,1,12,0,0
43358,-100,4,1,1,25,0,0
43530,-100,4,1,1,37,0,0
43703,-100,4,1,1,50,0,0
43875,-100,4,1,1,62,0,0
44048,-100,4,1,1,75,0,0
44220,-100,4,1,1,87,0,0
44392,-100,4,1,1,100,0,0
55427,-100,4,1,1,45,0,0
60944,-100,4,1,1,50,0,0
62323,-100,4,1,1,55,0,0
63703,-100,4,1,1,60,0,0
65772,-100,4,1,1,80,0,0
66461,-100,4,1,1,100,0,1
87151,-100,4,1,1,100,0,0
88530,-100,4,1,1,100,0,1
109220,-100,4,1,1,100,0,0
112841,-100,4,1,1,75,0,0
113013,-100,4,1,1,50,0,0
113186,-100,4,1,1,25,0,0
113358,-100,4,2,0,5,0,0

[Colours]
Combo1 : 128,0,105
Combo2 : 0,128,255
Combo3 : 170,85,255
Combo4 : 242,24,57
Combo5 : 255,0,210
Combo6 : 0,64,128
Combo7 : 64,0,128
Combo8 : 128,0,0

[HitObjects]
256,192,22323,5,4,0:0:0:0:
256,192,22668,1,0,0:0:0:0:
256,192,22841,1,2,0:0:0:0:
256,192,23186,1,0,0:0:0:0:
256,192,23358,1,2,0:0:0:0:
256,192,23703,1,4,0:0:0:0:
256,192,24048,1,0,0:0:0:0:
256,192,24220,1,2,0:0:0:0:
256,192,24565,1,0,0:0:0:0:
256,192,24737,1,2,0:0:0:0:
256,192,25082,1,4,0:0:0:0:
256,192,25427,1,0,0:0:0:0:
256,192,25599,1,2,0:0:0:0:
256,192,25944,1,0,0:0:0:0:
256,192,26117,1,2,0:0:0:0:
256,192,26461,1,4,0:0:0:0:
256,192,26806,1,0,0:0:0:0:
256,192,26979,1,2,0:0:0:0:
256,192,27323,1,0,0:0:0:0:
256,192,27496,1,2,0:0:0:0:
256,192,27841,1,4,0:0:0:0:
256,192,28186,1,0,0:0:0:0:
256,192,28358,1,2,0:0:0:0:
256,192,28703,1,0,0:0:0:0:
256,192,28875,1,2,0:0:0:0:
256,192,29220,1,4,0:0:0:0:
256,192,29565,1,0,0:0:0:0:
256,192,29737,1,2,0:0:0:0:
256,192,30082,1,0,0:0:0:0:
256,192,30255,1,2,0:0:0:0:
256,192,30599,1,4,0:0:0:0:
256,192,30944,1,0,0:0:0:0:
256,192,31117,1,2,0:0:0:0:
256,192,31461,1,0,0:0:0:0:
256,192,31634,1,2,0:0:0:0:
256,192,31979,1,4,0:0:0:0:
256,192,32323,1,0,0:0:0:0:
256,192,32496,1,2,0:0:0:0:
256,192,32841,1,2,0:0:0:0:
256,192,33013,1,2,0:0:0:0:
256,192,33358,1,4,0:0:0:0:
256,192,33703,1,0,0:0:0:0:
256,192,33875,1,2,0:0:0:0:
256,192,34220,1,0,0:0:0:0:
256,192,34392,1,2,0:0:0:0:
256,192,34737,1,4,0:0:0:0:
256,192,35082,1,0,0:0:0:0:
256,192,35255,1,2,0:0:0:0:
256,192,35599,1,0,0:0:0:0:
256,192,35772,1,2,0:0:0:0:
256,192,36117,1,4,0:0:0:0:
256,192,36461,1,0,0:0:0:0:
256,192,36634,1,2,0:0:0:0:
256,192,36979,1,0,0:0:0:0:
256,192,37151,1,2,0:0:0:0:
256,192,37496,1,4,0:0:0:0:
256,192,37841,1,0,0:0:0:0:
256,192,38013,1,2,0:0:0:0:
256,192,38358,1,0,0:0:0:0:
256,192,38530,1,2,0:0:0:0:
256,192,38875,1,4,0:0:0:0:
256,192,39220,1,0,0:0:0:0:
256,192,39392,1,2,0:0:0:0:
256,192,39737,1,0,0:0:0:0:
256,192,39910,1,2,0:0:0:0:
256,192,40255,1,4,0:0:0:0:
256,192,40599,1,0,0:0:0:0:
256,192,40772,1,2,0:0:0:0:
256,192,41117,1,0,0:0:0:0:
256,192,41289,1,2,0:0:0:0:
256,192,41634,1,4,0:0:0:0:
256,192,41806,12,4,44392,0:0:0:0:
256,192,55427,5,4,0:0:0:0:
256,192,55772,1,0,0:0:0:0:
256,192,56117,1,4,0:0:0:0:
256,192,56461,1,0,0:0:0:0:
256,192,56806,1,4,0:0:0:0:
256,192,57151,1,0,0:0:0:0:
256,192,57496,1,4,0:0:0:0:
256,192,57841,1,0,0:0:0:0:
256,192,58186,1,4,0:0:0:0:
256,192,58530,1,0,0:0:0:0:
256,192,58875,1,4,0:0:0:0:
256,192,59220,1,0,0:0:0:0:
256,192,59565,1,4,0:0:0:0:
256,192,59910,1,0,0:0:0:0:
256,192,60255,1,4,0:0:0:0:
256,192,60599,1,0,0:0:0:0:
256,192,60944,1,4,0:0:0:0:
256,192,61117,1,0,0:0:0:0:
256,192,61289,1,4,0:0:0:0:
256,192,61461,1,0,0:0:0:0:
256,192,61634,1,4,0:0:0:0:
256,192,61806,1,0,0:0:0:0:
256,192,61979,1,4,0:0:0:0:
256,192,62151,1,0,0:0:0:0:
256,192,62323,1,4,0:0:0:0:
256,192,62496,1,0,0:0:0:0:
256,192,62668,1,4,0:0:0:0:
256,192,62841,1,0,0:0:0:0:
256,192,63013,1,4,0:0:0:0:
256,192,63186,1,0,0:0:0:0:
256,192,63358,1,4,0:0:0:0:
256,192,63530,1,0,0:0:0:0:
256,192,63703,1,4,0:0:0:0:
256,192,63875,1,4,0:0:0:0:
256,192,64048,1,4,0:0:0:0:
256,192,64220,1,4,0:0:0:0:
256,192,64392,1,4,0:0:0:0:
256,192,64565,1,4,0:0:0:0:
256,192,64737,1,4,0:0:0:0:
256,192,64910,1,4,0:0:0:0:
256,192,65082,1,0,0:0:0:0:
256,192,65168,1,0,0:0:0:0:
256,192,65255,1,0,0:0:0:0:
256,192,65341,1,0,0:0:0:0:
256,192,65427,1,0,0:0:0:0:
256,192,65513,1,0,0:0:0:0:
256,192,65599,1,0,0:0:0:0:
256,192,65686,1,0,0:0:0:0:
256,192,65772,1,8,0:0:0:0:
256,192,65944,1,4,0:0:0:0:
256,192,66117,1,8,0:0:0:0:
256,192,66289,1,4,0:0:0:0:
256,192,66461,5,0,0:0:0:0:
256,192,66548,1,0,0:0:0:0:
256,192,66634,1,2,0:0:0:0:
256,192,66720,1,0,0:0:0:0:
256,192,66806,1,8,0:0:0:0:
256,192,66979,1,2,0:0:0:0:
256,192,67151,1,2,0:0:0:0:
256,192,67237,1,0,0:0:0:0:
256,192,67323,1,0,0:0:0:0:
256,192,67496,1,8,0:0:0:0:
256,192,67668,1,2,0:0:0:0:
256,192,67841,5,0,0:0:0:0:
256,192,67927,1,0,0:0:0:0:
256,192,68013,1,2,0:0:0:0:
256,192,68099,1,0,0:0:0:0:
256,192,68186,1,8,0:0:0:0:
256,192,68358,1,2,0:0:0:0:
256,192,68530,1,2,0:0:0:0:
256,192,68617,1,0,0:0:0:0:
256,192,68703,1,0,0:0:0:0:
256,192,68875,1,8,0:0:0:0:
256,192,69048,1,2,0:0:0:0:
256,192,69220,5,0,0:0:0:0:
256,192,69306,1,0,0:0:0:0:
256,192,69392,1,0,0:0:0:0:
256,192,69479,1,0,0:0:0:0:
256,192,69565,1,8,0:0:0:0:
256,192,69737,1,0,0:0:0:0:
256,192,69910,1,0,0:0:0:0:
256,192,69996,1,0,0:0:0:0:
256,192,70082,1,0,0:0:0:0:
256,192,70255,1,8,0:0:0:0:
256,192,70427,1,0,0:0:0:0:
256,192,70599,5,0,0:0:0:0:
256,192,70686,1,0,0:0:0:0:
256,192,70772,1,0,0:0:0:0:
256,192,70858,1,0,0:0:0:0:
256,192,70944,1,8,0:0:0:0:
256,192,71117,1,0,0:0:0:0:
256,192,71289,1,0,0:0:0:0:
256,192,71375,1,0,0:0:0:0:
256,192,71461,1,0,0:0:0:0:
256,192,71634,1,8,0:0:0:0:
256,192,71806,1,0,0:0:0:0:
256,192,71979,5,0,0:0:0:0:
256,192,72065,1,0,0:0:0:0:
256,192,72151,1,2,0:0:0:0:
256,192,72237,1,0,0:0:0:0:
256,192,72323,1,8,0:0:0:0:
256,192,72496,1,2,0:0:0:0:
256,192,72668,1,2,0:0:0:0:
256,192,72755,1,0,0:0:0:0:
256,192,72841,1,0,0:0:0:0:
256,192,73013,1,8,0:0:0:0:
256,192,73186,1,2,0:0:0:0:
256,192,73358,5,0,0:0:0:0:
256,192,73444,1,0,0:0:0:0:
256,192,73530,1,2,0:0:0:0:
256,192,73617,1,0,0:0:0:0:
256,192,73703,1,8,0:0:0:0:
256,192,73875,1,2,0:0:0:0:
256,192,74048,1,2,0:0:0:0:
256,192,74134,1,0,0:0:0:0:
256,192,74220,1,0,0:0:0:0:
256,192,74392,1,8,0:0:0:0:
256,192,74565,1,2,0:0:0:0:
256,192,74737,5,0,0:0:0:0:
256,192,74823,1,0,0:0:0:0:
256,192,74910,1,2,0:0:0:0:
256,192,74996,1,0,0:0:0:0:
256,192,75082,1,8,0:0:0:0:
256,192,75255,1,2,0:0:0:0:
256,192,75427,1,2,0:0:0:0:
256,192,75513,1,0,0:0:0:0:
256,192,75599,1,0,0:0:0:0:
256,192,75772,1,8,0:0:0:0:
256,192,75944,1,2,0:0:0:0:
256,192,76117,5,0,0:0:0:0:
256,192,76203,1,0,0:0:0:0:
256,192,76289,1,2,0:0:0:0:
256,192,76375,1,0,0:0:0:0:
256,192,76461,1,8,0:0:0:0:
256,192,76634,1,2,0:0:0:0:
256,192,76806,1,2,0:0:0:0:
256,192,76892,1,0,0:0:0:0:
256,192,76979,1,0,0:0:0:0:
256,192,77151,1,8,0:0:0:0:
256,192,77237,1,0,0:0:0:0:
256,192,77323,1,2,0:0:0:0:
256,192,77410,1,0,0:0:0:0:
256,192,77496,5,0,0:0:0:0:
256,192,77582,1,0,0:0:0:0:
256,192,77668,1,2,0:0:0:0:
256,192,77755,1,0,0:0:0:0:
256,192,77841,1,8,0:0:0:0:
256,192,78013,1,2,0:0:0:0:
256,192,78186,1,2,0:0:0:0:
256,192,78272,1,0,0:0:0:0:
256,192,78358,1,0,0:0:0:0:
256,192,78530,1,8,0:0:0:0:
256,192,78703,1,2,0:0:0:0:
256,192,78875,5,0,0:0:0:0:
256,192,78961,1,0,0:0:0:0:
256,192,79048,1,2,0:0:0:0:
256,192,79134,1,0,0:0:0:0:
256,192,79220,1,8,0:0:0:0:
256,192,79392,1,2,0:0:0:0:
256,192,79565,1,2,0:0:0:0:
256,192,79651,1,0,0:0:0:0:
256,192,79737,1,0,0:0:0:0:
256,192,79910,1,8,0:0:0:0:
256,192,80082,1,2,0:0:0:0:
256,192,80255,5,0,0:0:0:0:
256,192,80341,1,0,0:0:0:0:
256,192,80427,1,0,0:0:0:0:
256,192,80513,1,0,0:0:0:0:
256,192,80599,1,8,0:0:0:0:
256,192,80772,1,0,0:0:0:0:
256,192,80944,1,0,0:0:0:0:
256,192,81030,1,0,0:0:0:0:
256,192,81117,1,0,0:0:0:0:
256,192,81289,1,8,0:0:0:0:
256,192,81461,1,0,0:0:0:0:
256,192,81634,5,0,0:0:0:0:
256,192,81720,1,0,0:0:0:0:
256,192,81806,1,0,0:0:0:0:
256,192,81892,1,0,0:0:0:0:
256,192,81979,1,8,0:0:0:0:
256,192,82151,1,0,0:0:0:0:
256,192,82323,1,0,0:0:0:0:
256,192,82410,1,0,0:0:0:0:
256,192,82496,1,0,0:0:0:0:
256,192,82668,1,8,0:0:0:0:
256,192,82841,1,0,0:0:0:0:
256,192,83013,5,0,0:0:0:0:
256,192,83099,1,0,0:0:0:0:
256,192,83186,1,2,0:0:0:0:
256,192,83272,1,0,0:0:0:0:
256,192,83358,1,8,0:0:0:0:
256,192,83530,1,2,0:0:0:0:
256,192,83703,1,2,0:0:0:0:
256,192,83789,1,0,0:0:0:0:
256,192,83875,1,0,0:0:0:0:
256,192,84048,1,8,0:0:0:0:
256,192,84220,1,2,0:0:0:0:
256,192,84392,5,0,0:0:0:0:
256,192,84479,1,0,0:0:0:0:
256,192,84565,1,2,0:0:0:0:
256,192,84651,1,0,0:0:0:0:
256,192,84737,1,8,0:0:0:0:
256,192,84910,1,2,0:0:0:0:
256,192,85082,1,2,0:0:0:0:
256,192,85168,1,0,0:0:0:0:
256,192,85255,1,0,0:0:0:0:
256,192,85427,1,8,0:0:0:0:
256,192,85599,1,2,0:0:0:0:
256,192,85772,5,0,0:0:0:0:
256,192,85858,1,0,0:0:0:0:
256,192,85944,1,2,0:0:0:0:
256,192,86030,1,0,0:0:0:0:
256,192,86117,1,8,0:0:0:0:
256,192,86289,1,2,0:0:0:0:
256,192,86461,1,2,0:0:0:0:
256,192,86548,1,0,0:0:0:0:
256,192,86634,1,0,0:0:0:0:
256,192,86806,1,8,0:0:0:0:
256,192,86979,1,2,0:0:0:0:
256,192,87151,5,4,0:0:0:0:
256,192,87323,1,0,0:0:0:0:
256,192,87410,1,0,0:0:0:0:
256,192,87496,1,8,0:0:0:0:
256,192,87668,1,0,0:0:0:0:
256,192,87755,1,0,0:0:0:0:
256,192,87841,1,0,0:0:0:0:
256,192,87927,1,8,0:0:0:0:
256,192,88013,1,0,0:0:0:0:
256,192,88099,1,0,0:0:0:0:
256,192,88186,1,8,0:0:0:0:
256,192,88272,1,0,0:0:0:0:
256,192,88358,1,8,0:0:0:0:
256,192,88444,1,0,0:0:0:0:
256,192,88530,5,8,0:0:0:0:
256,192,88617,1,0,0:0:0:0:
256,192,88703,1,2,0:0:0:0:
256,192,88789,1,0,0:0:0:0:
256,192,88875,1,8,0:0:0:0:
256,192,89048,1,2,0:0:0:0:
256,192,89220,1,2,0:0:0:0:
256,192,89306,1,0,0:0:0:0:
256,192,89392,1,0,0:0:0:0:
256,192,89565,1,8,0:0:0:0:
256,192,89737,1,2,0:0:0:0:
256,192,89910,5,8,0:0:0:0:
256,192,89996,1,0,0:0:0:0:
256,192,90082,1,2,0:0:0:0:
256,192,90168,1,0,0:0:0:0:
256,192,90255,1,8,0:0:0:0:
256,192,90427,1,2,0:0:0:0:
256,192,90599,1,2,0:0:0:0:
256,192,90686,1,0,0:0:0:0:
256,192,90772,1,0,0:0:0:0:
256,192,90944,1,8,0:0:0:0:
256,192,91117,1,2,0:0:0:0:
256,192,91289,5,8,0:0:0:0:
256,192,91375,1,0,0:0:0:0:
256,192,91461,1,0,0:0:0:0:
256,192,91548,1,0,0:0:0:0:
256,192,91634,1,8,0:0:0:0:
256,192,91806,1,0,0:0:0:0:
256,192,91979,1,0,0:0:0:0:
256,192,92065,1,0,0:0:0:0:
256,192,92151,1,0,0:0:0:0:
256,192,92323,1,8,0:0:0:0:
256,192,92496,1,0,0:0:0:0:
256,192,92668,5,8,0:0:0:0:
256,192,92755,1,0,0:0:0:0:
256,192,92841,1,0,0:0:0:0:
256,192,92927,1,0,0:0:0:0:
256,192,93013,1,8,0:0:0:0:
256,192,93186,1,0,0:0:0:0:
256,192,93358,1,0,0:0:0:0:
256,192,93444,1,0,0:0:0:0:
256,192,93530,1,0,0:0:0:0:
256,192,93703,1,8,0:0:0:0:
256,192,93875,1,0,0:0:0:0:
256,192,94048,5,8,0:0:0:0:
256,192,94134,1,0,0:0:0:0:
256,192,94220,1,2,0:0:0:0:
256,192,94306,1,0,0:0:0:0:
256,192,94392,1,8,0:0:0:0:
256,192,94565,1,2,0:0:0:0:
256,192,94737,1,2,0:0:0:0:
256,192,94823,1,0,0:0:0:0:
256,192,94910,1,0,0:0:0:0:
256,192,95082,1,8,0:0:0:0:
256,192,95255,1,2,0:0:0:0:
256,192,95427,5,0,0:0:0:0:
256,192,95513,1,0,0:0:0:0:
256,192,95599,1,2,0:0:0:0:
256,192,95686,1,0,0:0:0:0:
256,192,95772,1,8,0:0:0:0:
256,192,95944,1,2,0:0:0:0:
256,192,96117,1,2,0:0:0:0:
256,192,96203,1,0,0:0:0:0:
256,192,96289,1,0,0:0:0:0:
256,192,96461,1,8,0:0:0:0:
256,192,96634,1,2,0:0:0:0:
256,192,96806,5,0,0:0:0:0:
256,192,96892,1,0,0:0:0:0:
256,192,96979,1,2,0:0:0:0:
256,192,97065,1,0,0:0:0:0:
256,192,97151,1,8,0:0:0:0:
256,192,97323,1,2,0:0:0:0:
256,192,97496,1,2,0:0:0:0:
256,192,97582,1,0,0:0:0:0:
256,192,97668,1,0,0:0:0:0:
256,192,97841,1,8,0:0:0:0:
256,192,98013,1,2,0:0:0:0:
256,192,98186,5,8,0:0:0:0:
256,192,98272,1,0,0:0:0:0:
256,192,98358,1,2,0:0:0:0:
256,192,98444,1,0,0:0:0:0:
256,192,98530,1,8,0:0:0:0:
256,192,98703,1,2,0:0:0:0:
256,192,98875,1,2,0:0:0:0:
256,192,98961,1,0,0:0:0:0:
256,192,99048,1,0,0:0:0:0:
256,192,99220,1,8,0:0:0:0:
256,192,99306,1,0,0:0:0:0:
256,192,99392,1,2,0:0:0:0:
256,192,99479,1,0,0:0:0:0:
256,192,99565,5,8,0:0:0:0:
256,192,99651,1,0,0:0:0:0:
256,192,99737,1,2,0:0:0:0:
256,192,99823,1,0,0:0:0:0:
256,192,99910,1,8,0:0:0:0:
256,192,100082,1,2,0:0:0:0:
256,192,100255,1,2,0:0:0:0:
256,192,100341,1,0,0:0:0:0:
256,192,100427,1,0,0:0:0:0:
256,192,100599,1,8,0:0:0:0:
256,192,100772,1,2,0:0:0:0:
256,192,100944,5,8,0:0:0:0:
256,192,101030,1,0,0:0:0:0:
256,192,101117,1,2,0:0:0:0:
256,192,101203,1,0,0:0:0:0:
256,192,101289,1,8,0:0:0:0:
256,192,101461,1,2,0:0:0:0:
256,192,101634,1,2,0:0:0:0:
256,192,101720,1,0,0:0:0:0:
256,192,101806,1,0,0:0:0:0:
256,192,101979,1,8,0:0:0:0:
256,192,102151,1,2,0:0:0:0:
256,192,102323,5,8,0:0:0:0:
256,192,102410,1,0,0:0:0:0:
256,192,102496,1,0,0:0:0:0:
256,192,102582,1,0,0:0:0:0:
256,192,102668,1,8,0:0:0:0:
256,192,102841,1,0,0:0:0:0:
256,192,103013,1,0,0:0:0:0:
256,192,103099,1,0,0:0:0:0:
256,192,103186,1,0,0:0:0:0:
256,192,103358,1,8,0:0:0:0:
256,192,103530,1,0,0:0:0:0:
256,192,103703,5,8,0:0:0:0:
256,192,103789,1,0,0:0:0:0:
256,192,103875,1,0,0:0:0:0:
256,192,103961,1,0,0:0:0:0:
256,192,104048,1,8,0:0:0:0:
256,192,104220,1,0,0:0:0:0:
256,192,104392,1,0,0:0:0:0:
256,192,104479,1,0,0:0:0:0:
256,192,104565,1,0,0:0:0:0:
256,192,104737,1,8,0:0:0:0:
256,192,104910,1,0,0:0:0:0:
256,192,105082,5,8,0:0:0:0:
256,192,105168,1,0,0:0:0:0:
256,192,105255,1,2,0:0:0:0:
256,192,105341,1,0,0:0:0:0:
256,192,105427,1,8,0:0:0:0:
256,192,105599,1,2,0:0:0:0:
256,192,105772,1,2,0:0:0:0:
256,192,105858,1,0,0:0:0:0:
256,192,105944,1,0,0:0:0:0:
256,192,106117,1,8,0:0:0:0:
256,192,106289,1,2,0:0:0:0:
256,192,106461,5,0,0:0:0:0:
256,192,106548,1,0,0:0:0:0:
256,192,106634,1,2,0:0:0:0:
256,192,106720,1,0,0:0:0:0:
256,192,106806,1,8,0:0:0:0:
256,192,106979,1,2,0:0:0:0:
256,192,107151,1,2,0:0:0:0:
256,192,107237,1,0,0:0:0:0:
256,192,107323,1,0,0:0:0:0:
256,192,107496,1,8,0:0:0:0:
256,192,107668,1,2,0:0:0:0:
256,192,107841,5,0,0:0:0:0:
256,192,107927,1,0,0:0:0:0:
256,192,108013,1,2,0:0:0:0:
256,192,108099,1,0,0:0:0:0:
256,192,108186,1,8,0:0:0:0:
256,192,108358,1,2,0:0:0:0:
256,192,108530,1,2,0:0:0:0:
256,192,108617,1,0,0:0:0:0:
256,192,108703,1,0,0:0:0:0:
256,192,108875,1,8,0:0:0:0:
256,192,109048,1,2,0:0:0:0:
256,192,109220,5,4,0:0:0:0:
256,192,109392,1,0,0:0:0:0:
256,192,109479,1,0,0:0:0:0:
256,192,109565,1,8,0:0:0:0:
256,192,109737,1,0,0:0:0:0:
256,192,109823,1,0,0:0:0:0:
256,192,109910,1,0,0:0:0:0:
256,192,109996,1,8,0:0:0:0:
256,192,110082,5,0,0:0:0:0:
256,192,110168,1,0,0:0:0:0:
256,192,110255,1,8,0:0:0:0:
256,192,110341,1,0,0:0:0:0:
256,192,110427,1,8,0:0:0:0:
256,192,110513,1,0,0:0:0:0:
256,192,110599,1,8,0:0:0:0:
256,192,110772,12,0,113358,0:0:0:0:
