osu file format v14

[General]
AudioFilename: audio.mp3
AudioLeadIn: 0
PreviewTime: 66461
Countdown: 0
SampleSet: Normal
StackLeniency: 0.7
Mode: 0
LetterboxInBreaks: 0
EpilepsyWarning: 1
WidescreenStoryboard: 1

[Editor]
Bookmarks: 58186
DistanceSpacing: 1.2
BeatDivisor: 2
GridSize: 4
TimelineZoom: 1

[Metadata]
Title:Your Own Way
TitleUnicode:Your Own Way
Artist:Feint feat. Stan SB
ArtistUnicode:Feint feat. Stan SB
Creator:KeyLoGreen
Version:Intermediate
Source:
Tags:dnb drum and bass fox stevenson
BeatmapID:1143717
BeatmapSetID:536548

[Difficulty]
HPDrainRate:2
CircleSize:2.5
OverallDifficulty:2
ApproachRate:4
SliderMultiplier:1
SliderTickRate:1

[Events]
//Background and Video events
0,0,"yowbg.jpg",0,0
//Break Periods
2,44592,54107
//Storyboard Layer 0 (Background)
//Storyboard Layer 1 (Fail)
//Storyboard Layer 2 (Pass)
//Storyboard Layer 3 (Foreground)
//Storyboard Sound Samples

[TimingPoints]
255,344.827586206897,4,1,1,50,1,0
22323,-125,4,1,1,50,0,0
41806,-100,4,1,1,5,0,0
43186,-100,4,1,1,12,0,0
43358,-100,4,1,1,25,0,0
43530,-100,4,1,1,37,0,0
43703,-100,4,1,1,50,0,0
43875,-100,4,1,1,62,0,0
44048,-100,4,1,1,75,0,0
44220,-100,4,1,1,87,0,0
44392,-100,4,1,1,100,0,0
55427,-100,4,1,1,45,0,0
60944,-100,4,1,1,50,0,0
62323,-100,4,1,1,55,0,0
63703,-100,4,1,1,60,0,0
65772,-100,4,1,1,80,0,0
66461,-100,4,1,1,100,0,1
87151,-100,4,1,1,100,0,0
88530,-100,4,1,1,100,0,1
109220,-100,4,1,1,100,0,0
112841,-100,4,1,1,75,0,0
113013,-100,4,1,1,50,0,0
113186,-100,4,1,1,25,0,0
113358,-100,4,2,0,5,0,0

[Colours]
Combo1 : 128,0,105
Combo2 : 0,128,255
Combo3 : 170,85,255
Combo4 : 242,24,57
Combo5 : 255,0,210
Combo6 : 0,64,128
Combo7 : 64,0,128
Combo8 : 128,0,0

[HitObjects]
168,260,22323,70,0,P|228:288|316:272,1,120,4|2,0:0|0:0,0:0:0:0:
404,212,23358,1,2,0:0:0:0:
348,132,23703,6,0,P|288:104|200:120,1,120,4|2,0:0|0:0,0:0:0:0:
112,180,24738,1,2,0:0:0:0:
112,180,25082,6,0,B|104:260|104:260|116:304,1,120,4|2,0:0|0:0,0:0:0:0:
208,188,26117,1,2,0:0:0:0:
208,188,26461,6,0,B|216:108|216:108|204:64,1,120,4|2,0:0|0:0,0:0:0:0:
116,184,27496,1,2,0:0:0:0:
116,184,27841,70,0,P|132:244|208:280,2,120,4|2|2,0:0|0:0|0:0,0:0:0:0:
160,100,29220,6,0,L|336:80,1,160,4|0,0:0|0:0,0:0:0:0:
400,132,30255,1,0,0:0:0:0:
480,184,30599,6,0,L|360:197,1,120,4|2,0:0|0:0,0:0:0:0:
260,300,31634,1,2,0:0:0:0:
260,300,31979,6,0,L|140:313,2,120,4|2|2,0:0|0:0|0:0,0:0:0:0:
340,244,33358,70,0,P|344:176|328:128,1,120,4|2,0:0|0:0,0:0:0:0:
204,56,34392,1,2,0:0:0:0:
148,136,34737,6,0,P|144:204|160:252,1,120,4|2,0:0|0:0,0:0:0:0:
284,324,35771,1,2,0:0:0:0:
372,284,36117,6,0,L|392:120,1,160,4|0,0:0|0:0,0:0:0:0:
308,76,37151,2,0,L|288:240,1,160
76,164,38875,6,0,P|96:124|272:112,1,240,4|0,0:0|0:0,0:0:0:0:
292,204,40255,2,0,P|326:273|402:288,1,160,4|0,0:0|0:0,0:0:0:0:
468,216,41289,1,4,0:0:0:0:
256,192,41634,12,4,44392,0:0:0:0:
344,288,55427,70,0,P|368:192|328:72,2,200,4|4|4,0:0|0:0|0:0,0:0:0:0:
256,88,57496,5,4,0:0:0:0:
168,288,58186,6,0,P|144:192|184:72,2,200,4|4|4,0:0|0:0|0:0,0:0:0:0:
256,88,60255,5,4,0:0:0:0:
344,268,60944,70,0,L|452:292,2,100,4|0|4,0:0|0:0|0:0,0:0:0:0:
256,200,61979,1,0,0:0:0:0:
168,268,62323,6,0,L|70:289,2,100,4|0|4,0:0|0:0|0:0,0:0:0:0:
256,200,63358,1,0,0:0:0:0:
340,132,63703,6,0,L|388:120,2,50,4|0|4,0:0|0:0|0:0,0:0:0:0:
372,248,64392,2,0,L|420:236,2,50,4|0|4,0:0|0:0|0:0,0:0:0:0:
244,252,65082,6,0,L|180:232,1,50,4|0,0:0|0:0,0:0:0:0:
124,256,65427,2,0,L|60:236,1,50,4|0,0:0|0:0,0:0:0:0:
40,176,65772,2,0,P|44:108|96:56,1,100,8|8,0:0|0:0,0:0:0:0:
208,116,66461,6,0,B|260:124|260:124|312:116,1,100,4|8,2:0|0:0,0:0:0:0:
368,136,66979,1,4,0:0:0:0:
428,156,67151,2,0,P|440:208|424:256,1,100,4|8,0:0|0:0,0:0:0:0:
300,216,67841,6,0,P|240:208|184:232,1,100,4|8,2:0|0:0,0:0:0:0:
156,264,68358,1,4,0:0:0:0:
96,236,68530,2,0,B|80:188|80:188|96:128,1,100,4|8,0:0|0:0,0:0:0:0:
208,84,69220,6,2,L|320:96,1,100,6|10,2:0|0:0,0:0:0:0:
400,188,69910,2,2,L|288:176,1,100,6|10,2:0|0:0,0:0:0:0:
172,160,70599,6,2,L|72:149,1,100,6|10,2:0|0:0,0:0:0:0:
158,247,71289,2,2,L|257:257,1,100,6|10,2:0|0:0,0:0:0:0:
380,220,71979,70,0,P|396:164|376:108,1,100,4|8,2:0|0:0,0:0:0:0:
344,76,72496,1,4,0:0:0:0:
288,48,72668,2,0,L|164:40,1,100,4|8,0:0|0:0,0:0:0:0:
68,92,73358,6,0,P|52:148|72:204,1,100,4|8,2:0|0:0,0:0:0:0:
104,236,73875,1,4,0:0:0:0:
160,264,74047,2,0,L|284:272,1,100,4|8,0:0|0:0,0:0:0:0:
384,308,74737,5,4,2:0:0:0:
412,180,75082,2,0,L|355:167,1,50,8|4,0:0|0:0,0:0:0:0:
316,124,75427,2,0,P|308:72|328:20,1,100,4|8,0:0|0:0,0:0:0:0:
452,56,76117,5,4,2:0:0:0:
412,180,76461,2,0,L|400:232,1,50,8|4,0:0|0:0,0:0:0:0:
356,276,76806,2,0,P|304:284|252:264,1,100,4|8,0:0|0:0,0:0:0:0:
152,196,77496,70,0,B|144:168|144:168|160:80,1,100,4|8,2:0|0:0,0:0:0:0:
220,80,78013,1,4,0:0:0:0:
284,60,78186,2,0,P|340:52|395:73,1,100,4|8,0:0|0:0,0:0:0:0:
460,168,78875,6,0,P|472:224|452:272,1,100,4|8,2:0|0:0,0:0:0:0:
400,296,79392,1,4,0:0:0:0:
340,272,79565,2,0,B|292:256|292:256|240:272,1,100,4|8,0:0|0:0,0:0:0:0:
136,212,80255,6,2,L|132:96,1,100,6|10,2:0|0:0,0:0:0:0:
224,208,80944,2,2,L|220:92,1,100,6|10,2:0|0:0,0:0:0:0:
312,204,81634,6,2,L|315:303,1,100,6|10,2:0|0:0,0:0:0:0:
400,200,82324,2,2,L|403:299,1,100,6|10,2:0|0:0,0:0:0:0:
484,196,83013,70,0,P|488:144|456:72,1,100,4|8,2:0|0:0,0:0:0:0:
420,60,83530,1,0,0:0:0:0:
356,52,83703,2,0,L|256:64,1,100,4|8,0:0|0:0,0:0:0:0:
268,192,84392,6,0,P|248:244|192:271,1,100,4|8,2:0|0:0,0:0:0:0:
147,262,84910,1,0,0:0:0:0:
120,204,85082,2,0,P|133:156|172:125,1,100,4|8,0:0|0:0,0:0:0:0:
268,192,85772,5,4,2:0:0:0:
356,96,86117,2,0,L|412:112,1,50,8|0,0:0|0:0,0:0:0:0:
464,128,86461,2,0,P|480:180|464:232,1,100,4|8,0:0|0:0,0:0:0:0:
364,300,87151,6,0,B|268:340|268:264|140:320,1,200,4|0,2:0|0:0,0:0:0:0:
400,196,88530,70,0,P|408:140|368:84,1,100,12|8,2:0|0:0,0:0:0:0:
332,72,89048,1,4,0:0:0:0:
280,112,89220,2,0,P|234:131|186:122,1,100,4|8,0:0|0:0,0:0:0:0:
108,224,89910,6,0,L|224:236,1,100,12|8,2:0|0:0,0:0:0:0:
256,276,90427,1,4,0:0:0:0:
304,320,90599,2,0,L|420:332,1,100,4|8,0:0|0:0,0:0:0:0:
444,204,91289,6,2,P|440:144|412:100,1,100,14|10,2:0|0:0,0:0:0:0:
328,204,91979,2,2,P|332:264|360:308,1,100,6|10,2:0|0:0,0:0:0:0:
340,124,92668,6,2,P|336:64|308:20,1,100,14|10,2:0|0:0,0:0:0:0:
224,124,93358,2,2,P|228:184|256:228,1,100,6|10,2:0|0:0,0:0:0:0:
328,320,94048,70,0,L|348:200,1,100,12|8,2:0|0:0,0:0:0:0:
396,184,94565,1,4,0:0:0:0:
452,148,94737,2,0,L|472:28,1,100,4|8,0:0|0:0,0:0:0:0:
344,92,95427,6,0,P|292:96|244:76,1,100,4|8,2:0|0:0,0:0:0:0:
192,44,95944,1,4,0:0:0:0:
132,72,96117,2,0,P|85:89|36:85,1,100,4|8,0:0|0:0,0:0:0:0:
152,144,96806,6,0,B|216:156|216:156|240:184,1,100,4|8,2:0|0:0,0:0:0:0:
276,236,97323,1,4,0:0:0:0:
312,288,97496,2,0,B|334:314|334:314|398:326,1,100,4|8,0:0|0:0,0:0:0:0:
344,196,98186,6,2,P|298:163|253:163,1,100,14|10,2:0|0:0,0:0:0:0:
215,286,98875,2,2,P|165:283|127:252,1,100,6|10,2:0|0:0,0:0:0:0:
64,124,99565,70,0,L|164:108,1,100,12|8,2:0|0:0,0:0:0:0:
220,136,100082,1,4,0:0:0:0:
280,160,100255,2,0,B|330:152|330:152|366:116,1,100,4|8,0:0|0:0,0:0:0:0:
248,67,100944,6,0,P|192:79|152:127,1,100,12|8,2:0|0:0,0:0:0:0:
140,168,101461,1,4,0:0:0:0:
164,228,101634,2,0,P|201:260|250:268,1,100,4|8,0:0|0:0,0:0:0:0:
364,204,102323,6,2,L|376:100,1,100,14|10,2:0|0:0,0:0:0:0:
248,136,103013,2,2,L|144:124,1,100,6|10,2:0|0:0,0:0:0:0:
180,252,103703,6,2,L|168:356,1,100,14|10,2:0|0:0,0:0:0:0:
296,320,104393,2,2,L|400:332,1,100,6|10,2:0|0:0,0:0:0:0:
376,204,105082,70,0,P|380:144|356:92,1,100,12|8,2:0|0:0,0:0:0:0:
320,64,105599,1,4,0:0:0:0:
260,84,105772,2,0,B|208:96|208:96|160:84,1,100,4|8,0:0|0:0,0:0:0:0:
80,184,106461,6,0,P|76:244|100:296,1,100,4|8,2:0|0:0,0:0:0:0:
136,324,106978,1,4,0:0:0:0:
196,304,107151,2,0,B|248:292|248:292|296:304,1,100,4|8,0:0|0:0,0:0:0:0:
404,236,107841,5,4,2:0:0:0:
288,180,108186,2,0,L|240:192,1,50,8|4,0:0|0:0,0:0:0:0:
176,204,108530,2,0,B|128:192|128:192|64:208,1,100,4|8,0:0|0:0,0:0:0:0:
40,304,109220,6,0,P|104:324|152:300,1,100,4|8,2:0|0:0,0:0:0:0:
244,248,109910,2,0,P|292:238|337:258,1,100,2|8,2:0|0:0,0:0:0:0:
388,300,110427,1,8,0:0:0:0:
440,340,110599,1,4,0:0:0:0:
256,192,110772,12,0,113358,0:0:0:0:
