osu file format v14

[General]
AudioFilename: audio.mp3
AudioLeadIn: 0
PreviewTime: 66461
Countdown: 0
SampleSet: Normal
StackLeniency: 0.7
Mode: 0
LetterboxInBreaks: 0
EpilepsyWarning: 1
WidescreenStoryboard: 1

[Editor]
DistanceSpacing: 1.2
BeatDivisor: 2
GridSize: 4
TimelineZoom: 1

[Metadata]
Title:Your Own Way
TitleUnicode:Your Own Way
Artist:Feint feat. Stan SB
ArtistUnicode:Feint feat. Stan SB
Creator:KeyLoGreen
Version:Beginner
Source:
Tags:dnb drum and bass fox stevenson
BeatmapID:1138659
BeatmapSetID:536548

[Difficulty]
HPDrainRate:1
CircleSize:2
OverallDifficulty:1
ApproachRate:2
SliderMultiplier:0.8
SliderTickRate:1

[Events]
//Background and Video events
0,0,"yowbg.jpg",0,0
//Break Periods
2,44592,53867
//Storyboard Layer 0 (Background)
//Storyboard Layer 1 (Fail)
//Storyboard Layer 2 (Pass)
//Storyboard Layer 3 (Foreground)
//Storyboard Sound Samples

[TimingPoints]
255,344.827586206897,4,1,1,50,1,0
41634,-100,4,1,1,5,0,0
43186,-100,4,1,1,12,0,0
43358,-100,4,1,1,25,0,0
43530,-100,4,1,1,37,0,0
43703,-100,4,1,1,50,0,0
43875,-100,4,1,1,62,0,0
44048,-100,4,1,1,75,0,0
44220,-100,4,1,1,87,0,0
44392,-100,4,1,1,100,0,0
55427,-100,4,1,1,45,0,0
60944,-100,4,1,1,50,0,0
62323,-100,4,1,1,55,0,0
63703,-100,4,1,1,60,0,0
65772,-100,4,1,1,80,0,0
66461,-100,4,1,1,100,0,1
87151,-100,4,1,1,100,0,0
88530,-100,4,1,1,100,0,1
109220,-100,4,1,1,100,0,0
112841,-100,4,1,1,75,0,0
113013,-100,4,1,1,50,0,0
113186,-100,4,1,1,25,0,0
113358,-100,4,2,0,5,0,0

[Colours]
Combo1 : 128,0,105
Combo2 : 0,128,255
Combo3 : 170,85,255
Combo4 : 242,24,57
Combo5 : 255,0,210
Combo6 : 0,64,128
Combo7 : 64,0,128
Combo8 : 128,0,0

[HitObjects]
108,192,22323,70,0,B|236:148|224:240|356:180,1,240,4|0,0:0|0:0,0:0:0:0:
324,100,23703,2,0,P|276:128|352:272,1,240,4|0,0:0|0:0,0:0:0:0:
420,264,25082,6,0,B|436:104|436:104|392:32,1,240,4|0,0:0|0:0,0:0:0:0:
336,112,26461,2,0,P|296:144|120:112,1,240,4|0,0:0|0:0,0:0:0:0:
200,56,27841,6,0,B|244:184|152:172|212:304,1,240,4|0,0:0|0:0,0:0:0:0:
292,336,29220,2,0,P|340:308|376:212,1,160,4|0,0:0|0:0,0:0:0:0:
344,140,30255,1,0,0:0:0:0:
308,68,30599,6,0,B|228:72|228:72|168:124|168:124|80:128,1,240,4|0,0:0|0:0,0:0:0:0:
136,40,31979,2,0,P|192:32|240:176,1,240,4|0,0:0|0:0,0:0:0:0:
192,256,33358,70,0,B|272:264|272:264|436:224,1,240,4|0,0:0|0:0,0:0:0:0:
480,148,34737,2,0,B|448:84|376:100|376:100|264:128,1,240,4|0,0:0|0:0,0:0:0:0:
192,192,36117,6,0,P|148:204|184:96,1,240,4|0,0:0|0:0,0:0:0:0:
264,132,37496,2,0,B|336:104|336:104|416:132|416:132|456:208,1,240,4|0,0:0|0:0,0:0:0:0:
408,288,38875,6,0,P|357:325|174:321,1,240,4|0,0:0|0:0,0:0:0:0:
166,233,40255,2,0,P|216:195|399:199,1,240,4|0,0:0|0:0,0:0:0:0:
256,192,41634,12,4,44392,0:0:0:0:
352,272,55427,86,0,P|376:192|352:120,3,160,4|4|4|4,0:0|0:0|0:0|0:0,0:0:0:0:
158,121,58186,6,0,P|135:196|160:272,3,160,4|4|4|4,0:0|0:0|0:0|0:0,0:0:0:0:
304,304,60944,6,0,L|460:256,1,160,4|4,0:0|0:0,0:0:0:0:
408,72,62323,2,0,L|252:120,1,160,4|4,0:0|0:0,0:0:0:0:
208,304,63703,6,0,L|52:256,1,160,4|4,0:0|0:0,0:0:0:0:
104,72,65082,2,0,L|260:120,1,160,4|8,0:0|0:0,0:0:0:0:
304,204,66117,1,8,0:0:0:0:
356,284,66461,6,0,L|432:312,2,80,4|8|4,2:0|0:0|0:0,0:0:0:0:
264,308,67496,1,8,0:0:0:0:
172,332,67841,6,0,L|92:308,1,80,4|8,2:0|0:0,0:0:0:0:
128,220,68530,2,0,L|48:196,1,80,4|8,0:0|0:0,0:0:0:0:
88,108,69220,6,2,P|136:76|228:128,1,160,6|6,2:0|0:0,0:0:0:0:
289,269,70599,6,2,P|355:309|424:276,1,160,6|6,2:0|0:0,0:0:0:0:
380,120,71979,70,0,L|408:44,2,80,4|8|4,2:0|0:0|0:0,0:0:0:0:
308,184,73013,1,8,0:0:0:0:
216,160,73359,6,0,L|136:136,1,80,4|8,2:0|0:0,0:0:0:0:
100,224,74048,2,0,L|176:246,1,80,4|8,0:0|0:0,0:0:0:0:
268,272,74737,6,0,L|356:256,2,80,4|8|4,2:0|0:0|0:0,0:0:0:0:
184,320,75772,1,8,0:0:0:0:
152,228,76117,6,0,L|64:212,2,80,4|8|4,2:0|0:0|0:0,0:0:0:0:
228,172,77151,1,8,0:0:0:0:
304,112,77496,70,0,L|392:128,2,80,4|8|4,2:0|0:0|0:0,0:0:0:0:
232,48,78531,1,8,0:0:0:0:
144,88,78875,6,0,P|128:120|128:164,1,80,4|8,2:0|0:0,0:0:0:0:
172,248,79565,2,0,P|172:287|155:323,1,80,4|8,0:0|0:0,0:0:0:0:
64,300,80255,6,2,B|32:256|32:256|40:136,1,160,6|6,2:0|0:0,0:0:0:0:
200,44,81634,6,2,B|232:88|232:88|224:208,1,160,2|6,2:0|0:0,0:0:0:0:
392,100,83013,70,0,P|432:88|480:96,2,80,4|8|4,2:0|0:0|0:0,0:0:0:0:
332,176,84048,1,8,0:0:0:0:
276,256,84392,6,0,P|236:268|188:260,2,80,4|8|4,2:0|0:0|0:0,0:0:0:0:
332,176,85427,1,8,0:0:0:0:
292,88,85772,6,0,L|204:80,1,80,4|8,2:0|0:0,0:0:0:0:
176,168,86461,2,0,L|88:160,1,80,4|8,0:0|0:0,0:0:0:0:
64,252,87151,6,0,P|136:304|204:280,1,160,4|0,0:0|0:0,0:0:0:0:
268,104,88530,70,0,L|240:28,2,80,12|8|4,2:0|0:0|0:0,0:0:0:0:
344,164,89565,1,8,0:0:0:0:
424,216,89910,2,0,L|452:292,1,80,12|8,2:0|0:0,0:0:0:0:
352,328,90599,2,0,L|324:252,1,80,4|8,0:0|0:0,0:0:0:0:
288,164,91289,6,2,P|222:123|153:157,1,160,12|6,2:0|0:0,0:0:0:0:
300,284,92668,6,2,P|366:324|435:291,1,160,14|6,2:0|0:0,0:0:0:0:
380,120,94048,86,0,L|408:44,2,80,12|8|4,2:0|0:0|0:0,0:0:0:0:
304,180,95083,1,8,0:0:0:0:
316,276,95428,6,0,L|392:298,1,80,4|8,2:0|0:0,0:0:0:0:
464,228,96117,2,0,L|387:205,1,80,4|8,0:0|0:0,0:0:0:0:
336,124,96806,6,0,L|259:101,2,80,4|8|4,2:0|0:0|0:0,0:0:0:0:
387,205,97841,1,8,0:0:0:0:
340,288,98186,6,2,B|260:304|260:304|180:288,1,160,14|6,2:0|0:0,0:0:0:0:
68,136,99565,70,0,L|84:48,2,80,12|8|4,2:0|0:0|0:0,0:0:0:0:
144,192,100600,1,8,0:0:0:0:
236,168,100944,6,0,P|275:167|311:184,1,80,12|8,2:0|0:0,0:0:0:0:
372,260,101634,2,0,P|407:276|447:276,1,80,4|8,0:0|0:0,0:0:0:0:
428,184,102324,6,2,B|432:128|432:128|404:84|404:84|408:32,1,160,14|6,2:0|0:0,0:0:0:0:
332,208,103703,6,2,B|336:152|336:152|308:108|308:108|312:56,1,160,14|6,2:0|0:0,0:0:0:0:
244,236,105082,70,0,P|204:248|156:240,2,80,12|8|4,2:0|0:0|0:0,0:0:0:0:
320,180,106117,1,8,0:0:0:0:
400,124,106461,6,0,P|440:112|488:120,2,80,4|8|4,2:0|0:0|0:0,0:0:0:0:
320,180,107496,1,8,0:0:0:0:
348,272,107841,6,0,L|340:360,1,80,4|8,2:0|0:0,0:0:0:0:
248,328,108530,2,0,L|256:240,1,80,4|8,0:0|0:0,0:0:0:0:
248,152,109220,6,0,P|153:79|185:211,1,320,4|4,2:0|2:0,0:0:0:0:
256,192,110772,12,0,113358,0:0:0:0:
