osu file format v14

[General]
AudioFilename: audio.mp3
AudioLeadIn: 0
PreviewTime: 65682
Countdown: 1
SampleSet: None
StackLeniency: 0.7
Mode: 0
LetterboxInBreaks: 0
WidescreenStoryboard: 0

[Editor]
DistanceSpacing: 2
BeatDivisor: 4
GridSize: 16
TimelineZoom: 4.599998

[Metadata]
Title:Words (feat. Laura Brehm)
TitleUnicode:Words (feat. Laura Brehm)
Artist:Feint
ArtistUnicode:Feint
Creator:suraimu-
Version:Blank
Source:
Tags:
BeatmapID:1311229
BeatmapSetID:621882

[Difficulty]
HPDrainRate:6
CircleSize:4
OverallDifficulty:8.3
ApproachRate:9.5
SliderMultiplier:1.8
SliderTickRate:1

[Events]
//Background and Video events
0,0,"63093148_p0.jpg",0,0
//Break Periods
2,45653,55139
//Storyboard Layer 0 (Background)
//Storyboard Layer 1 (Fail)
//Storyboard Layer 2 (Pass)
//Storyboard Layer 3 (Foreground)
//Storyboard Sound Samples

[TimingPoints]
1568,342.857142857143,4,2,0,40,1,0
23853,-100,4,2,0,60,0,0
55743,-100,4,3,0,70,0,0
67396,-66.6666666666667,4,1,0,100,0,1
89339,-66.6666666666667,4,1,0,100,0,0
111282,-66.6666666666667,4,1,0,70,0,0

[HitObjects]
208,288,1568,6,0,P|260:260|280:220,1,90,8|0,0:3|0:3,0:3:0:0:
308,152,1910,1,0,2:0:0:0:
204,152,2082,1,0,2:0:0:0:
275,234,2253,6,0,P|322:269|367:270,1,90,8|0,0:3|0:0,0:0:0:0:
376,192,2596,1,0,0:0:0:0:
308,152,2768,1,0,0:0:0:0:
256,252,2939,6,0,P|295:295|339:305,1,90,8|0,0:3|0:0,0:0:0:0:
348,160,3282,1,0,0:0:0:0:
256,128,3453,1,0,0:0:0:0:
432,240,3625,6,0,P|456:186|448:142,1,90,8|0,0:3|0:0,0:0:0:0:
384,92,3967,1,0,0:0:0:0:
308,128,4139,1,0,0:0:0:0:
432,240,4310,6,0,P|380:210|336:213,1,90,8|0,0:3|0:0,0:0:0:0:
260,220,4653,1,0,0:0:0:0:
364,288,4825,1,0,0:0:0:0:
432,240,4996,6,0,P|394:194|351:181,1,90,8|0,0:3|0:0,0:0:0:0:
264,136,5339,1,0,0:0:0:0:
364,288,5510,1,0,0:0:0:0:
432,240,5682,6,0,P|418:182|385:152,1,90,8|0,0:3|0:0,0:0:0:0:
336,104,6025,1,0,0:0:0:0:
260,220,6196,1,0,0:0:0:0:
430,161,6367,6,0,P|370:166|336:195,1,90,8|0,0:3|0:0,0:0:0:0:
240,296,6710,1,0,0:0:0:0:
432,240,6882,1,0,0:0:0:0:
364,84,7053,6,0,P|326:130|322:174,1,90,8|0,0:3|0:0,0:0:0:0:
384,288,7396,1,0,0:0:0:0:
400,192,7567,1,0,0:0:0:0:
248,112,7739,6,0,P|200:120|148:160,1,90,8|0,0:3|0:3,0:3:0:0:
120,224,8082,1,0,0:0:0:0:
192,292,8253,1,0,0:0:0:0:
221,179,8425,6,0,P|165:187|137:227,1,90,8|0,0:3|0:0,0:0:0:0:
192,292,8768,1,0,0:0:0:0:
296,232,8939,1,0,0:0:0:0:
240,96,9110,6,0,P|172:80|128:88,1,90,8|0,0:3|0:0,0:0:0:0:
273,313,9453,1,0,0:0:0:0:
160,240,9625,1,0,0:0:0:0:
160,240,9796,6,8,P|172:298|205:328,1,90,8|0,0:3|0:0,0:3:0:0:
360,232,10139,1,0,0:0:0:0:
320,300,10310,1,0,0:0:0:0:
320,300,10482,6,0,P|388:308|412:300,1,90,8|0,0:3|0:0,0:0:0:0:
436,192,10825,1,0,0:0:0:0:
347,278,10996,1,0,0:0:0:0:
347,278,11168,6,0,P|414:267|435:252,1,90,8|0,0:3|0:0,0:0:0:0:
380,160,11510,1,0,0:0:0:0:
256,196,11682,1,0,0:0:0:0:
364,255,11853,6,0,P|427:229|456:124,2,180,8|0|8,0:3|0:0|0:3,0:0:0:0:
457,128,12710,1,0,0:0:0:0:
172,192,12882,1,0,0:0:0:0:
256,124,13053,1,0,0:0:0:0:
384,128,13225,6,0,P|364:176|324:216,1,90,8|0,3:0|0:0,0:0:0:0:
239,191,13568,1,0,0:0:0:0:
384,128,13739,1,0,0:0:0:0:
264,264,13910,6,0,P|208:316|184:320,1,90,8|0,0:3|0:3,0:3:0:0:
100,164,14253,1,0,0:0:0:0:
84,253,14425,1,0,0:0:0:0:
84,253,14596,6,0,P|56:192|52:160,1,90,8|0,0:3|0:0,0:0:0:0:
136,112,14939,1,0,0:0:0:0:
216,152,15110,1,0,0:0:0:0:
236,232,15282,6,8,P|196:300|156:308,1,90,8|0,0:3|0:0,0:3:0:0:
300,172,15625,1,0,0:0:0:0:
464,196,15796,1,0,0:0:0:0:
464,196,15968,6,0,P|396:220|368:216,1,90,8|0,0:3|0:0,0:0:0:0:
288,168,16310,1,0,0:0:0:0:
400,128,16482,1,0,0:0:0:0:
364,308,16653,6,0,P|284:288|260:260,1,90,8|0,0:3|0:0,0:0:0:0:
216,200,16996,1,0,0:0:0:0:
336,224,17168,1,0,0:0:0:0:
208,328,17339,6,0,P|164:280|148:232,1,90,8|0,0:3|0:0,0:0:0:0:
220,212,17682,2,0,P|208:156|224:116,1,90
288,48,18025,6,0,P|344:72|376:108,1,90,8|0,0:3|0:0,0:0:0:0:
236,112,18368,5,0,0:0:0:0:
348,164,18539,1,0,0:0:0:0:
240,116,18710,6,0,P|176:128|144:156,1,90,8|0,0:3|0:0,0:0:0:0:
92,196,19053,1,0,0:0:0:0:
256,192,19225,1,0,0:0:0:0:
212,116,19396,6,0,P|176:168|164:220,1,90,8|0,0:3|0:0,0:0:0:0:
212,116,19739,1,0,0:0:0:0:
302,260,19910,1,0,0:0:0:0:
212,116,20082,6,0,P|188:174|188:228,1,90,8|0,0:3|0:0,0:0:0:0:
192,300,20425,1,0,0:0:0:0:
296,212,20596,1,0,0:0:0:0:
40,232,20768,6,0,P|92:272|140:280,1,90,8|0,0:3|0:0,0:0:0:0:
264,252,21110,1,0,0:0:0:0:
216,148,21282,1,0,0:0:0:0:
240,332,21453,2,0,P|304:324|344:276,1,90
372,256,21796,2,0,P|408:200|416:176,1,90
392,100,22139,2,0,P|352:116|340:160,1,90
436,256,22482,2,0,P|412:292|358:284,1,90
288,256,22825,2,0,P|240:212|308:108,2,180,0|0|8,0:0|0:0|0:3,0:0:0:0:
104,70,24025,6,0,L|183:115,1,90,0|8,0:0|0:0,0:0:0:0:
251,159,24368,1,0,0:0:0:0:
364,228,24710,1,0,0:0:0:0:
137,121,25053,1,0,0:0:0:0:
364,228,25225,1,0,0:0:0:0:
188,80,25396,1,0,0:0:0:0:
256,260,25568,1,0,0:0:0:0:
188,80,25739,1,0,0:0:0:0:
256,260,25910,2,0,P|332:224|340:200,1,90
392,112,26253,1,4,0:0:0:0:
408,328,26768,6,0,L|324:272,1,90,0|8,0:0|0:0,0:0:0:0:
256,80,27110,1,0,0:0:0:0:
212,236,27453,1,0,0:0:0:0:
300,152,27625,1,0,0:0:0:0:
212,152,27796,1,0,0:0:0:0:
336,264,27968,1,0,0:0:0:0:
128,64,28310,5,0,0:0:0:0:
260,292,28482,1,0,0:0:0:0:
353,61,28653,1,0,0:0:0:0:
120,196,28825,1,0,0:0:0:0:
412,246,28996,1,4,0:0:0:0:
256,324,29510,6,0,L|220:236,1,90,0|8,0:0|0:0,0:0:0:0:
164,92,29853,1,0,0:0:0:0:
300,240,30196,5,0,0:0:0:0:
184,112,30539,1,0,0:0:0:0:
312,140,30710,1,0,0:0:0:0:
84,192,30882,1,0,0:0:0:0:
300,316,31053,1,0,0:0:0:0:
300,316,31225,1,0,0:0:0:0:
300,316,31396,1,0,0:0:0:0:
300,316,31568,1,0,0:0:0:0:
300,316,31739,6,0,P|240:280|232:252,1,90
208,144,32082,5,0,0:0:0:0:
368,184,32253,2,0,P|304:208|280:192,1,90
128,96,32596,1,0,0:0:0:0:
400,112,32939,2,0,P|444:164|440:196,1,90
416,272,33282,1,0,0:0:0:0:
265,91,33453,1,0,0:0:0:0:
456,116,33796,5,0,0:0:0:0:
206,260,33968,1,0,0:0:0:0:
256,72,34139,1,0,0:0:0:0:
380,284,34310,1,0,0:0:0:0:
380,112,34482,6,0,L|360:212,1,90,4|0,0:0|0:0,0:0:0:0:
256,316,34825,1,0,0:0:0:0:
132,96,34996,6,0,L|232:132,1,90,0|8,0:0|0:0,0:0:0:0:
292,232,35339,1,0,0:0:0:0:
88,196,35682,1,0,0:0:0:0:
380,112,36025,1,0,0:0:0:0:
196,276,36196,1,0,0:0:0:0:
256,72,36368,1,0,0:0:0:0:
360,280,36539,2,0,P|300:312|260:312,1,90
300,148,36882,1,0,0:0:0:0:
300,148,37053,1,0,0:0:0:0:
300,148,37225,6,0,P|248:188|204:188,1,90
372,220,37568,1,0,0:0:0:0:
384,336,37739,6,0,L|296:264,1,90,0|8,0:0|0:0,0:0:0:0:
256,192,38082,1,0,0:0:0:0:
392,152,38425,1,0,0:0:0:0:
196,260,38596,1,0,0:0:0:0:
256,108,38768,1,0,0:0:0:0:
314,279,38939,1,0,0:0:0:0:
176,152,39110,1,0,0:0:0:0:
392,244,39282,1,0,0:0:0:0:
352,56,39453,5,0,0:0:0:0:
256,200,39625,1,0,0:0:0:0:
448,128,39796,1,0,0:0:0:0:
296,280,39968,1,4,0:0:0:0:
120,60,40482,6,0,L|216:120,1,90,0|8,0:0|0:0,0:0:0:0:
268,152,40825,1,0,0:0:0:0:
296,300,41168,1,0,0:0:0:0:
208,192,41510,1,0,0:0:0:0:
328,144,41682,1,0,0:0:0:0:
200,296,41853,1,0,0:0:0:0:
220,92,42025,1,0,0:0:0:0:
220,92,42196,1,0,0:0:0:0:
220,92,42368,1,0,0:0:0:0:
220,92,42539,1,0,0:0:0:0:
220,92,42710,6,0,P|288:132|316:132,1,90
76,96,43053,1,0,0:0:0:0:
152,308,43225,2,0,P|192:260|236:208,1,90,0|8,0:0|0:0,0:0:0:0:
280,96,43568,1,0,0:0:0:0:
384,160,43739,1,0,0:0:0:0:
360,280,43910,6,0,P|300:288|268:268,2,90
192,132,44425,1,0,0:0:0:0:
412,144,44768,5,0,0:0:0:0:
152,296,44939,1,0,0:0:0:0:
304,108,45110,1,0,0:0:0:0:
352,304,45282,1,0,0:0:0:0:
216,108,45453,5,12,0:0:0:0:
216,108,55739,5,0,3:0:0:0:
346,157,55910,1,0,3:0:0:0:
296,288,56082,1,0,3:0:0:0:
166,238,56253,1,0,3:0:0:0:
216,108,56425,5,0,0:0:0:0:
352,80,56596,1,2,0:0:0:0:
352,80,56682,1,2,0:0:0:0:
352,80,56768,1,2,0:0:0:0:
272,156,56939,1,0,0:0:0:0:
376,248,57110,6,0,P|412:188|412:148,1,90
256,76,57453,1,0,0:0:0:0:
176,312,57796,6,0,P|248:328|284:320,1,90
340,176,58139,1,0,0:0:0:0:
212,232,58310,1,0,0:0:0:0:
352,96,58482,6,0,P|396:116|432:168,1,90
344,312,58825,1,0,0:0:0:0:
176,124,59168,2,0,P|232:140|264:160,1,90
356,220,59510,1,0,0:0:0:0:
256,316,59682,1,0,0:0:0:0:
324,148,59853,2,0,P|384:148|416:172,1,90
384,308,60196,1,0,0:0:0:0:
156,280,60539,6,0,P|128:232|124:168,1,90
168,80,60882,1,0,0:0:0:0:
256,192,61053,1,0,0:0:0:0:
304,320,61225,2,0,P|248:336|212:324,1,90
376,192,61568,1,0,0:0:0:0:
156,280,61910,5,0,0:0:0:0:
352,96,62082,1,0,0:0:0:0:
216,320,62253,5,0,0:0:0:0:
284,68,62425,1,0,0:0:0:0:
288,308,62596,5,0,0:0:0:0:
212,68,62768,1,0,0:0:0:0:
348,268,62939,5,0,0:0:0:0:
152,112,63110,1,0,0:0:0:0:
386,203,63282,5,0,0:0:0:0:
128,184,63453,1,0,0:0:0:0:
326,264,63625,2,0,P|325:253|253:188,1,90
176,84,63968,1,0,0:0:0:0:
84,284,64139,1,0,0:0:0:0:
424,180,64310,1,0,0:0:0:0:
160,164,64482,1,0,0:0:0:0:
316,248,64653,1,0,0:0:0:0:
316,248,64739,5,0,0:0:0:0:
316,248,64825,1,0,0:0:0:0:
256,80,64996,1,0,0:0:0:0:
176,280,65168,1,0,0:0:0:0:
368,104,65339,1,0,0:0:0:0:
108,192,65510,1,0,0:0:0:0:
352,312,65682,1,0,0:0:0:0:
204,104,65853,1,0,0:0:0:0:
244,320,66025,5,0,0:0:0:0:
266,305,66110,1,0,0:0:0:0:
286,287,66196,1,0,0:0:0:0:
298,263,66282,1,0,0:0:0:0:
307,237,66368,1,0,0:0:0:0:
310,210,66453,1,0,0:0:0:0:
310,182,66539,1,0,0:0:0:0:
300,156,66625,1,0,0:0:0:0:
281,137,66710,5,0,0:0:0:0:
255,128,66796,1,0,0:0:0:0:
228,133,66882,1,0,0:0:0:0:
203,152,66968,1,0,0:0:0:0:
196,178,67053,1,0,0:0:0:0:
196,203,67139,1,0,0:0:0:0:
205,226,67225,1,0,0:0:0:0:
226,246,67310,1,0,0:0:0:0:
254,255,67396,6,0,P|306:239|326:174,1,90,8|0,0:0|0:0,0:0:0:0:
84,248,67739,5,0,0:0:0:0:
255,329,67910,1,0,0:0:0:0:
167,130,68082,1,0,0:0:0:0:
142,333,68253,1,0,0:0:0:0:
286,144,68425,6,0,P|334:177|358:249,1,135.000005149842,8|0,0:0|0:0,0:0:0:0:
256,336,68768,1,0,0:0:0:0:
174,191,68939,1,0,0:0:0:0:
257,66,69110,6,0,P|356:90|387:113,1,135.000005149842,8|0,0:0|0:0,0:0:0:0:
256,325,69453,1,0,0:0:0:0:
107,122,69625,1,0,0:0:0:0:
306,147,69796,5,8,0:0:0:0:
86,269,69968,1,0,0:0:0:0:
318,288,70139,2,0,P|263:232|198:208,1,135.000005149842
116,93,70482,5,8,0:0:0:0:
306,147,70653,1,0,0:0:0:0:
51,202,70825,1,0,0:0:0:0:
224,56,70996,1,0,0:0:0:0:
311,295,71168,6,0,P|222:323|175:296,1,135.000005149842,8|0,0:0|0:0,0:0:0:0:
351,115,71510,1,0,0:0:0:0:
106,226,71682,1,0,0:0:0:0:
376,290,71853,5,8,0:0:0:0:
198,129,72025,1,0,0:0:0:0:
255,331,72196,1,0,0:0:0:0:
373,150,72368,1,0,0:0:0:0:
128,268,72539,5,8,0:0:0:0:
292,83,72710,1,0,0:0:0:0:
356,220,72882,2,0,P|425:188|444:134,1,135.000005149842,8|0,0:0|0:0,0:0:0:0:
85,115,73225,5,8,0:0:0:0:
135,262,73396,1,0,0:0:0:0:
231,159,73568,1,0,0:0:0:0:
47,220,73739,1,0,0:0:0:0:
188,62,73910,5,8,0:0:0:0:
240,292,74082,1,0,0:0:0:0:
89,134,74253,2,0,P|153:112|226:127,1,135.000005149842
336,164,74596,5,8,0:0:0:0:
148,225,74768,1,0,0:0:0:0:
215,74,74939,1,0,0:0:0:0:
288,308,75110,1,0,0:0:0:0:
300,86,75282,5,8,0:0:0:0:
197,293,75453,1,0,0:0:0:0:
388,122,75625,2,0,P|318:88|252:90,1,135.000005149842
94,231,75968,5,8,0:0:0:0:
291,181,76139,1,0,0:0:0:0:
210,324,76310,1,0,0:0:0:0:
170,101,76482,1,0,0:0:0:0:
346,302,76653,5,8,0:0:0:0:
180,195,76825,1,0,0:0:0:0:
374,228,76996,1,0,0:0:0:0:
156,274,77168,1,0,0:0:0:0:
257,93,77339,5,8,0:0:0:0:
254,303,77510,1,0,0:0:0:0:
168,190,77682,1,0,0:0:0:0:
345,123,77853,1,0,0:0:0:0:
345,123,77939,1,0,0:0:0:0:
345,123,78025,5,0,0:0:0:0:
156,274,78196,1,0,0:0:0:0:
299,193,78368,6,0,P|363:234|392:303,1,135.000005149842
253,328,78710,5,8,0:0:0:0:
214,133,78882,1,0,0:0:0:0:
386,232,79053,1,0,0:0:0:0:
156,271,79225,1,0,0:0:0:0:
311,95,79396,6,0,P|399:121|433:160,1,135.000005149842,8|0,0:0|0:0,0:0:0:0:
102,231,79739,1,0,0:0:0:0:
215,88,79910,1,0,0:0:0:0:
338,272,80082,5,8,0:0:0:0:
146,150,80253,1,0,0:0:0:0:
189,287,80425,1,0,0:0:0:0:
339,170,80596,1,0,0:0:0:0:
215,88,80768,5,8,0:0:0:0:
102,231,80939,1,0,0:0:0:0:
394,202,81110,2,0,P|343:201|281:146,1,135.000005149842
302,66,81453,5,8,0:0:0:0:
421,289,81625,1,0,0:0:0:0:
161,159,81796,1,0,0:0:0:0:
384,188,81968,1,0,0:0:0:0:
254,312,82139,5,8,0:0:0:0:
128,96,82310,1,0,0:0:0:0:
336,127,82482,1,0,0:0:0:0:
161,263,82653,1,0,0:0:0:0:
276,48,82825,5,8,0:0:0:0:
307,330,82996,1,0,0:0:0:0:
168,61,83168,1,0,0:0:0:0:
413,222,83339,1,0,0:0:0:0:
120,141,83510,5,8,0:0:0:0:
389,101,83682,1,0,0:0:0:0:
206,317,83853,2,0,P|131:282|92:227,1,135.000005149842
299,234,84196,5,8,0:0:0:0:
279,93,84368,2,0,L|143:154,1,135.000005149842
374,173,84710,1,0,0:0:0:0:
161,59,84882,5,8,0:0:0:0:
204,269,85053,1,0,0:0:0:0:
319,85,85225,2,0,P|320:177|341:223,1,135.000005149842
416,64,85568,5,8,0:0:0:0:
336,208,85739,1,0,0:0:0:0:
208,160,85910,2,0,P|128:112|96:80,1,135.000005149842
163,245,86253,6,0,P|83:213|19:149,1,135.000005149842,8|0,0:0|0:0,0:0:0:0:
277,98,86596,1,0,0:0:0:0:
349,213,86768,1,0,0:0:0:0:
234,285,86939,1,0,0:0:0:0:
162,170,87110,1,0,0:0:0:0:
335,138,87282,5,0,0:0:0:0:
309,271,87454,1,0,0:0:0:0:
176,245,87625,1,0,0:0:0:0:
202,112,87796,1,0,0:0:0:0:
336,128,87968,2,0,P|336:208|272:224,1,135.000005149842
241,141,88310,2,0,P|321:157|369:221,1,135.000005149842
256,320,88653,2,0,P|192:288|160:224,1,135.000005149842
432,192,88996,1,0,0:0:0:0:
336,336,89168,1,0,0:0:0:0:
158,160,89339,6,0,P|224:119|287:131,1,135.000005149842
416,164,89682,5,8,0:0:0:0:
289,270,89853,1,0,0:0:0:0:
183,103,90025,1,0,0:0:0:0:
352,194,90196,1,0,0:0:0:0:
189,258,90368,5,8,0:0:0:0:
277,126,90539,1,0,0:0:0:0:
401,265,90710,1,0,0:0:0:0:
158,160,90882,1,0,0:0:0:0:
353,115,91053,5,8,0:0:0:0:
291,299,91225,1,0,0:0:0:0:
228,175,91396,1,0,0:0:0:0:
353,115,91568,1,0,0:0:0:0:
368,322,91739,5,8,0:0:0:0:
170,270,91910,1,0,0:0:0:0:
224,84,92082,1,0,0:0:0:0:
419,131,92253,1,0,0:0:0:0:
170,270,92425,5,8,0:0:0:0:
365,84,92596,1,0,0:0:0:0:
285,315,92768,1,0,0:0:0:0:
155,106,92939,1,0,0:0:0:0:
412,190,93110,5,8,0:0:0:0:
128,192,93282,1,0,0:0:0:0:
256,53,93453,1,0,0:0:0:0:
257,291,93625,1,0,0:0:0:0:
416,192,93796,5,8,0:0:0:0:
128,192,93968,1,0,0:0:0:0:
352,284,94139,1,0,0:0:0:0:
181,64,94310,1,0,0:0:0:0:
252,322,94482,5,8,0:0:0:0:
376,76,94653,1,0,0:0:0:0:
130,289,94825,2,0,P|124:212|154:151,1,135.000005149842
255,61,95168,5,8,0:0:0:0:
436,190,95339,1,0,0:0:0:0:
256,334,95510,1,0,0:0:0:0:
222,117,95682,1,0,0:0:0:0:
397,237,95853,5,8,0:0:0:0:
163,226,96025,1,0,0:0:0:0:
345,123,96196,1,0,0:0:0:0:
256,334,96368,1,0,0:0:0:0:
222,117,96539,5,8,0:0:0:0:
329,294,96710,1,0,0:0:0:0:
222,117,96882,1,0,0:0:0:0:
397,237,97053,1,0,0:0:0:0:
159,146,97225,5,8,0:0:0:0:
338,306,97396,1,0,0:0:0:0:
189,244,97568,1,0,0:0:0:0:
279,84,97739,1,0,0:0:0:0:
256,350,97910,5,8,0:0:0:0:
170,163,98082,1,0,0:0:0:0:
360,77,98253,1,0,0:0:0:0:
186,303,98425,1,0,0:0:0:0:
237,84,98596,5,8,0:0:0:0:
427,120,98768,1,0,0:0:0:0:
163,226,98939,1,0,0:0:0:0:
253,100,99110,1,0,0:0:0:0:
336,296,99282,5,8,0:0:0:0:
172,141,99453,1,0,0:0:0:0:
378,182,99625,1,0,0:0:0:0:
222,221,99796,1,0,0:0:0:0:
222,221,99882,5,0,0:0:0:0:
222,221,99968,1,0,0:0:0:0:
396,119,100139,2,0,P|437:193|413:243,1,135.000005149842
134,268,100482,1,0,0:0:0:0:
184,76,100653,5,8,0:0:0:0:
315,306,100825,1,0,0:0:0:0:
126,178,100996,1,0,0:0:0:0:
297,86,101168,1,0,0:0:0:0:
204,332,101339,5,8,0:0:0:0:
184,76,101510,1,0,0:0:0:0:
363,189,101682,1,0,0:0:0:0:
130,177,101853,1,0,0:0:0:0:
297,83,102025,5,8,0:0:0:0:
204,332,102196,1,0,0:0:0:0:
184,76,102368,1,0,0:0:0:0:
363,189,102539,1,0,0:0:0:0:
130,177,102710,5,8,0:0:0:0:
306,69,102882,1,0,0:0:0:0:
333,306,103053,2,0,P|243:273|230:225,1,135.000005149842
446,231,103396,5,8,0:0:0:0:
169,325,103568,1,0,0:0:0:0:
176,133,103739,6,0,P|246:105|304:122,1,135.000005149842
125,189,104082,5,8,0:0:0:0:
424,222,104253,1,0,0:0:0:0:
169,298,104425,2,0,P|106:227|110:141,1,135.000005149842
104,99,104768,5,8,0:0:0:0:
258,241,104939,1,0,0:0:0:0:
48,225,105110,1,0,0:0:0:0:
268,112,105282,1,0,0:0:0:0:
93,302,105453,5,8,0:0:0:0:
339,135,105625,2,0,P|371:207|322:244,1,135.000005149842
137,157,105968,1,0,0:0:0:0:
281,112,106139,5,8,0:0:0:0:
183,277,106310,1,0,0:0:0:0:
326,224,106482,1,0,0:0:0:0:
153,132,106653,1,0,0:0:0:0:
305,129,106825,5,8,0:0:0:0:
166,253,106996,1,0,0:0:0:0:
307,257,107168,1,0,0:0:0:0:
175,110,107339,1,0,0:0:0:0:
339,143,107510,5,8,0:0:0:0:
162,265,107682,1,0,0:0:0:0:
391,226,107853,1,0,0:0:0:0:
119,190,108025,1,0,0:0:0:0:
288,320,108196,5,8,0:0:0:0:
364,58,108368,1,0,0:0:0:0:
162,265,108539,1,0,0:0:0:0:
364,58,108710,1,0,0:0:0:0:
415,278,108882,5,8,0:0:0:0:
364,58,109053,1,0,0:0:0:0:
131,299,109225,1,0,0:0:0:0:
271,64,109396,1,0,0:0:0:0:
411,257,109568,5,8,0:0:0:0:
91,137,109739,1,0,0:0:0:0:
338,100,109910,1,0,0:0:0:0:
308,133,109996,1,0,0:0:0:0:
275,157,110082,5,0,0:0:0:0:
234,169,110168,1,0,0:0:0:0:
196,178,110253,1,0,0:0:0:0:
155,170,110339,1,0,0:0:0:0:
120,157,110425,1,0,0:0:0:0:
209,58,110596,1,0,0:0:0:0:
335,262,110768,1,0,0:0:0:0:
87,138,110939,1,0,0:0:0:0:
296,76,111110,1,0,0:0:0:0:
159,278,111282,5,12,0:2:0:0:
