osu file format v14

[General]
AudioFilename: audio.mp3
AudioLeadIn: 0
PreviewTime: 65441
Countdown: 0
SampleSet: Soft
StackLeniency: 0.7
Mode: 0
LetterboxInBreaks: 0
WidescreenStoryboard: 0

[Editor]
Bookmarks: 1463,12434,23405,34377,45348,56320,67291,78263,89234,100205,111177,133070
DistanceSpacing: 1.5
BeatDivisor: 4
GridSize: 8
TimelineZoom: 0.8999997

[Metadata]
Title:Words (feat. Laura Brehm)
TitleUnicode:Words (feat. Laura Brehm)
Artist:Feint
ArtistUnicode:Feint
Creator:Nao Tomori
Version:Xayler's Insane
Source:
Tags:monstercat edm dubstep dnb drum and bass electronic dance english instrumental peter petereu iwaifu wafer xayler
BeatmapID:292334
BeatmapSetID:1057350

[Difficulty]
HPDrainRate:6
CircleSize:3.8
OverallDifficulty:8.2
ApproachRate:9
SliderMultiplier:1.6
SliderTickRate:1

[Events]
//Background and Video events
0,0,"ocean bg.jpg",0,0
//Break Periods
//Storyboard Layer 0 (Background)
//Storyboard Layer 1 (Fail)
//Storyboard Layer 2 (Pass)
//Storyboard Layer 3 (Foreground)
//Storyboard Layer 4 (Overlay)
//Storyboard Sound Samples

[TimingPoints]
1463,342.857142857143,4,2,1,53,1,0
1463,-142.857142857143,4,2,1,53,0,0
20663,-250,4,2,1,53,0,0
22034,-142.857142857143,4,2,1,53,0,0
22977,-142.857142857143,4,2,1,5,0,0
23063,-142.857142857143,4,2,1,53,0,0
23320,-142.857142857143,4,2,1,5,0,0
23405,-100,4,2,1,63,0,0
24863,-100,4,2,1,5,0,0
24948,-100,4,2,1,63,0,0
30348,-100,4,2,1,5,0,0
30434,-100,4,2,1,63,0,0
31891,-100,4,2,1,5,0,0
31977,-100,4,2,1,63,0,0
35834,-100,4,2,1,5,0,0
35920,-100,4,2,1,63,0,0
41320,-100,4,2,1,5,0,0
41405,-100,4,2,1,63,0,0
42605,-100,4,2,1,53,0,0
42863,-100,4,2,1,5,0,0
42948,-100,4,2,1,53,0,0
45348,-166.666666666667,4,2,1,53,0,0
55634,-166.666666666667,4,2,1,68,0,0
56320,-125,4,2,1,68,0,0
56577,-125,4,2,1,5,0,0
56663,-125,4,2,1,68,0,0
57948,-125,4,2,1,5,0,0
58034,-125,4,2,1,68,0,0
59320,-125,4,2,1,5,0,0
59405,-125,4,2,1,68,0,0
61720,-125,4,2,1,5,0,0
61805,-100,4,2,1,73,0,0
67291,-83.3333333333333,4,2,1,78,0,1
67548,-83.3333333333333,4,2,1,5,0,1
67634,-83.3333333333333,4,2,1,78,0,1
68063,-83.3333333333333,4,2,1,5,0,1
68148,-83.3333333333333,4,2,1,78,0,1
68920,-83.3333333333333,4,2,1,5,0,1
69005,-83.3333333333333,4,2,1,78,0,1
70291,-83.3333333333333,4,2,1,5,0,1
70377,-83.3333333333333,4,2,1,78,0,1
71663,-83.3333333333333,4,2,1,5,0,1
71748,-83.3333333333333,4,2,1,78,0,1
73034,-83.3333333333333,4,2,1,5,0,1
73120,-83.3333333333333,4,2,1,78,0,1
73548,-83.3333333333333,4,2,1,5,0,1
73634,-83.3333333333333,4,2,1,78,0,1
74405,-83.3333333333333,4,2,1,5,0,1
74491,-83.3333333333333,4,2,1,78,0,1
75777,-83.3333333333333,4,2,1,5,0,1
75863,-83.3333333333333,4,2,1,78,0,1
78520,-83.3333333333333,4,2,1,5,0,1
78605,-83.3333333333333,4,2,1,78,0,1
79034,-83.3333333333333,4,2,1,5,0,1
79120,-83.3333333333333,4,2,1,78,0,1
79891,-83.3333333333333,4,2,1,5,0,1
79977,-83.3333333333333,4,2,1,78,0,1
80920,-83.3333333333333,4,2,1,5,0,1
81005,-83.3333333333333,4,2,1,78,0,1
81263,-83.3333333333333,4,2,1,5,0,1
81348,-83.3333333333333,4,2,1,78,0,1
83663,-83.3333333333333,4,2,1,5,0,1
83748,-83.3333333333333,4,2,1,78,0,1
84005,-83.3333333333333,4,2,1,5,0,1
84091,-83.3333333333333,4,2,1,78,0,1
84520,-83.3333333333333,4,2,1,5,0,1
84605,-83.3333333333333,4,2,1,78,0,1
85377,-83.3333333333333,4,2,1,5,0,1
85463,-83.3333333333333,4,2,1,78,0,1
89234,-83.3333333333333,4,2,1,78,0,0
94634,-83.3333333333333,4,2,1,5,0,0
94720,-83.3333333333333,4,2,1,78,0,0
105605,-83.3333333333333,4,2,1,5,0,0
105691,-83.3333333333333,4,2,1,78,0,0
111177,-83.3333333333333,4,2,1,33,0,0

[Colours]
Combo1 : 139,250,225
Combo2 : 192,214,252
Combo3 : 243,133,136
Combo4 : 81,147,247
Combo5 : 236,155,132

[HitObjects]
56,54,91,5,0,0:0:0:0:
106,135,777,1,2,0:2:0:0:
56,54,1120,1,2,0:2:0:0:
179,70,1377,1,0,3:2:0:0:
179,70,1463,6,0,P|239:76|284:49,1,111.999996582031,8|0,3:1|0:2,0:0:0:0:
453,129,2148,1,0,3:2:0:0:
453,129,2320,2,0,P|398:136|349:109,1,111.999996582031,2|0,0:0|0:0,0:0:0:0:
282,50,2834,2,0,L|288:174,1,111.999996582031,0|0,3:2|0:2,0:0:0:0:
160,289,3520,2,0,P|208:262|263:269,1,111.999996582031,2|0,3:2|0:2,0:0:0:0:
435,337,4205,5,2,3:2:0:0:
435,337,4377,1,0,0:0:0:0:
348,360,4548,2,0,P|344:329|352:299,1,55.9999982910157,0|0,0:0|0:2,0:0:0:0:
408,237,4891,1,0,3:2:0:0:
408,237,5063,2,0,L|296:242,1,111.999996582031
224,296,5577,2,0,P|205:244|222:191,1,111.999996582031,2|0,3:2|0:0,0:0:0:0:
295,137,6091,2,0,P|313:188|296:241,1,111.999996582031,2|0,0:2|0:0,0:0:0:0:
224,296,6605,2,0,L|139:291,1,83.9999974365235,2|0,0:2|0:0,0:0:0:0:
105,263,6948,6,0,P|99:203|126:158,1,111.999996582031,8|0,3:1|0:2,0:0:0:0:
289,243,7634,1,0,3:2:0:0:
289,243,7805,2,0,P|229:249|184:222,1,111.999996582031,2|0,0:0|0:0,0:0:0:0:
124,159,8320,2,0,L|236:154,1,111.999996582031,0|0,3:2|0:2,0:0:0:0:
402,88,9005,2,0,L|290:83,1,111.999996582031,2|0,3:2|0:2,0:0:0:0:
122,34,9691,5,2,3:2:0:0:
122,34,9863,1,0,0:0:0:0:
192,90,10034,2,0,L|188:146,1,55.9999982910157,0|0,0:0|0:2,0:0:0:0:
135,219,10377,1,0,3:2:0:0:
135,219,10548,2,0,P|186:237|239:220,1,111.999996582031,0|0,0:0|0:0,0:0:0:0:
307,160,11063,2,0,L|302:272,1,111.999996582031,2|0,3:2|0:2,0:0:0:0:
336,355,11577,1,2,0:0:0:0:
446,278,11748,2,0,P|418:272|391:276,1,55.9999982910157,0|0,3:2|0:0,0:0:0:0:
255,348,12091,2,0,P|299:362|345:349,1,83.9999974365235,2|0,0:2|0:0,0:0:0:0:
300,290,12434,6,0,L|305:178,1,111.999996582031,8|0,3:1|0:0,0:0:0:0:
472,106,13120,1,0,3:2:0:0:
472,106,13291,2,0,P|423:132|368:125,1,111.999996582031,2|0,0:0|0:0,0:0:0:0:
300,66,13805,2,0,L|305:178,1,111.999996582031,0|0,3:2|0:2,0:0:0:0:
135,240,14491,2,0,P|183:213|238:220,1,111.999996582031,2|0,3:2|0:2,0:0:0:0:
88,317,15177,5,2,3:2:0:0:
88,317,15348,1,0,0:0:0:0:
135,240,15520,2,0,P|141:212|137:185,1,55.9999982910157,0|0,0:0|0:2,0:0:0:0:
87,117,15863,1,0,3:2:0:0:
87,117,16034,2,0,L|199:122,1,111.999996582031,0|0,0:0|0:0,0:0:0:0:
272,70,16548,2,0,P|264:124|291:173,1,111.999996582031,2|0,3:2|0:2,0:0:0:0:
345,246,17063,2,0,P|290:238|241:265,1,111.999996582031,2|0,0:0|0:0,0:0:0:0:
173,323,17577,2,0,L|177:239,1,83.9999974365235,2|0,0:2|0:0,0:0:0:0:
194,197,17920,6,0,P|134:203|89:176,1,111.999996582031,8|0,3:1|0:2,0:0:0:0:
267,131,18605,1,0,3:2:0:0:
267,131,18777,2,0,P|293:179|286:234,1,111.999996582031,2|0,0:0|0:0,0:0:0:0:
227,302,19291,2,0,L|339:297,1,111.999996582031,0|0,3:2|0:2,0:0:0:0:
500,218,19977,2,0,L|388:213,1,111.999996582031,2|0,3:2|0:2,0:0:0:0:
227,302,20663,6,0,B|265:185|190:186|230:83,1,224,2|0,3:2|0:0,0:0:0:0:
289,16,22034,5,2,0:2:0:0:
319,100,22205,1,0,0:0:0:0:
285,5,22377,1,2,0:0:0:0:
369,36,22548,1,2,0:0:0:0:
303,127,22720,2,0,P|261:131|223:115,1,83.9999974365235,2|0,0:2|0:0,0:0:0:0:
144,103,23063,2,0,P|185:98|223:114,1,83.9999974365235,2|0,0:2|0:0,0:0:0:0:
174,177,23405,6,0,L|167:342,1,160,6|0,3:2|0:2,0:0:0:0:
77,283,23920,1,0,3:2:0:0:
268,342,24091,2,0,L|351:338,1,80,8|0,0:2|0:0,0:0:0:0:
328,211,24434,1,0,0:2:0:0:
428,377,24605,2,0,P|434:316|402:267,1,120,10|0,0:2|0:0,0:0:0:0:
328,211,24948,6,0,L|491:219,1,160,10|0,0:2|0:2,0:0:0:0:
364,115,25463,2,0,P|332:86|323:47,1,80,10|0,0:2|0:2,0:0:0:0:
470,125,25805,2,0,P|481:87|511:61,1,80,2|0,3:2|0:2,0:0:0:0:
414,216,26148,6,0,P|340:227|274:180,1,160,10|0,0:2|0:2,0:0:0:0:
254,77,26663,1,2,3:2:0:0:
417,136,26834,2,0,L|413:215,1,80,10|0,0:2|3:2,0:0:0:0:
351,68,27177,1,0,0:2:0:0:
423,237,27348,2,0,L|419:157,1,80,10|0,0:2|0:2,0:0:0:0:
359,307,27691,5,10,0:2:0:0:
254,156,27863,2,0,P|293:145|331:152,1,80,2|0,3:2|0:2,0:0:0:0:
210,243,28205,1,8,0:2:0:0:
159,125,28377,1,0,0:0:0:0:
297,233,28548,1,0,3:2:0:0:
130,208,28720,1,0,3:2:0:0:
277,147,28891,6,0,L|270:312,1,160,10|0,0:2|0:2,0:0:0:0:
341,383,29405,1,2,3:2:0:0:
173,340,29577,2,0,P|165:300|175:262,1,80,10|0,0:2|0:2,0:0:0:0:
276,183,29920,1,0,0:2:0:0:
348,368,30091,2,0,L|337:240,1,120,10|0,0:2|0:0,0:0:0:0:
276,183,30434,6,0,P|351:196|395:135,1,160,10|0,0:2|3:2,0:0:0:0:
250,65,30948,1,10,0:2:0:0:
316,111,31120,1,0,0:0:0:0:
298,0,31291,1,0,3:2:0:0:
242,78,31463,1,0,3:2:0:0:
400,14,31634,6,0,L|394:137,1,120,10|0,0:2|0:0,0:0:0:0:
380,184,31977,1,0,0:2:0:0:
491,119,32148,1,2,3:2:0:0:
433,269,32320,2,0,P|359:280|293:233,1,160,10|0,0:2|0:2,0:0:0:0:
205,367,32834,2,0,P|221:331|216:287,1,80,10|0,0:2|3:2,0:0:0:0:
138,152,33177,6,0,P|134:191|150:227,2,80,10|0|0,0:2|3:2|0:2,0:0:0:0:
256,43,33691,2,0,P|244:80|214:106,1,80,10|0,0:2|0:0,0:0:0:0:
93,0,34033,2,0,P|104:37|134:63,1,80,0|0,3:2|3:2,0:0:0:0:
297,146,34377,6,0,L|137:152,1,160,10|0,0:2|0:2,0:0:0:0:
188,243,34891,1,0,3:2:0:0:
285,53,35063,2,0,L|205:57,1,80,8|0,0:2|3:2,0:0:0:0:
297,146,35405,1,0,0:2:0:0:
409,0,35577,2,0,P|415:61|383:110,1,120,10|0,0:2|0:0,0:0:0:0:
297,146,35920,6,0,L|137:138,1,160,10|2,0:2|3:2,0:0:0:0:
32,63,36434,1,10,0:2:0:0:
126,43,36605,1,0,0:2:0:0:
41,139,36777,1,2,3:2:0:0:
137,137,36948,1,0,0:2:0:0:
67,281,37120,6,0,P|25:215|40:138,1,160,10|0,0:2|0:2,0:0:0:0:
100,53,37634,1,0,3:2:0:0:
200,194,37805,2,0,L|120:197,1,80,8|0,0:2|3:2,0:0:0:0:
223,74,38148,1,0,0:2:0:0:
105,216,38320,2,0,L|184:219,1,80,10|0,0:2|0:2,0:0:0:0:
40,288,38663,5,10,0:2:0:0:
197,384,38834,2,0,P|204:344|193:306,1,80,2|0,3:2|0:2,0:0:0:0:
89,207,39177,1,10,0:2:0:0:
114,332,39348,1,0,0:2:0:0:
228,231,39520,1,0,3:2:0:0:
129,116,39691,1,0,0:2:0:0:
193,306,39863,6,0,L|199:146,1,160,10|0,0:2|0:2,0:0:0:0:
105,192,40377,1,0,3:2:0:0:
286,301,40548,2,0,L|289:221,1,80,8|0,0:2|0:0,0:0:0:0:
193,306,40891,1,0,0:2:0:0:
186,97,41063,2,0,L|196:216,1,120,10|0,0:2|0:0,0:0:0:0:
193,306,41406,6,0,P|148:244|73:257,1,160,10|2,0:2|0:2,0:0:0:0:
0,362,41920,1,10,0:2:0:0:
93,384,42091,1,0,0:2:0:0:
73,257,42263,1,2,3:2:0:0:
0,195,42434,1,0,0:2:0:0:
146,321,42605,6,0,L|140:198,1,120,10|0,0:2|0:0,0:0:0:0:
129,150,42948,1,0,0:0:0:0:
238,218,43120,1,0,3:2:0:0:
182,68,43291,2,0,P|104:57|42:103,1,160,8|0,0:2|0:0,0:0:0:0:
177,191,43805,2,0,P|140:174|101:178,1,80,10|0,0:2|0:0,0:0:0:0:
230,274,44148,6,0,P|193:290|154:286,2,80,8|0|0,0:2|3:2|0:0,0:0:0:0:
319,149,44663,1,10,0:2:0:0:
330,276,44834,1,0,3:2:0:0:
215,177,45005,1,0,3:2:0:0:
388,208,45177,1,0,3:2:0:0:
268,345,45348,5,14,0:2:0:0:
268,345,46034,2,0,L|363:349,1,95.9999970703126,0|0,0:0|0:0,0:0:0:0:
433,384,46548,2,0,P|406:329|428:250,1,143.999995605469,0|0,0:0|0:0,0:0:0:0:
512,124,47405,2,0,L|417:120,1,95.9999970703126,0|0,0:0|0:0,0:0:0:0:
350,160,47919,2,0,P|377:95|356:28,1,143.999995605469,0|0,0:0|0:0,0:0:0:0:
236,124,48777,1,0,0:0:0:0:
238,130,49120,2,0,P|242:152|238:177,1,47.9999985351563,0|0,0:0|0:0,0:0:0:0:
185,233,49463,6,0,B|257:209|257:257|329:233,1,143.999995605469,0|0,0:0|0:0,0:0:0:0:
396,203,50148,1,0,0:0:0:0:
394,197,50491,2,0,P|390:175|394:150,1,47.9999985351563,0|0,0:0|0:0,0:0:0:0:
446,93,50834,6,0,P|382:111|331:59,1,143.999995605469,0|0,0:0|0:0,0:0:0:0:
273,11,51520,2,0,L|269:106,1,95.9999970703126,0|0,0:0|0:0,0:0:0:0:
294,180,52034,2,0,P|244:143|162:151,1,143.999995605469,0|0,0:0|0:0,0:0:0:0:
84,281,52891,2,0,L|80:186,1,95.9999970703126,0|0,0:0|0:0,0:0:0:0:
36,121,53405,2,0,P|94:159|164:150,1,143.999995605469,0|0,0:0|0:0,0:0:0:0:
254,25,54263,2,0,P|250:47|254:72,1,47.9999985351563,0|0,0:0|0:0,0:0:0:0:
305,129,54605,2,0,P|309:152|304:176,1,47.9999985351563,0|0,0:0|0:0,0:0:0:0:
252,233,54948,6,0,B|324:209|324:257|396:233,1,143.999995605469,0|0,0:0|0:0,0:0:0:0:
475,201,55634,1,8,0:3:0:0:
470,281,55805,1,8,0:3:0:0:
404,139,55977,1,4,0:3:0:0:
392,234,56148,1,4,0:3:0:0:
412,68,56320,6,0,L|415:175,1,96,2|0,3:2|0:2,0:0:0:0:
392,234,56663,2,0,P|361:241|326:234,1,64,8|0,0:2|0:2,0:0:0:0:
226,161,57005,1,2,3:2:0:0:
315,150,57177,1,0,3:2:0:0:
246,311,57348,2,0,P|239:280|246:245,1,64,10|0,0:2|0:2,0:0:0:0:
418,292,57691,6,0,P|372:300|328:277,1,96,2|0,3:2|0:0,0:0:0:0:
308,208,58034,2,0,L|310:142,1,64,10|0,0:2|0:2,0:0:0:0:
273,21,58377,1,2,3:2:0:0:
354,59,58548,1,0,3:2:0:0:
216,128,58720,2,0,L|150:126,1,64,8|0,0:2|0:2,0:0:0:0:
62,310,59063,6,0,P|54:263|75:221,1,96,2|0,3:2|0:0,0:0:0:0:
146,201,59405,2,0,L|209:202,1,64,8|2,0:2|0:2,0:0:0:0:
294,300,59748,1,0,3:2:0:0:
204,299,59920,1,0,3:2:0:0:
335,220,60091,2,0,P|342:189|335:154,1,64,10|0,0:2|0:2,0:0:0:0:
307,95,60348,1,0,0:2:0:0:
307,95,60434,5,2,3:2:0:0:
429,132,60605,1,0,3:2:0:0:
244,186,60777,2,0,P|212:187|179:174,1,64,8|0,0:2|0:2,0:0:0:0:
75,106,61120,1,0,3:2:0:0:
195,63,61291,1,0,3:2:0:0:
96,228,61463,2,0,L|99:335,1,96,10|0,0:2|0:0,0:0:0:0:
147,380,61805,6,0,P|189:385|225:372,1,80,0|0,3:2|3:2,0:0:0:0:
96,228,62148,1,8,0:2:0:0:
247,283,62320,1,0,3:2:0:0:
82,224,62491,2,0,P|119:211|158:216,1,80,0|0,3:2|3:2,0:0:0:0:
295,353,62834,1,8,0:2:0:0:
322,170,63005,1,8,0:2:0:0:
322,170,63091,1,8,0:2:0:0:
322,170,63177,6,0,L|329:273,1,80,2|0,3:2|3:2,0:0:0:0:
394,104,63520,1,8,0:2:0:0:
230,167,63691,1,0,3:2:0:0:
425,279,63863,2,0,L|419:199,1,80,0|0,3:2|3:2,0:0:0:0:
334,10,64205,1,8,0:2:0:0:
507,94,64377,1,0,0:2:0:0:
320,201,64548,5,0,3:2:0:0:
292,199,64634,1,0,3:2:0:0:
264,197,64720,1,0,3:2:0:0:
236,194,64805,1,0,3:2:0:0:
208,191,64891,2,0,P|203:173|206:153,1,40,8|0,2:2|3:2,0:0:0:0:
340,27,65063,5,0,3:2:0:0:
312,29,65149,1,0,3:2:0:0:
284,31,65235,1,0,3:2:0:0:
256,34,65320,1,0,3:2:0:0:
228,37,65406,2,0,P|223:55|226:75,1,40,0|0,3:2|3:2,0:0:0:0:
320,201,65577,1,8,0:2:0:0:
139,94,65748,1,0,3:2:0:0:
263,277,65920,5,8,0:2:0:0:
299,293,66005,1,8,0:2:0:0:
339,294,66091,1,8,0:2:0:0:
376,278,66177,1,8,0:2:0:0:
403,248,66263,5,8,0:3:0:0:
398,205,66348,1,8,0:3:0:0:
391,162,66434,1,8,0:3:0:0:
384,119,66520,1,8,0:3:0:0:
380,76,66605,6,0,L|385:30,1,40,4|0,0:3|0:2,0:0:0:0:
287,146,66777,2,0,L|282:100,1,40,4|0,0:3|0:2,0:0:0:0:
403,248,66948,2,0,L|442:243,1,40,4|0,0:3|0:2,0:0:0:0:
278,332,67120,2,0,L|238:327,1,40,4|0,0:3|0:2,0:0:0:0:
166,138,67291,6,0,L|150:281,1,143.999995605469,6|0,3:2|0:0,0:0:0:0:
113,348,67634,1,8,0:2:0:0:
251,245,67805,2,0,B|301:241|301:241|349:257|349:257|397:253,1,143.999995605469,2|0,0:2|0:0,0:0:0:0:
466,275,68148,1,0,3:2:0:0:
365,67,68320,2,0,L|360:162,1,95.9999970703126,10|0,0:2|0:2,0:0:0:0:
175,80,68663,6,0,P|212:31|290:35,1,143.999995605469,2|0,3:2|0:0,0:0:0:0:
351,78,69005,2,0,L|346:173,1,95.9999970703126,8|2,0:2|0:2,0:0:0:0:
294,277,69348,1,2,3:2:0:0:
457,142,69520,1,0,3:2:0:0:
280,289,69691,2,0,P|233:297|193:273,1,95.9999970703126,10|0,0:2|0:2,0:0:0:0:
264,76,70034,6,0,L|248:219,1,143.999995605469,2|0,3:2|0:0,0:0:0:0:
193,273,70377,1,8,0:2:0:0:
336,231,70548,2,0,P|293:209|247:218,1,95.9999970703126,2|0,0:2|0:0,0:0:0:0:
379,331,70891,1,0,3:2:0:0:
440,148,71063,2,0,L|445:243,1,95.9999970703126,10|0,0:2|0:2,0:0:0:0:
247,341,71405,6,0,P|315:360|382:327,1,143.999995605469,2|0,3:2|0:2,0:0:0:0:
371,253,71748,2,0,L|366:158,1,95.9999970703126,8|2,0:2|0:2,0:0:0:0:
322,50,72091,1,0,0:2:0:0:
484,186,72263,1,2,3:2:0:0:
308,38,72434,2,0,P|261:30|221:54,1,95.9999970703126,10|0,0:2|0:2,0:0:0:0:
267,249,72777,6,0,B|263:199|263:199|279:151|279:151|275:103,1,143.999995605469,2|0,3:2|0:0,0:0:0:0:
221,53,73120,1,8,0:2:0:0:
348,210,73291,2,0,B|420:234|420:186|492:210,1,143.999995605469,2|0,0:2|0:0,0:0:0:0:
512,282,73634,1,0,3:2:0:0:
385,139,73805,2,0,L|390:44,1,95.9999970703126,10|0,0:2|0:2,0:0:0:0:
296,261,74148,6,0,P|364:267|409:215,1,143.999995605469,2|0,3:2|0:0,0:0:0:0:
405,137,74491,2,0,L|410:28,1,95.9999970703126,10|2,0:2|0:2,0:0:0:0:
495,163,74834,1,2,3:2:0:0:
305,69,75005,1,0,3:2:0:0:
512,171,75177,1,10,0:2:0:0:
349,271,75348,1,2,0:2:0:0:
394,74,75520,6,0,B|390:124|390:124|406:172|406:172|402:220,1,143.999995605469,2|0,3:2|0:2,0:0:0:0:
349,271,75863,1,10,0:2:0:0:
490,228,76034,2,0,P|447:206|401:215,1,95.9999970703126,10|2,3:2|0:2,0:0:0:0:
282,340,76377,1,0,3:2:0:0:
255,150,76548,1,10,0:2:0:0:
391,222,76720,6,0,P|399:268|377:310,1,95.9999970703126,8|2,0:2|3:2,0:0:0:0:
470,141,77063,1,0,3:2:0:0:
317,256,77234,2,0,L|222:251,1,95.9999970703126,10|0,0:2|0:2,0:0:0:0:
338,63,77577,2,0,P|385:55|425:79,1,95.9999970703126,0|0,3:2|3:2,0:0:0:0:
474,145,77834,1,0,3:2:0:0:
474,145,77920,1,10,0:2:0:0:
247,107,78091,1,0,3:2:0:0:
324,342,78263,6,0,L|333:197,1,143.999995605469,6|0,3:2|0:0,0:0:0:0:
370,131,78606,1,8,0:2:0:0:
243,248,78777,2,0,B|193:252|193:252|145:236|145:236|97:240,1,143.999995605469,2|0,0:2|0:2,0:0:0:0:
28,219,79120,1,2,3:2:0:0:
202,69,79291,2,0,L|207:164,1,95.9999970703126,10|0,0:2|0:2,0:0:0:0:
356,293,79634,6,0,P|319:244|241:248,1,143.999995605469,2|0,3:2|0:0,0:0:0:0:
175,285,79977,2,0,L|80:280,1,95.9999970703126,10|0,0:2|0:2,0:0:0:0:
232,362,80320,1,2,0:2:0:0:
125,180,80491,1,2,3:2:0:0:
237,371,80663,2,0,B|213:299|261:299|238:227,1,143.999995605469,10|0,0:2|0:0,0:0:0:0:
204,162,81005,6,0,L|347:170,1,143.999995605469,2|0,3:2|0:2,0:0:0:0:
414,210,81348,1,8,0:2:0:0:
334,82,81520,2,0,P|325:128|347:170,1,95.9999970703126,2|2,0:2|0:2,0:0:0:0:
385,0,81863,1,0,3:2:0:0:
251,175,82034,2,0,L|346:170,1,95.9999970703126,10|0,0:2|0:2,0:0:0:0:
153,85,82377,5,2,3:2:0:0:
196,252,82548,1,2,0:2:0:0:
58,79,82720,1,10,0:2:0:0:
249,92,82891,1,2,0:2:0:0:
58,222,83063,1,2,3:2:0:0:
209,6,83234,1,0,3:2:0:0:
196,252,83405,2,0,P|208:171|172:127,1,143.999995605469,10|0,0:2|0:2,0:0:0:0:
107,84,83748,6,0,B|157:80|157:80|205:96|205:96|253:92,1,143.999995605469,2|0,3:2|0:0,0:0:0:0:
313,51,84091,1,8,0:2:0:0:
135,198,84263,2,0,B|111:270|159:270|135:342,1,143.999995605469,2|0,0:2|0:2,0:0:0:0:
74,384,84605,1,2,3:2:0:0:
210,234,84777,2,0,L|305:239,1,95.9999970703126,10|0,0:2|0:2,0:0:0:0:
497,352,85120,6,0,P|429:358|384:306,1,143.999995605469,2|0,3:2|0:0,0:0:0:0:
383,227,85463,2,0,L|388:132,1,95.9999970703126,8|2,0:2|0:2,0:0:0:0:
308,316,85805,1,2,3:2:0:0:
459,283,85977,1,0,3:2:0:0:
287,223,86148,1,10,0:2:0:0:
396,358,86320,1,2,0:2:0:0:
388,131,86491,5,2,3:2:0:0:
376,227,86663,1,0,3:2:0:0:
359,36,86834,1,8,0:2:0:0:
469,69,87005,1,0,3:2:0:0:
258,164,87177,1,0,3:2:0:0:
376,227,87348,1,0,3:2:0:0:
247,35,87520,1,8,0:2:0:0:
386,242,87691,2,0,L|449:236,1,47.9999985351563,0|0,3:2|0:0,0:0:0:0:
275,333,87863,5,8,0:3:0:0:
284,316,87948,1,8,0:3:0:0:
293,299,88034,2,0,P|293:271|280:245,1,47.9999985351563,8|8,0:3|0:3,0:0:0:0:
201,148,88205,2,0,P|201:176|214:202,1,47.9999985351563,4|4,0:3|0:3,0:0:0:0:
358,151,88377,2,0,P|330:151|304:164,1,47.9999985351563,4|4,0:3|0:3,0:0:0:0:
200,285,88548,5,2,3:2:0:0:
162,278,88634,1,0,3:2:0:0:
124,271,88720,1,0,3:2:0:0:
86,264,88805,1,0,3:2:0:0:
48,257,88891,1,8,0:2:0:0:
293,299,89063,1,0,3:2:0:0:
237,101,89234,5,6,3:2:0:0:
364,186,89405,2,0,P|316:199|268:185,1,95.9999970703126,2|8,0:2|0:2,0:0:0:0:
397,97,89748,1,2,0:2:0:0:
365,277,89920,2,0,P|352:229|366:181,1,95.9999970703126,2|0,0:2|3:2,0:0:0:0:
446,338,90263,1,8,0:2:0:0:
274,327,90434,1,0,0:2:0:0:
444,246,90605,6,0,P|457:294|443:342,1,95.9999970703126,2|2,3:2|0:2,0:0:0:0:
303,239,90948,1,8,0:2:0:0:
455,155,91120,1,2,0:2:0:0:
234,193,91291,2,0,P|221:241|235:289,1,95.9999970703126,2|0,0:2|3:2,0:0:0:0:
304,127,91634,1,8,0:2:0:0:
140,180,91805,1,0,0:2:0:0:
303,239,91977,5,2,3:2:0:0:
213,115,92148,2,0,P|262:108|307:129,1,95.9999970703126,2|8,0:2|0:2,0:0:0:0:
376,263,92491,1,2,0:2:0:0:
201,206,92663,2,0,P|194:158|212:114,1,95.9999970703126,2|0,0:2|3:2,0:0:0:0:
273,276,93005,1,8,0:2:0:0:
105,232,93177,1,2,0:2:0:0:
239,361,93348,6,0,P|288:367|333:346,1,95.9999970703126,0|2,3:2|0:2,0:0:0:0:
433,210,93691,1,8,0:2:0:0:
273,276,93863,1,2,0:2:0:0:
399,125,94034,2,0,P|448:119|493:140,1,95.9999970703126,2|0,0:2|3:2,0:0:0:0:
273,276,94377,2,0,B|248:204|297:204|272:132,1,143.999995605469,10|0,0:2|0:0,0:0:0:0:
247,63,94720,5,2,3:2:0:0:
102,113,94891,2,0,L|201:123,1,95.9999970703126,2|8,0:2|0:2,0:0:0:0:
46,39,95234,1,2,0:2:0:0:
129,204,95405,2,0,P|135:253|114:298,1,95.9999970703126,2|0,0:2|3:2,0:0:0:0:
26,147,95748,1,8,0:2:0:0:
234,108,95920,6,0,L|138:98,1,95.9999970703126,2|0,0:2|3:2,0:0:0:0:
328,193,96263,2,0,L|232:202,1,95.9999970703126,2|10,0:2|0:2,0:0:0:0:
395,260,96605,1,0,0:2:0:0:
315,102,96777,2,0,P|308:149|327:192,1,95.9999970703126,2|2,0:2|3:2,0:0:0:0:
377,27,97120,1,8,0:2:0:0:
222,134,97291,6,0,L|126:124,1,95.9999970703126,2|2,0:2|3:2,0:0:0:0:
22,308,97634,2,0,L|117:298,1,95.9999970703126,2|8,0:2|0:2,0:0:0:0:
287,327,97977,1,2,0:2:0:0:
114,214,98148,2,0,P|107:166|126:123,1,95.9999970703126,2|0,0:2|3:2,0:0:0:0:
200,280,98491,1,8,0:2:0:0:
312,121,98663,6,0,P|264:114|221:133,1,95.9999970703126,2|0,2:2|3:2,0:0:0:0:
53,282,99005,1,2,0:2:0:0:
286,295,99177,2,0,L|276:199,1,95.9999970703126,10|0,0:2|0:2,0:0:0:0:
410,23,99520,2,0,L|400:118,1,95.9999970703126,8|0,0:3|3:2,0:0:0:0:
429,195,99777,1,0,3:2:0:0:
429,195,99863,1,8,0:2:0:0:
282,31,100034,1,0,3:2:0:0:
305,240,100205,5,6,3:2:0:0:
399,118,100377,2,0,P|351:105|303:119,1,95.9999970703126,2|8,0:2|0:2,0:0:0:0:
432,29,100720,1,2,0:2:0:0:
400,209,100892,2,0,P|387:161|401:113,1,95.9999970703126,2|0,0:2|3:2,0:0:0:0:
468,275,101234,1,8,0:2:0:0:
304,221,101405,1,2,0:2:0:0:
466,366,101577,6,0,P|479:318|465:270,1,95.9999970703126,0|2,3:2|0:2,0:0:0:0:
346,150,101920,1,8,0:2:0:0:
397,319,102091,1,2,0:2:0:0:
393,81,102263,2,0,P|345:68|297:82,1,95.9999970703126,2|0,0:2|3:2,0:0:0:0:
440,182,102605,1,8,0:2:0:0:
478,13,102777,1,0,0:2:0:0:
346,150,102948,5,2,3:2:0:0:
236,42,103120,2,0,P|228:88|247:132,1,95.9999970703126,2|8,0:2|0:2,0:0:0:0:
358,240,103463,1,2,0:2:0:0:
404,67,103634,2,0,P|357:59|313:78,1,95.9999970703126,2|0,0:2|3:2,0:0:0:0:
198,207,103977,1,8,0:2:0:0:
378,232,104148,6,0,P|385:184|366:141,1,95.9999970703126,0|2,0:2|3:2,0:0:0:0:
296,300,104491,1,0,0:0:0:0:
247,133,104663,1,8,0:2:0:0:
378,232,104834,1,2,0:2:0:0:
284,58,105005,2,0,P|236:51|193:70,1,95.9999970703126,2|0,0:2|3:2,0:0:0:0:
378,232,105348,2,0,B|403:192|354:128|378:88,1,143.999995605469,10|0,0:2|0:0,0:0:0:0:
407,21,105691,5,2,3:2:0:0:
290,122,105863,2,0,L|280:23,1,95.9999970703126,2|8,0:2|0:2,0:0:0:0:
380,167,106205,1,2,2:2:0:0:
192,99,106377,2,0,P|144:92|101:111,1,95.9999970703126,2|0,2:2|3:2,0:0:0:0:
254,194,106720,1,8,0:2:0:0:
54,259,106891,6,0,L|150:269,1,95.9999970703126,0|2,0:2|3:2,0:0:0:0:
349,184,107234,2,0,L|253:194,1,95.9999970703126,2|8,0:2|0:2,0:0:0:0:
417,252,107577,1,2,0:2:0:0:
336,93,107749,2,0,P|329:140|348:183,1,95.9999970703126,2|0,0:2|3:2,0:0:0:0:
414,24,108091,1,8,0:2:0:0:
242,47,108263,1,0,0:2:0:0:
416,128,108434,5,2,3:2:0:0:
390,260,108605,1,0,3:2:0:0:
420,109,108777,1,0,3:2:0:0:
302,258,108948,1,0,3:2:0:0:
497,174,109120,1,0,3:2:0:0:
286,265,109291,1,0,3:2:0:0:
507,270,109463,1,0,3:2:0:0:
308,155,109634,2,0,L|260:160,1,47.9999985351563,2|0,3:2|0:0,0:0:0:0:
157,314,109805,5,0,3:2:0:0:
177,281,109891,1,0,3:2:0:0:
184,243,109977,1,0,3:2:0:0:
176,206,110063,1,0,3:2:0:0:
165,169,110148,2,0,P|162:141|173:114,1,47.9999985351563,2|0,3:2|3:2,0:0:0:0:
248,20,110320,2,0,P|250:47|239:74,1,47.9999985351563,0|0,3:2|3:2,0:0:0:0:
85,13,110491,5,8,2:3:0:0:
104,17,110577,1,8,2:3:0:0:
123,21,110663,1,4,2:3:0:0:
142,25,110748,1,4,2:3:0:0:
161,29,110834,1,10,0:2:0:0:
176,206,111005,1,0,3:2:0:0:
248,20,111177,5,2,0:2:0:0:
