osu file format v14

[General]
AudioFilename: audio.mp3
AudioLeadIn: 0
PreviewTime: 65441
Countdown: 0
SampleSet: Soft
StackLeniency: 0.7
Mode: 0
LetterboxInBreaks: 0
WidescreenStoryboard: 1

[Editor]
Bookmarks: 24898,29870,45298,56270,67241,89184,111127,116613,133070
DistanceSpacing: 1.5
BeatDivisor: 4
GridSize: 8
TimelineZoom: 2.7

[Metadata]
Title:Words (feat. Laura Brehm)
TitleUnicode:Words (feat. Laura Brehm)
Artist:Feint
ArtistUnicode:Feint
Creator:Nao Tomori
Version:Peter's Insane
Source:
Tags:monstercat edm dubstep dnb drum and bass electronic dance english instrumental peter petereu iwaifu wafer xayler
BeatmapID:2210239
BeatmapSetID:1057350

[Difficulty]
HPDrainRate:6
CircleSize:4
OverallDifficulty:8
ApproachRate:9
SliderMultiplier:1.5
SliderTickRate:1

[Events]
//Background and Video events
0,0,"ocean bg.jpg",0,0
//Break Periods
2,45548,55034
//Storyboard Layer 0 (Background)
//Storyboard Layer 1 (Fail)
//Storyboard Layer 2 (Pass)
//Storyboard Layer 3 (Foreground)
//Storyboard Layer 4 (Overlay)
//Storyboard Sound Samples

[TimingPoints]
1463,342.857142857143,4,2,1,53,1,0
1463,-125,4,2,1,53,0,0
20663,-125,4,2,1,53,0,0
23405,-100,4,2,1,63,0,0
42605,-100,4,2,1,53,0,0
55634,-100,4,2,1,68,0,0
56320,-100,4,2,1,68,0,0
61805,-100,4,2,1,73,0,0
67291,-86.9565217391304,4,2,1,78,0,1
68320,-86.9565217391304,4,2,1,78,0,1
68663,-86.9565217391304,4,2,1,78,0,1
71063,-86.9565217391304,4,2,1,78,0,1
71405,-86.9565217391304,4,2,1,78,0,1
73805,-86.9565217391304,4,2,1,78,0,1
74063,-86.9565217391304,4,2,1,78,0,1
84777,-86.9565217391304,4,2,1,78,0,1
85120,-86.9565217391304,4,2,1,78,0,1
87863,-86.9565217391304,4,2,1,78,0,0
88548,-86.9565217391304,4,2,1,78,0,0
89234,-90.9090909090909,4,2,1,78,0,1
111177,-86.9565217391304,4,2,1,33,0,0

[Colours]
Combo1 : 124,150,252
Combo2 : 145,243,251
Combo3 : 243,133,136
Combo4 : 206,203,248
Combo5 : 236,155,132

[HitObjects]
236,330,777,5,2,0:2:0:0:
266,260,1120,1,2,0:2:0:0:
217,197,1463,2,0,P|190:152|256:138,1,120,8|0,3:1|0:2,0:0:0:0:
451,241,2148,2,0,P|410:238|391:237,2,60,0|0|0,3:2|0:0|0:2,0:0:0:0:
309,361,2663,1,2,0:0:0:0:
282,202,3005,1,2,0:0:0:0:
282,202,3520,2,0,L|158:217,1,120,2|0,3:2|0:0,0:0:0:0:
60,136,4205,6,0,P|60:78|10:49,1,120,2|0,3:2|0:0,0:0:0:0:
101,232,4891,2,0,L|31:246,2,60,0|0|0,3:2|0:0|0:2,0:0:0:0:
1,315,5405,1,2,0:0:0:0:
157,158,5748,2,0,L|288:177,1,120,2|2,0:0|0:2,0:0:0:0:
198,257,6263,1,0,3:2:0:0:
83,47,6605,1,0,0:2:0:0:
265,58,6948,6,0,B|312:66|312:66|336:57|336:57|405:67,1,120,8|0,3:1|0:2,0:0:0:0:
416,213,7634,2,0,L|482:199,2,60,0|0|0,3:2|0:0|0:2,0:0:0:0:
368,291,8148,2,0,P|320:300|259:249,1,120,2|2,0:0|0:0,0:0:0:0:
22,199,9005,2,0,P|16:152|10:121,2,60,2|0|0,3:2|0:0|0:2,0:0:0:0:
137,33,9691,6,0,B|213:36|176:67|253:68,1,120,2|0,3:2|0:0,0:0:0:0:
368,199,10377,2,0,P|374:153|358:124,2,60,0|0|0,3:2|0:0|0:2,0:0:0:0:
287,162,10891,1,2,0:0:0:0:
422,282,11234,1,2,0:0:0:0:
137,372,11748,2,0,P|126:334|183:264,1,120,2|0,3:2|0:2,0:0:0:0:
38,116,12434,6,0,B|78:116|78:116|98:100|98:100|152:101,1,120,8|0,3:1|0:0,0:0:0:0:
342,182,13120,2,0,L|283:187,2,60,0|0|0,3:2|0:0|0:2,0:0:0:0:
229,259,13634,1,2,0:0:0:0:
399,113,13977,1,2,0:0:0:0:
333,372,14491,5,2,3:2:0:0:
229,259,14834,1,0,0:2:0:0:
61,357,15177,6,0,B|136:350,2,60,2|0|0,3:2|0:0|0:0,0:0:0:0:
229,259,15863,2,0,L|247:395,1,120,0|0,3:2|0:2,0:0:0:0:
317,312,16377,1,2,0:0:0:0:
147,231,16720,1,2,0:0:0:0:
339,104,17234,2,0,P|375:95|438:199,1,180,2|0,3:2|0:0,0:0:0:0:
462,324,17920,6,0,P|415:333|356:270,1,120,8|0,3:1|0:2,0:0:0:0:
153,354,18605,2,0,L|170:269,2,60,0|0|0,3:2|0:0|0:2,0:0:0:0:
74,306,19120,1,2,0:0:0:0:
225,174,19463,1,2,0:0:0:0:
65,50,19977,2,0,B|173:65|115:7|262:36,1,180,2|0,3:2|0:0,0:0:0:0:
311,163,20663,6,0,P|256:226|201:122,1,240,2|0,3:2|0:0,0:0:0:0:
198,124,22034,6,0,P|224:138|132:258,1,240,2|2,0:2|0:2,0:0:0:0:
66,150,23063,1,2,0:2:0:0:
276,328,23405,6,0,B|364:313|336:363|438:343,1,150,6|0,3:2|0:2,0:0:0:0:
508,305,23920,1,0,3:2:0:0:
397,242,24091,2,0,P|405:212|388:136,1,75,8|0,0:2|0:0,0:0:0:0:
319,198,24434,1,0,0:2:0:0:
459,113,24605,6,0,P|389:77|332:120,1,150,10|10,0:2|0:2,0:0:0:0:
317,286,25120,5,0,3:2:0:0:
356,358,25291,1,0,0:2:0:0:
239,343,25463,5,10,0:2:0:0:
332,278,25634,1,0,0:2:0:0:
226,226,25805,5,2,3:2:0:0:
243,366,25977,1,0,0:2:0:0:
141,300,26148,6,0,P|80:259|30:304,1,150,10|0,0:2|0:2,0:0:0:0:
95,384,26663,1,2,3:2:0:0:
234,270,26834,2,0,P|283:275|386:283,1,150,10|0,0:2|0:2,0:0:0:0:
466,122,27348,5,10,0:2:0:0:
446,202,27520,1,0,0:2:0:0:
376,127,27691,5,10,0:2:0:0:
470,235,27863,2,0,P|476:274|478:339,1,75,2|0,3:2|0:2,0:0:0:0:
342,361,28205,5,8,0:2:0:0:
383,282,28377,1,0,0:0:0:0:
421,363,28548,5,0,3:2:0:0:
306,288,28720,1,0,3:2:0:0:
387,172,28891,2,0,P|359:103|254:120,1,150,10|0,0:2|0:2,0:0:0:0:
292,204,29405,1,2,3:2:0:0:
163,158,29577,2,0,B|70:148|114:206|13:197,1,150,10|0,0:2|0:2,0:0:0:0:
131,318,30091,6,0,P|145:236|143:232,1,75,10|0,0:2|0:2,0:0:0:0:
35,112,30434,1,10,0:2:0:0:
140,40,30605,5,0,3:2:0:0:
140,40,30777,1,0,3:2:0:0:
140,40,30948,1,10,0:2:0:0:
227,103,31120,5,0,0:0:0:0:
293,61,31291,1,0,3:2:0:0:
352,113,31463,1,0,3:2:0:0:
336,256,31634,6,0,P|264:208|190:241,1,150,10|0,0:2|0:2,0:0:0:0:
210,314,32148,1,2,3:2:0:0:
335,358,32320,2,0,B|416:358|392:306|464:289,1,150,10|0,0:2|0:2,0:0:0:0:
411,192,32834,6,0,P|411:154|416:117,1,75,10|0,0:2|3:2,0:0:0:0:
373,30,33177,1,10,0:2:0:0:
273,109,33348,2,0,P|215:95|175:67,1,75,0|0,3:2|0:2,0:0:0:0:
125,135,33691,1,10,0:2:0:0:
64,178,33863,1,0,0:0:0:0:
137,121,34034,5,0,3:2:0:0:
49,192,34205,1,0,3:2:0:0:
182,246,34377,6,0,B|281:237|238:295|360:279,1,150,10|0,0:2|0:2,0:0:0:0:
421,252,34891,1,0,3:2:0:0:
385,96,35063,2,0,P|306:144|348:216,1,150,8|0,0:2|0:2,0:0:0:0:
467,136,35577,6,0,P|456:54|446:45,1,75,10|0,0:2|0:2,0:0:0:0:
314,188,35920,1,10,0:2:0:0:
190,86,36091,5,0,3:2:0:0:
218,158,36263,1,2,3:2:0:0:
168,227,36434,1,10,0:2:0:0:
314,188,36605,5,0,0:2:0:0:
378,232,36777,1,2,3:2:0:0:
346,300,36948,1,0,0:2:0:0:
168,227,37120,6,0,P|188:295|197:392,1,150,10|0,0:2|0:2,0:0:0:0:
110,315,37634,1,0,3:2:0:0:
267,286,37805,2,0,B|346:315|346:315|435:278,1,150,8|0,0:2|0:2,0:0:0:0:
343,180,38320,5,10,0:2:0:0:
425,192,38491,1,0,0:2:0:0:
388,110,38663,1,10,0:2:0:0:
256,76,38834,6,0,B|221:87|221:87|152:68,1,75,2|0,3:2|0:2,0:0:0:0:
82,34,39177,1,10,0:2:0:0:
132,182,39348,1,0,0:2:0:0:
94,243,39520,1,0,3:2:0:0:
23,214,39691,1,0,0:2:0:0:
47,334,39863,6,0,B|114:341|114:341|141:330|141:330|237:338,1,150,10|0,0:2|0:2,0:0:0:0:
283,346,40377,1,0,3:2:0:0:
250,227,40548,2,0,P|302:137|351:193,1,150,8|0,0:2|0:2,0:0:0:0:
446,203,41063,2,0,P|411:218|374:222,1,75,10|0,0:2|0:2,0:0:0:0:
290,48,41405,2,0,P|326:52|363:69,1,75,10|0,0:2|3:2,0:0:0:0:
318,142,41748,1,2,0:2:0:0:
198,245,41920,5,10,0:2:0:0:
223,178,42091,1,0,0:2:0:0:
173,121,42263,1,2,3:2:0:0:
202,48,42434,1,0,0:2:0:0:
89,149,42605,6,0,P|23:103|14:26,1,150,10|0,0:2|0:0,0:0:0:0:
92,63,43120,1,0,3:2:0:0:
28,213,43291,2,0,L|49:388,1,150,8|0,0:2|0:0,0:0:0:0:
195,284,43805,2,0,L|101:271,1,75,10|0,0:2|0:0,0:0:0:0:
247,206,44148,1,8,0:2:0:0:
189,135,44320,2,0,P|189:85|195:29,1,75,0|0,3:2|0:0,0:0:0:0:
59,196,44663,5,10,0:2:0:0:
122,34,44834,1,0,3:2:0:0:
38,85,45005,5,0,3:2:0:0:
113,111,45177,1,0,3:2:0:0:
189,135,45348,1,14,0:2:0:0:
110,174,55634,5,8,0:3:0:0:
93,100,55805,1,8,0:3:0:0:
43,219,55977,5,4,0:3:0:0:
101,71,56148,1,4,0:3:0:0:
211,173,56320,6,0,P|274:177|328:124,1,112.5,2|0,3:2|0:2,0:0:0:0:
350,114,56663,2,0,L|349:199,1,75,8|0,0:2|0:2,0:0:0:0:
348,340,57005,1,2,3:2:0:0:
295,275,57177,1,0,3:2:0:0:
420,300,57348,2,0,L|514:288,1,75,10|0,0:2|0:2,0:0:0:0:
279,384,57691,6,0,L|139:373,1,112.5,2|0,3:2|0:0,0:0:0:0:
134,343,58034,2,0,L|45:347,1,75,10|0,0:2|0:2,0:0:0:0:
93,216,58377,1,2,3:2:0:0:
21,263,58548,1,0,3:2:0:0:
7,112,58720,2,0,L|98:136,1,75,8|0,0:2|0:2,0:0:0:0:
251,111,59063,6,0,B|206:124|206:124|190:149|190:149|123:172,1,112.5,2|0,3:2|0:0,0:0:0:0:
170,197,59405,2,0,L|265:163,1,75,8|2,0:2|0:2,0:0:0:0:
370,115,59748,1,0,3:2:0:0:
296,46,59920,1,0,3:2:0:0:
352,211,60091,2,0,L|346:302,1,75,10|0,0:2|0:2,0:0:0:0:
241,317,60434,5,2,3:2:0:0:
311,376,60605,1,0,3:2:0:0:
161,350,60777,2,0,L|54:365,1,75,8|0,0:2|0:2,0:0:0:0:
59,200,61120,1,0,3:2:0:0:
0,274,61291,1,0,3:2:0:0:
135,247,61463,2,0,L|218:234,1,75,10|0,0:2|0:2,0:0:0:0:
122,43,61805,6,0,P|156:96|156:140,1,75,0|0,3:2|3:2,0:0:0:0:
73,114,62148,1,8,0:2:0:0:
73,114,62320,1,0,3:2:0:0:
236,147,62491,2,0,L|339:162,1,75,0|0,3:2|3:2,0:0:0:0:
226,51,62834,1,8,0:2:0:0:
172,200,63005,1,8,0:2:0:0:
166,212,63091,1,8,0:2:0:0:
160,224,63177,6,0,L|170:331,1,75,2|0,3:2|3:2,0:0:0:0:
306,332,63520,1,8,0:2:0:0:
222,373,63691,1,0,3:2:0:0:
281,245,63863,2,0,P|315:240|367:265,1,75,0|0,3:2|3:2,0:0:0:0:
492,304,64205,1,8,0:2:0:0:
419,367,64377,1,0,0:2:0:0:
455,202,64548,6,0,L|401:175,3,37.5,0|0|0|0,3:2|3:2|3:2|3:2,0:0:0:0:
388,105,64891,2,0,L|322:104,3,37.5,8|0|0|0,2:2|3:2|3:2|3:2,0:0:0:0:
276,45,65234,2,0,L|246:78,3,37.5,0|0|0|0,3:2|3:2|3:2|3:2,0:0:0:0:
166,70,65577,1,8,0:2:0:0:
268,198,65748,1,0,3:2:0:0:
46,231,65920,5,8,0:2:0:0:
80,242,66005,1,8,0:2:0:0:
99,271,66091,1,8,0:2:0:0:
94,302,66177,1,8,0:2:0:0:
79,324,66263,1,8,0:3:0:0:
84,339,66348,1,8,0:3:0:0:
87,352,66434,1,8,0:3:0:0:
32,148,66605,5,4,0:3:0:0:
0,304,66777,1,4,0:3:0:0:
124,222,66948,5,4,0:3:0:0:
46,231,67120,1,4,0:3:0:0:
202,261,67291,6,0,P|196:139|166:66,1,172.500003290176,6|8,3:2|0:2,0:0:0:0:
41,190,67805,1,2,0:2:0:0:
124,222,67977,2,0,P|122:181|107:136,1,86.2500016450882,0|0,0:0|3:2,0:0:0:0:
286,0,68320,2,0,P|272:40|270:83,1,86.2500016450882,10|0,0:2|0:2,0:0:0:0:
407,142,68663,6,0,B|309:131|349:196|223:174,1,172.500003290176,2|8,3:2|0:2,0:0:0:0:
308,285,69177,1,2,0:2:0:0:
391,231,69348,2,0,L|489:246,1,86.2500016450882,2|0,3:2|3:2,0:0:0:0:
359,362,69691,2,0,L|261:377,1,86.2500016450882,10|0,0:2|0:2,0:0:0:0:
89,323,70034,6,0,P|172:324|202:272,1,129.375002467632,2|0,3:2|0:0,0:0:0:0:
123,244,70377,2,0,P|115:196|30:83,1,172.500003290176,8|0,0:2|0:0,0:0:0:0:
66,0,70891,1,0,3:2:0:0:
246,67,71063,2,0,P|205:91|158:94,1,86.2500016450882,10|0,0:2|0:2,0:0:0:0:
300,173,71405,6,0,P|401:243|459:214,1,172.500003290176,2|8,3:2|0:2,0:0:0:0:
390,142,71920,1,2,0:2:0:0:
352,291,72091,2,0,L|332:404,1,86.2500016450882,0|2,0:2|3:2,0:0:0:0:
300,173,72434,2,0,L|280:60,1,86.2500016450882,10|0,0:2|0:2,0:0:0:0:
233,256,72777,6,0,B|102:274|102:274|144:302,1,172.500003290176,2|8,3:2|0:2,0:0:0:0:
84,360,73291,1,2,0:2:0:0:
43,210,73463,2,0,P|14:251|18:293,1,86.2500016450882,0|0,0:0|3:2,0:0:0:0:
137,106,73805,2,0,P|108:64|112:22,1,86.2500016450882,10|0,0:2|0:2,0:0:0:0:
285,215,74148,6,0,B|241:207|215:164|215:164|187:204|123:213,1,172.500003290176,2|10,3:2|0:2,0:0:0:0:
213,290,74663,1,2,0:2:0:0:
344,139,74834,2,0,P|379:183|371:247,1,86.2500016450882,2|0,3:2|3:2,0:0:0:0:
260,76,75177,1,10,0:2:0:0:
260,76,75348,1,2,0:2:0:0:
147,209,75520,6,0,P|107:232|38:179,1,129.375002467632,2|0,3:2|0:2,0:0:0:0:
0,127,75863,2,0,P|44:193|15:305,1,172.500003290176,10|2,0:2|0:2,0:0:0:0:
103,378,76377,1,0,3:2:0:0:
147,209,76548,2,0,P|191:205|177:87,1,172.500003290176,10|2,0:2|3:2,0:0:0:0:
238,295,77063,5,0,3:2:0:0:
312,231,77234,2,0,L|418:239,1,86.2500016450882,10|0,0:2|0:2,0:0:0:0:
486,237,77577,1,0,3:2:0:0:
398,40,77748,1,0,3:2:0:0:
398,59,77834,1,0,3:2:0:0:
397,74,77920,1,10,0:2:0:0:
301,146,78091,1,0,3:2:0:0:
136,30,78263,6,0,P|41:80|79:150,1,172.500003290176,6|8,3:2|0:2,0:0:0:0:
168,167,78777,1,2,0:2:0:0:
85,252,78948,2,0,P|56:267|-4:263,1,86.2500016450882,2|2,0:0|3:2,0:0:0:0:
209,364,79291,2,0,P|212:321|195:282,1,86.2500016450882,10|0,0:2|0:2,0:0:0:0:
381,234,79634,6,0,B|302:242|328:204|248:201,1,129.375002467632,2|0,3:2|0:0,0:0:0:0:
226,107,79977,2,0,P|225:44|192:49,1,86.2500016450882,10|0,0:2|0:2,0:0:0:0:
104,172,80320,2,0,L|16:156,1,86.2500016450882,2|2,0:2|3:2,0:0:0:0:
24,344,80663,2,0,L|74:255,1,86.2500016450882,10|2,0:2|0:2,0:0:0:0:
269,328,81005,6,0,P|203:311|156:372,1,129.375002467632,2|0,3:2|0:2,0:0:0:0:
294,356,81348,6,0,B|347:345|347:345|388:358|388:358|491:335,1,172.500003290176,8|2,0:2|0:2,0:0:0:0:
379,185,81863,1,0,3:2:0:0:
305,237,82034,2,0,P|266:230|217:223,1,86.2500016450882,10|0,0:2|0:2,0:0:0:0:
157,108,82377,5,2,3:2:0:0:
152,142,82548,1,2,0:2:0:0:
95,67,82720,1,10,0:2:0:0:
73,179,82891,1,2,0:2:0:0:
292,46,83063,6,0,B|251:33|251:33|209:38,1,86.2500016450882,2|0,3:2|3:0,0:0:0:0:
398,145,83405,2,0,L|482:124,1,86.2500016450882,10|0,0:2|0:0,0:0:0:0:
375,361,83748,6,0,P|387:282|334:244,1,129.375002467632,2|0,3:2|0:0,0:0:0:0:
289,314,84091,2,0,B|175:293|226:358|110:336,1,172.500003290176,8|0,0:2|0:0,0:0:0:0:
0,221,84605,1,2,3:2:0:0:
70,176,84777,2,0,P|81:217|70:258,1,86.2500016450882,10|0,0:2|0:2,0:0:0:0:
36,43,85120,6,0,P|99:85|175:57,1,129.375002467632,2|0,3:2|0:0,0:0:0:0:
213,40,85463,2,0,L|190:144,1,86.2500016450882,8|2,0:2|0:2,0:0:0:0:
294,221,85805,2,0,L|405:205,1,86.2500016450882,2|2,3:2|3:2,0:0:0:0:
326,348,86148,2,0,L|215:332,1,86.2500016450882,10|2,0:0|0:0,0:0:0:0:
46,294,86491,5,2,3:2:0:0:
118,330,86663,1,0,3:2:0:0:
39,202,86834,5,8,0:2:0:0:
117,350,87005,1,0,3:2:0:0:
185,204,87177,5,0,3:2:0:0:
116,367,87348,1,0,3:2:0:0:
264,348,87520,5,8,0:2:0:0:
114,262,87691,1,0,3:2:0:0:
185,204,87863,2,0,L|244:197,3,43.1250008225441,8|8|8|8,0:3|0:3|0:3|0:3,0:0:0:0:
46,132,88205,2,0,L|3:137,3,43.1250008225441,8|8|8|8,0:3|0:3|0:3|0:3,0:0:0:0:
0,230,88548,5,2,3:2:0:0:
41,219,88633,1,0,3:0:0:0:
83,228,88719,1,0,3:0:0:0:
116,255,88805,1,0,3:0:0:0:
134,294,88890,1,8,2:0:0:0:
184,180,89063,1,0,3:2:0:0:
138,330,89234,5,6,3:2:0:0:
216,331,89405,2,0,B|257:335|257:335|296:353,1,82.5000025177003,2|8,0:2|0:2,0:0:0:0:
270,196,89748,1,2,0:2:0:0:
206,254,89920,2,0,P|188:216|184:176,1,82.5000025177003,2|0,0:2|3:2,0:0:0:0:
319,42,90262,2,0,P|310:98|282:138,1,82.5000025177003,8|0,0:2|0:2,0:0:0:0:
124,66,90605,6,0,P|229:38|226:-7,1,165.000005035401,2|8,3:2|0:2,0:0:0:0:
270,196,91120,1,2,0:2:0:0:
270,196,91291,1,2,0:2:0:0:
214,294,91463,5,0,3:2:0:0:
378,200,91634,2,0,P|422:184|487:202,1,82.5000025177003,8|0,0:2|0:2,0:0:0:0:
386,353,91977,5,2,3:2:0:0:
479,345,92148,2,0,P|451:289|405:273,1,82.5000025177003,2|8,0:2|0:2,0:0:0:0:
293,359,92491,1,2,0:2:0:0:
214,294,92663,2,0,L|115:308,1,82.5000025177003,2|0,0:2|3:2,0:0:0:0:
232,127,93005,1,8,0:2:0:0:
296,188,93177,2,0,L|395:202,1,82.5000025177003,2|0,0:2|3:2,0:0:0:0:
259,40,93520,6,0,P|298:66|315:124,1,82.5000025177003,2|8,0:2|0:2,0:0:0:0:
214,217,93863,1,2,0:2:0:0:
214,217,94034,1,2,0:2:0:0:
74,85,94205,5,0,3:2:0:0:
135,155,94377,2,0,P|129:177|120:257,1,82.5000025177003,10|0,0:2|0:2,0:0:0:0:
246,378,94720,2,0,P|241:337|203:185,1,165.000005035401,2|8,3:2|0:2,0:0:0:0:
141,337,95234,1,2,0:2:0:0:
326,279,95405,2,0,B|363:270|363:270|414:288,1,82.5000025177003,2|0,0:2|3:2,0:0:0:0:
326,126,95748,2,0,B|289:135|289:135|238:117,1,82.5000025177003,8|2,0:2|0:2,0:0:0:0:
107,19,96091,6,0,L|90:203,1,165.000005035401,0|10,3:2|0:2,0:0:0:0:
80,342,96605,1,0,0:2:0:0:
80,342,96777,1,2,0:2:0:0:
8,235,96948,5,2,3:2:0:0:
177,303,97120,2,0,L|278:294,1,82.5000025177003,8|2,0:2|0:2,0:0:0:0:
341,177,97463,5,2,3:2:0:0:
417,268,97634,2,0,B|391:266|377:254|377:254|355:261|333:257,1,82.5000025177003,2|8,0:2|0:2,0:0:0:0:
447,101,97977,1,2,0:2:0:0:
447,101,98148,1,2,0:2:0:0:
492,198,98320,5,0,3:2:0:0:
348,80,98491,1,8,0:2:0:0:
338,257,98663,2,0,L|348:369,1,82.5000025177003,2|0,2:2|3:2,0:0:0:0:
282,188,99005,1,2,0:2:0:0:
103,275,99177,2,0,B|179:310|179:310|265:271,1,165.000005035401,10|8,0:2|0:3,0:0:0:0:
176,111,99691,1,0,3:2:0:0:
175,129,99777,1,0,3:2:0:0:
173,147,99863,2,0,L|67:139,1,82.5000025177003,8|0,0:2|3:2,0:0:0:0:
233,33,100205,5,6,3:2:0:0:
300,112,100377,2,0,L|406:128,1,82.5000025177003,2|8,0:2|0:2,0:0:0:0:
249,220,100720,1,2,0:2:0:0:
249,220,100891,1,2,0:2:0:0:
335,297,101063,5,0,3:2:0:0:
179,315,101234,2,0,L|89:328,1,82.5000025177003,8|2,0:2|0:2,0:0:0:0:
8,114,101577,6,0,P|54:197|-9:245,1,165.000005035401,0|8,3:2|0:2,0:0:0:0:
117,56,102091,1,2,0:2:0:0:
117,56,102263,1,2,0:2:0:0:
229,211,102434,5,0,3:2:0:0:
177,136,102605,2,0,P|187:90|210:26,1,82.5000025177003,8|0,0:2|0:2,0:0:0:0:
136,223,102948,5,2,3:2:0:0:
200,308,103120,2,0,L|314:297,1,82.5000025177003,2|8,0:2|0:2,0:0:0:0:
343,184,103463,1,2,0:2:0:0:
343,184,103634,1,2,0:2:0:0:
238,208,103805,5,0,3:2:0:0:
340,372,103977,1,8,0:2:0:0:
403,305,104148,2,0,L|511:321,1,82.5000025177003,0|2,0:2|3:2,0:0:0:0:
424,171,104491,2,0,L|316:187,1,82.5000025177003,0|8,0:0|0:2,0:0:0:0:
491,55,104834,1,2,0:2:0:0:
491,55,105005,1,2,0:2:0:0:
508,220,105177,5,0,3:2:0:0:
374,89,105348,2,0,P|379:51|386:-14,1,82.5000025177003,10|0,0:2|0:0,0:0:0:0:
261,139,105691,1,2,3:2:0:0:
198,80,105863,2,0,L|105:90,1,82.5000025177003,2|8,0:2|0:2,0:0:0:0:
23,233,106205,1,2,2:2:0:0:
23,233,106377,1,2,2:2:0:0:
19,103,106548,5,0,3:2:0:0:
142,212,106720,1,8,0:2:0:0:
24,238,106891,2,0,L|29:330,1,82.5000025177003,0|2,0:2|3:2,0:0:0:0:
142,212,107234,2,0,L|135:114,1,82.5000025177003,2|8,0:2|0:2,0:0:0:0:
280,263,107577,1,2,0:2:0:0:
280,263,107748,1,2,0:2:0:0:
203,361,107920,5,0,3:2:0:0:
416,363,108091,2,0,P|367:351|315:341,1,82.5000025177003,8|0,0:2|0:2,0:0:0:0:
416,200,108434,5,2,3:2:0:0:
405,228,108605,1,0,3:2:0:0:
374,123,108777,5,0,3:2:0:0:
317,179,108948,1,0,3:2:0:0:
302,54,109120,5,0,3:2:0:0:
235,194,109291,1,0,3:2:0:0:
192,4,109463,5,0,3:2:0:0:
138,188,109634,1,2,3:2:0:0:
33,81,109805,5,0,3:2:0:0:
64,63,109891,1,0,3:2:0:0:
93,61,109977,1,0,3:2:0:0:
119,71,110063,1,0,3:2:0:0:
150,85,110148,1,2,3:2:0:0:
173,103,110234,1,0,3:2:0:0:
206,105,110320,1,0,3:2:0:0:
234,86,110405,5,0,3:2:0:0:
240,96,110491,1,8,2:3:0:0:
248,105,110577,1,8,2:3:0:0:
254,114,110663,1,4,2:3:0:0:
261,124,110748,1,4,2:3:0:0:
267,135,110834,5,10,0:2:0:0:
153,325,111005,1,0,3:2:0:0:
139,215,111177,5,2,0:2:0:0:
