osu file format v14

[General]
AudioFilename: audio.mp3
AudioLeadIn: 0
PreviewTime: 65441
Countdown: 0
SampleSet: Soft
StackLeniency: 0.7
Mode: 0
LetterboxInBreaks: 0
WidescreenStoryboard: 0

[Editor]
Bookmarks: 24898,29870,45298,56270,67241,89184,111127,116613,133070
DistanceSpacing: 1.5
BeatDivisor: 4
GridSize: 8
TimelineZoom: 2.999999

[Metadata]
Title:Words (feat. Laura Brehm)
TitleUnicode:Words (feat. Laura Brehm)
Artist:Feint
ArtistUnicode:Feint
Creator:Nao Tomori
Version:Insane
Source:
Tags:monstercat edm dubstep dnb drum and bass electronic dance english instrumental peter petereu iwaifu wafer xayler
BeatmapID:2210045
BeatmapSetID:1057350

[Difficulty]
HPDrainRate:6
CircleSize:4.2
OverallDifficulty:8.3
ApproachRate:9
SliderMultiplier:1.7
SliderTickRate:1

[Events]
//Background and Video events
0,0,"ocean bg.jpg",0,0
//Break Periods
2,45548,55034
//Storyboard Layer 0 (Background)
//Storyboard Layer 1 (Fail)
//Storyboard Layer 2 (Pass)
//Storyboard Layer 3 (Foreground)
//Storyboard Layer 4 (Overlay)
//Storyboard Sound Samples

[TimingPoints]
1463,342.857142857143,4,2,1,53,1,0
1463,-175.438596491228,4,2,1,53,0,0
20663,-270.27027027027,4,2,1,53,0,0
23405,-129.87012987013,4,2,1,63,0,0
42605,-166.666666666667,4,2,1,53,0,0
55634,-166.666666666667,4,2,1,68,0,0
56320,-106.382978723404,4,2,1,68,0,0
61805,-95.2380952380952,4,2,1,73,0,0
67291,-83.3333333333333,4,2,1,78,0,1
68320,-100,4,2,1,78,0,1
68663,-83.3333333333333,4,2,1,78,0,1
71063,-100,4,2,1,78,0,1
71405,-83.3333333333333,4,2,1,78,0,1
73805,-100,4,2,1,78,0,1
74063,-83.3333333333333,4,2,1,78,0,1
79291,-100,4,2,1,78,0,1
79634,-83.3333333333333,4,2,1,78,0,1
84777,-100,4,2,1,78,0,1
85120,-83.3333333333333,4,2,1,78,0,1
87863,-83.3333333333333,4,2,1,78,0,0
88548,-100,4,2,1,78,0,0
89234,-90.9090909090909,4,2,1,78,0,1
111177,-90.9090909090909,4,2,1,33,0,0

[Colours]
Combo1 : 145,236,132
Combo2 : 239,176,99
Combo3 : 243,133,136
Combo4 : 128,196,247

[HitObjects]
51,181,777,5,2,0:2:0:0:
237,156,1120,1,2,0:2:0:0:
157,214,1377,1,0,3:2:0:0:
151,200,1463,6,0,P|140:146|161:92,1,96.8999988171387,8|0,3:1|0:2,0:2:0:0:
323,112,2148,2,0,P|334:166|313:220,1,96.8999988171387,0|0,3:2|0:2,0:2:0:0:
372,282,2834,2,0,P|459:263|486:262,1,96.8999988171387,0|0,3:2|0:2,0:2:0:0:
291,343,3520,2,0,P|204:324|177:323,1,96.8999988171387,0|0,3:2|0:2,0:2:0:0:
16,233,4205,6,0,P|61:256|156:213,1,145.349998225708,0|0,3:2|0:2,0:2:0:0:
240,236,4891,2,0,P|227:188|215:132,1,96.8999988171387,0|0,3:2|0:2,0:2:0:0:
142,0,5577,2,0,P|137:55|117:148,1,145.349998225708,0|0,3:2|0:2,0:2:0:0:
53,49,6263,1,0,3:2:0:0:
218,118,6605,1,0,0:2:0:0:
367,46,6948,6,0,B|417:56|417:56|461:41,1,96.8999988171387,8|0,3:1|0:2,0:2:0:0:
216,140,7634,2,0,B|166:130|166:130|122:145,1,96.8999988171387,0|0,3:2|0:2,0:2:0:0:
366,234,8320,2,0,P|411:222|463:212,1,96.8999988171387,0|0,3:2|0:2,0:2:0:0:
192,322,9005,2,0,P|186:275|177:222,1,96.8999988171387,0|0,3:2|0:2,0:2:0:0:
439,313,9691,6,0,P|406:340|306:313,1,145.349998225708,0|0,3:2|0:2,0:2:0:0:
391,232,10377,2,0,P|433:228|493:221,1,96.8999988171387,0|0,3:2|0:2,0:2:0:0:
410,141,11063,1,0,3:2:0:0:
310,299,11405,1,0,0:2:0:0:
153,188,11748,2,0,P|142:150|160:89,1,96.8999988171387,0|0,3:2|0:2,0:2:0:0:
367,112,12434,6,0,B|292:104|306:157|223:144,1,145.349998225708,8|0,3:1|0:2,0:2:0:0:
443,63,13120,2,0,P|448:120|453:168,1,96.8999988171387,0|0,3:2|0:2,0:2:0:0:
365,290,13805,2,0,P|369:241|374:193,1,96.8999988171387,0|0,3:2|0:2,0:2:0:0:
436,339,14491,1,0,3:2:0:0:
273,262,14834,1,0,0:2:0:0:
60,326,15177,6,0,B|81:328|103:345|103:345|145:316|201:330,1,145.349998225708,0|0,3:2|0:2,0:2:0:0:
101,150,15863,2,0,P|101:201|104:259,1,96.8999988171387,0|0,3:2|0:2,0:2:0:0:
157,80,16548,1,0,3:2:0:0:
14,184,16891,1,0,0:2:0:0:
182,246,17234,2,0,P|218:237|280:228,1,96.8999988171387,0|0,3:2|0:2,0:2:0:0:
450,170,17920,6,0,P|403:179|346:152,1,96.8999988171387,8|0,3:1|0:2,0:2:0:0:
373,14,18605,2,0,P|420:5|477:32,1,96.8999988171387,0|0,3:2|0:2,0:2:0:0:
276,75,19291,2,0,P|219:65|176:59,1,96.8999988171387,0|0,3:2|0:2,0:2:0:0:
36,160,19977,2,0,P|83:168|134:148,1,96.8999988171387,0|0,3:2|0:2,0:2:0:0:
358,208,20663,6,0,P|310:204|206:292,1,188.700004606934,0|0,3:2|0:2,0:2:0:0:
19,170,22034,2,0,P|45:184|88:275,1,125.800003071289,2|2,0:2|0:2,0:2:0:0:
51,384,23063,1,2,0:2:0:0:
163,175,23405,6,0,P|155:100|147:36,1,130.899997403412,6|0,3:2|0:2,0:2:0:0:
66,118,23920,1,0,3:2:0:0:
152,264,24091,2,0,B|187:266|217:248|217:248|247:253|277:281,1,130.899997403412,8|0,0:2|0:2,0:2:0:0:
375,175,24605,6,0,P|368:227|364:264,1,65.449998701706,10|0,0:2|0:2,0:2:0:0:
283,128,24948,1,10,0:2:0:0:
283,128,25120,2,0,P|290:76|294:39,1,65.449998701706,0|0,3:2|0:2,0:2:0:0:
186,161,25463,2,0,P|134:154|97:150,1,65.449998701706,10|0,0:2|0:2,0:2:0:0:
226,54,25805,2,0,P|278:61|315:64,1,65.449998701706,2|0,3:2|0:2,0:2:0:0:
259,226,26148,6,0,P|213:257|120:223,1,130.899997403412,10|0,0:2|0:2,0:2:0:0:
91,323,26663,1,2,3:2:0:0:
128,150,26834,1,10,0:2:0:0:
254,265,27005,2,0,P|296:262|344:252,1,65.449998701706,0|0,3:2|0:2,0:2:0:0:
466,128,27348,6,0,P|408:122|372:122,1,65.449998701706,10|0,0:2|0:2,0:2:0:0:
229,148,27691,1,10,0:2:0:0:
229,148,27863,2,0,P|287:154|323:154,1,65.449998701706,2|0,3:2|0:2,0:2:0:0:
166,70,28205,2,0,P|141:105|150:204,1,130.899997403412,8|0,0:2|3:2,0:2:0:0:
215,256,28720,1,0,3:2:0:0:
70,350,28891,6,0,P|107:334|208:367,1,130.899997403412,10|0,0:2|0:2,0:2:0:0:
361,309,29405,1,2,3:2:0:0:
285,257,29577,2,0,P|274:303|276:350,1,65.449998701706,10|0,0:2|0:2,0:2:0:0:
435,355,29920,1,0,0:2:0:0:
435,355,30091,6,0,P|446:309|444:262,1,65.449998701706,10|0,0:2|0:2,0:2:0:0:
397,203,30434,1,10,0:2:0:0:
482,129,30605,2,0,L|491:207,1,65.449998701706,0|0,3:2|3:2,0:2:0:0:
318,102,30948,2,0,P|313:153|300:242,1,130.899997403412,10|0,0:2|3:2,0:2:0:0:
255,326,31463,1,0,3:2:0:0:
22,278,31634,6,0,B|82:257|93:305|162:283,1,130.899997403412,10|0,0:2|0:2,0:2:0:0:
210,214,32148,1,2,3:2:0:0:
133,140,32320,2,0,P|123:178|128:217,2,65.449998701706,10|0|0,0:2|3:2|0:2,0:2:0:0:
255,6,32834,6,0,L|265:88,1,65.449998701706,10|0,0:2|3:2,0:2:0:0:
349,151,33177,1,10,0:2:0:0:
349,151,33348,2,0,L|356:86,1,65.449998701706,0|0,3:2|0:2,0:2:0:0:
273,203,33691,2,0,P|307:236|409:225,1,130.899997403412,10|0,0:2|3:2,0:2:0:0:
440,163,34205,1,0,3:2:0:0:
235,291,34377,6,0,P|183:295|78:311,1,130.899997403412,10|0,0:2|0:2,0:2:0:0:
25,238,34891,1,0,3:2:0:0:
94,173,35063,1,8,0:2:0:0:
17,72,35234,2,0,P|8:115|1:158,1,65.449998701706,0|0,3:2|0:2,0:2:0:0:
194,202,35577,6,0,P|189:154|184:113,1,65.449998701706,10|0,0:2|0:2,0:2:0:0:
288,236,35920,2,0,P|319:225|366:219,1,65.449998701706,10|0,0:2|3:2,0:2:0:0:
251,322,36263,1,2,3:2:0:0:
375,224,36434,2,0,P|426:234|451:232,1,65.449998701706,10|0,0:2|0:2,0:2:0:0:
187,226,36777,2,0,P|136:216|111:218,1,65.449998701706,2|0,3:2|0:2,0:2:0:0:
298,47,37120,6,0,P|290:105|282:192,1,130.899997403412,10|0,0:2|0:2,0:2:0:0:
391,67,37634,1,0,3:2:0:0:
202,101,37805,1,8,0:2:0:0:
202,101,37977,2,0,P|154:89|115:85,1,65.449998701706,0|0,3:2|0:2,0:2:0:0:
16,179,38320,6,0,P|69:174|105:164,1,65.449998701706,10|0,0:2|0:2,0:2:0:0:
70,281,38663,1,10,0:2:0:0:
70,281,38834,2,0,P|109:287|151:300,1,65.449998701706,2|0,3:2|0:2,0:2:0:0:
274,216,39177,2,0,P|213:223|188:223,1,65.449998701706,10|0,0:2|0:2,0:2:0:0:
352,311,39520,2,0,P|291:304|266:304,1,65.449998701706,0|0,3:2|0:2,0:2:0:0:
433,377,39863,6,0,P|451:335|428:249,1,130.899997403412,10|0,0:2|0:2,0:2:0:0:
492,170,40377,1,0,3:2:0:0:
287,115,40548,2,0,B|333:130|333:130|420:105,1,130.899997403412,8|0,0:2|0:2,0:2:0:0:
203,68,41063,6,0,P|191:108|202:155,1,65.449998701706,10|0,0:2|0:2,0:2:0:0:
262,265,41405,2,0,P|273:224|262:177,1,65.449998701706,10|0,0:2|3:2,0:2:0:0:
160,304,41748,1,2,0:2:0:0:
295,358,41920,2,0,P|354:347|379:342,1,65.449998701706,10|0,0:2|0:2,0:2:0:0:
139,312,42263,2,0,P|80:323|55:328,1,65.449998701706,2|0,3:2|0:2,0:2:0:0:
317,220,42605,6,0,P|375:250|464:210,1,152.999995330811,10|0,0:2|3:2,0:2:0:0:
415,67,43291,1,8,0:2:0:0:
402,58,43463,2,0,P|392:145|392:168,2,101.999996887207,0|10|8,3:2|0:2|0:2,0:2:0:0:
302,204,44320,2,0,P|312:291|312:314,1,101.999996887207,0|10,3:2|0:2,0:2:0:0:
229,363,44834,5,0,3:2:0:0:
212,356,45005,1,0,3:2:0:0:
195,352,45177,1,0,3:2:0:0:
417,278,45348,5,14,0:2:0:0:
133,260,55634,5,8,0:3:0:0:
48,232,55806,1,8,0:3:0:0:
48,143,55977,1,4,0:3:0:0:
133,115,56148,1,4,0:3:0:0:
185,187,56320,6,0,P|243:182|297:175,1,79.8999987808228,2|0,3:2|0:2,0:2:0:0:
349,224,56577,1,0,0:2:0:0:
349,224,56663,2,0,P|407:229|461:236,1,79.8999987808228,8|0,0:2|0:2,0:2:0:0:
291,293,57005,1,2,3:2:0:0:
291,293,57177,1,0,3:2:0:0:
397,149,57348,2,0,P|442:142|491:169,1,79.8999987808228,10|0,0:2|0:2,0:2:0:0:
323,31,57691,6,0,P|314:80|308:122,1,79.8999987808228,2|0,3:2|0:2,0:2:0:0:
230,230,58034,2,0,P|223:190|216:151,1,79.8999987808228,10|0,0:2|0:2,0:2:0:0:
147,53,58377,1,2,3:2:0:0:
77,129,58548,1,0,3:2:0:0:
77,129,58634,1,0,3:2:0:0:
77,129,58720,2,0,P|37:122|0:110,1,79.8999987808228,8|0,0:2|0:2,0:2:0:0:
229,229,59063,6,0,P|150:234|72:251,1,159.799997561646,2|8,3:2|0:2,0:2:0:0:
219,331,59577,2,0,P|275:339|317:338,1,79.8999987808228,2|0,0:2|3:2,0:2:0:0:
474,288,59920,1,0,3:2:0:0:
383,193,60091,2,0,P|376:245|373:283,1,79.8999987808228,10|0,0:2|0:2,0:2:0:0:
472,181,60348,1,0,0:2:0:0:
472,181,60434,6,0,P|479:129|482:91,1,79.8999987808228,2|0,3:2|3:2,0:2:0:0:
336,1,60777,2,0,P|329:53|326:91,1,79.8999987808228,8|0,0:2|0:2,0:2:0:0:
208,196,61120,1,0,3:2:0:0:
120,145,61291,1,0,3:2:0:0:
4,251,61463,2,0,P|1:300|-1:342,1,79.8999987808228,10|0,0:2|0:2,0:2:0:0:
118,129,61805,6,0,P|115:89|110:27,1,89.2499972763062,0|0,3:2|3:2,0:2:0:0:
81,209,62148,1,8,0:2:0:0:
206,97,62320,1,0,3:2:0:0:
14,48,62491,1,0,3:2:0:0:
170,217,62663,1,0,3:2:0:0:
221,3,62834,1,8,0:2:0:0:
360,178,63005,1,8,0:2:0:0:
360,178,63091,1,8,0:2:0:0:
360,178,63177,6,0,P|413:165|459:157,1,89.2499972763062,2|0,3:2|3:2,0:2:0:0:
312,83,63520,1,8,0:2:0:0:
380,276,63691,1,0,3:2:0:0:
416,68,63863,1,0,3:2:0:0:
276,202,64034,1,0,3:2:0:0:
276,202,64205,2,0,P|215:195|168:192,1,89.2499972763062,8|0,0:2|0:2,0:2:0:0:
0,55,64548,5,0,3:2:0:0:
24,38,64633,1,0,3:2:0:0:
53,32,64719,1,0,3:2:0:0:
82,36,64805,1,0,3:2:0:0:
108,51,64890,1,8,2:2:0:0:
127,74,64976,1,0,3:2:0:0:
136,102,65063,2,0,L|83:120,1,44.6249986381531,0|0,3:2|3:2,0:2:0:0:
25,219,65234,5,0,3:2:0:0:
13,246,65319,1,0,3:2:0:0:
13,275,65405,1,0,3:2:0:0:
23,303,65491,1,0,3:2:0:0:
44,324,65577,2,0,L|104:310,1,44.6249986381531,8|8,0:2|0:2,0:2:0:0:
198,353,65748,2,0,L|257:338,1,44.6249986381531,0|0,3:2|3:2,0:2:0:0:
338,245,65920,5,8,0:2:0:0:
379,230,66005,1,8,0:2:0:0:
422,239,66091,1,8,0:2:0:0:
453,271,66177,1,8,0:2:0:0:
462,314,66263,5,8,0:3:0:0:
429,269,66348,1,8,0:3:0:0:
416,215,66434,1,8,0:3:0:0:
423,160,66520,1,8,0:3:0:0:
450,112,66605,6,0,P|479:100|515:92,1,44.6249986381531,4|0,0:3|0:2,0:2:0:0:
316,35,66777,2,0,P|344:47|380:55,1,44.6249986381531,4|0,0:3|0:2,0:2:0:0:
182,108,66948,2,0,P|210:95|246:87,1,44.6249986381531,4|0,0:3|0:2,0:2:0:0:
75,108,67120,2,0,P|53:101|33:91,1,44.6249986381531,4|0,0:3|0:2,0:2:0:0:
59,306,67291,6,0,B|81:327|113:332|113:332|165:259|115:160,1,203.999993774414,6|8,3:2|0:2,0:2:0:0:
237,335,67805,2,0,P|318:303|394:337,1,152.999995330811,2|0,0:2|2:2,0:2:0:0:
377,322,68148,1,0,3:0:0:0:
438,167,68320,2,0,P|422:201|423:270,1,85,10|0,0:2|0:2,0:2:0:0:
447,67,68663,6,0,B|384:76|384:76|351:113|351:113|239:133,1,203.999993774414,2|8,3:2|0:2,0:2:0:0:
119,26,69177,1,2,0:2:0:0:
134,25,69263,1,2,0:2:0:0:
147,20,69348,2,0,B|162:68|162:68|146:143,1,101.999996887207,2|0,3:2|3:2,0:2:0:0:
55,283,69691,2,0,L|37:172,1,101.999996887207,10|0,0:2|0:2,0:2:0:0:
0,341,70034,6,0,B|71:310|71:310|177:330,1,152.999995330811,2|0,3:2|2:2,0:2:0:0:
145,324,70377,1,8,0:0:0:0:
330,189,70548,2,0,B|339:147|292:134|254:215|277:287|335:337,1,203.999993774414,2|0,0:2|3:2,0:2:0:0:
496,278,71063,2,0,P|434:264|378:282,1,85,10|0,0:2|0:2,0:2:0:0:
47,204,71405,6,0,P|115:224|204:175,1,152.999995330811,2|0,3:2|0:2,0:2:0:0:
188,193,71748,1,8,0:2:0:0:
124,28,71920,2,0,B|103:74|103:74|116:147,1,101.999996887207,2|0,0:2|0:2,0:2:0:0:
173,316,72263,1,2,3:2:0:0:
270,267,72434,2,0,B|323:259|323:259|399:280,1,101.999996887207,10|0,0:2|0:2,0:2:0:0:
491,106,72777,6,0,P|438:133|304:50,1,203.999993774414,2|8,3:2|0:2,0:2:0:0:
47,157,73291,2,0,B|148:190|136:116|259:150,1,203.999993774414,2|0,0:2|3:2,0:2:0:0:
100,0,73805,2,0,P|85:42|94:84,1,85,10|0,0:2|0:2,0:2:0:0:
196,330,74148,6,0,P|194:264|191:193,1,101.999996887207,2|0,3:2|0:2,0:2:0:0:
291,115,74491,1,10,0:2:0:0:
412,174,74663,1,2,0:2:0:0:
412,174,74748,1,2,0:2:0:0:
412,174,74834,2,0,P|480:171|548:170,1,101.999996887207,2|0,3:2|3:2,0:2:0:0:
323,262,75177,1,10,0:2:0:0:
399,53,75348,1,2,0:2:0:0:
312,268,75520,6,0,B|278:265|257:250|257:250|191:328|99:286,1,203.999993774414,2|8,3:2|0:2,0:2:0:0:
177,95,76034,2,0,L|165:227,1,101.999996887207,2|0,3:2|2:2,0:2:0:0:
233,15,76377,1,2,3:2:0:0:
102,35,76548,1,10,0:2:0:0:
261,150,76720,1,8,0:2:0:0:
261,150,76805,1,8,0:2:0:0:
261,150,76891,6,0,B|312:141|312:141|397:169,1,101.999996887207,2|0,3:2|3:2,0:2:0:0:
148,219,77234,2,0,B|97:228|97:228|12:200,1,101.999996887207,10|0,0:2|0:2,0:2:0:0:
104,134,77577,1,0,3:2:0:0:
233,323,77748,1,0,3:2:0:0:
277,309,77834,1,0,3:2:0:0:
320,295,77920,1,10,0:2:0:0:
419,345,78091,1,0,3:2:0:0:
477,121,78263,6,0,B|465:101|431:96|431:96|374:181|458:272,1,203.999993774414,6|8,3:2|0:2,0:2:0:0:
153,175,78777,2,0,B|205:158|205:158|250:201|318:188,1,152.999995330811,2|0,0:2|0:2,0:2:0:0:
294,190,79120,1,2,3:2:0:0:
76,130,79291,2,0,B|60:169|60:169|77:235,1,85,10|0,0:2|0:2,0:2:0:0:
286,97,79634,6,0,L|267:-25,1,101.999996887207,2|0,3:2|0:2,0:2:0:0:
232,301,79977,2,0,L|251:179,1,101.999996887207,10|0,0:2|0:2,0:2:0:0:
144,363,80320,1,2,0:2:0:0:
333,283,80491,1,2,3:2:0:0:
168,159,80663,1,10,0:2:0:0:
232,301,80834,1,2,0:2:0:0:
346,144,81005,6,0,B|429:130|406:192|500:178,1,152.999995330811,2|0,3:2|0:2,0:2:0:0:
489,179,81348,1,8,0:2:0:0:
273,85,81520,1,2,0:2:0:0:
273,85,81605,1,2,0:2:0:0:
273,85,81691,2,0,P|252:139|273:212,1,101.999996887207,2|0,0:2|3:2,0:2:0:0:
110,285,82034,2,0,P|48:251|-5:248,1,101.999996887207,10|0,0:2|0:2,0:2:0:0:
119,143,82377,5,2,3:2:0:0:
33,347,82548,1,2,0:2:0:0:
118,121,82720,1,10,0:2:0:0:
270,308,82891,1,2,0:2:0:0:
268,190,83063,5,2,3:2:0:0:
171,359,83234,1,0,3:2:0:0:
396,318,83405,2,0,B|369:312|352:299|352:299|322:302|267:319,1,101.999996887207,10|0,0:2|0:2,0:2:0:0:
51,246,83748,6,0,B|109:251|109:251|149:217|149:217|278:228,1,203.999993774414,2|8,3:2|0:2,0:2:0:0:
73,11,84263,2,0,B|46:63|46:63|75:194,1,152.999995330811,2|0,0:2|0:2,0:2:0:0:
66,155,84605,1,2,3:2:0:0:
286,132,84777,2,0,P|235:125|174:147,1,85,10|0,0:2|0:2,0:2:0:0:
311,292,85120,6,0,P|369:328|498:291,1,203.999993774414,2|8,3:2|0:2,0:2:0:0:
422,83,85634,1,2,0:2:0:0:
406,207,85805,2,0,P|476:193|530:180,1,101.999996887207,2|0,3:2|3:2,0:2:0:0:
312,126,86148,2,0,P|242:140|188:153,1,101.999996887207,10|2,0:2|0:2,0:2:0:0:
122,146,86405,1,2,0:2:0:0:
122,146,86491,6,0,B|113:199|113:199|144:259,1,101.999996887207,2|0,3:2|3:2,0:2:0:0:
312,126,86834,2,0,B|320:17,1,101.999996887207,8|0,0:2|3:2,0:2:0:0:
378,254,87177,5,0,3:2:0:0:
511,225,87348,1,0,3:2:0:0:
480,344,87520,1,8,0:2:0:0:
415,129,87691,1,0,3:2:0:0:
133,269,87863,5,8,0:3:0:0:
157,274,87948,1,8,0:3:0:0:
183,276,88034,1,8,0:3:0:0:
208,273,88120,1,8,0:3:0:0:
232,264,88205,1,4,0:3:0:0:
256,255,88291,1,4,0:3:0:0:
281,253,88377,1,4,0:3:0:0:
307,255,88463,1,4,0:3:0:0:
332,261,88548,6,0,L|322:335,1,42.5,2|0,3:2|3:2,0:2:0:0:
183,172,88720,1,0,3:2:0:0:
186,146,88805,1,0,3:2:0:0:
189,121,88891,1,8,0:2:0:0:
29,230,89063,1,0,3:2:0:0:
33,41,89234,5,6,3:2:0:0:
195,153,89405,2,0,P|242:128|304:132,1,93.5000028533936,2|8,0:2|0:2,0:2:0:0:
136,256,89748,1,2,0:2:0:0:
281,126,89920,2,0,P|327:130|370:114,1,93.5000028533936,2|0,0:2|3:2,0:2:0:0:
405,31,90177,1,0,3:2:0:0:
405,31,90263,2,0,P|378:68|369:114,1,93.5000028533936,8|0,0:2|0:2,0:2:0:0:
389,285,90605,5,2,3:2:0:0:
424,186,90777,2,0,P|404:143|369:113,1,93.5000028533936,2|8,0:2|0:2,0:2:0:0:
476,87,91120,1,2,0:2:0:0:
323,198,91291,2,0,P|243:193|197:189,1,93.5000028533936,2|0,0:2|3:2,0:2:0:0:
389,285,91548,1,0,3:2:0:0:
389,285,91634,2,0,P|435:281|482:278,1,93.5000028533936,8|0,0:2|0:2,0:2:0:0:
240,377,91977,5,2,3:2:0:0:
153,323,92148,2,0,P|99:326|50:361,1,93.5000028533936,2|8,0:2|0:2,0:2:0:0:
178,214,92491,1,2,0:2:0:0:
153,323,92663,2,0,P|111:344|65:344,1,93.5000028533936,2|0,0:2|3:2,0:2:0:0:
243,384,93005,1,8,0:2:0:0:
178,214,93177,6,0,P|216:239|240:278,1,93.5000028533936,2|0,0:2|3:2,0:2:0:0:
106,139,93520,2,0,P|108:92|130:52,1,93.5000028533936,2|8,0:2|0:2,0:2:0:0:
225,9,93863,1,2,0:2:0:0:
362,168,94034,2,0,P|423:171|471:149,1,93.5000028533936,2|0,0:2|3:2,0:2:0:0:
289,110,94291,1,0,3:2:0:0:
289,110,94377,2,0,P|228:107|180:129,1,93.5000028533936,10|0,0:2|0:2,0:2:0:0:
64,291,94720,5,2,3:2:0:0:
154,333,94891,2,0,P|157:267|125:206,1,93.5000028533936,2|8,0:2|0:2,0:2:0:0:
64,291,95234,1,2,0:2:0:0:
250,357,95405,2,0,P|315:347|375:341,1,93.5000028533936,2|0,0:2|3:2,0:2:0:0:
483,369,95748,1,8,0:2:0:0:
443,187,95920,6,0,P|426:230|431:276,1,93.5000028533936,2|0,0:2|3:2,0:2:0:0:
512,117,96263,1,2,0:2:0:0:
340,188,96434,2,0,P|256:182|206:176,1,93.5000028533936,10|0,0:2|0:2,0:2:0:0:
32,147,96777,1,2,0:2:0:0:
206,67,96948,1,2,3:2:0:0:
176,264,97120,1,8,0:2:0:0:
135,167,97291,1,2,0:2:0:0:
93,355,97463,5,2,3:2:0:0:
285,257,97634,2,0,P|338:247|399:265,1,93.5000028533936,2|8,0:2|0:2,0:2:0:0:
224,170,97977,1,2,0:2:0:0:
376,254,98148,2,0,P|421:261|467:251,1,93.5000028533936,2|0,0:2|3:2,0:2:0:0:
335,49,98491,1,8,0:2:0:0:
335,49,98663,6,0,L|323:176,1,93.5000028533936,2|0,2:2|3:2,0:2:0:0:
203,361,99005,1,2,0:2:0:0:
203,361,99177,2,0,L|212:268,1,93.5000028533936,10|0,0:2|0:2,0:2:0:0:
138,81,99520,1,8,0:3:0:0:
15,218,99691,1,0,3:2:0:0:
57,209,99777,1,0,3:2:0:0:
104,198,99863,1,8,0:2:0:0:
212,268,100034,1,0,3:2:0:0:
443,174,100205,5,6,3:2:0:0:
352,117,100377,2,0,P|337:170|344:223,1,93.5000028533936,2|8,0:2|0:2,0:2:0:0:
432,50,100720,1,2,0:2:0:0:
227,124,100891,1,2,0:2:0:0:
386,288,101063,2,0,B|434:279|434:279|500:301,1,93.5000028533936,0|8,3:2|0:2,0:2:0:0:
180,310,101405,6,0,P|237:322|293:306,1,93.5000028533936,2|0,0:2|3:2,0:2:0:0:
89,305,101748,2,0,P|135:299|180:310,1,93.5000028533936,2|8,0:2|0:2,0:2:0:0:
105,111,102091,1,2,0:2:0:0:
105,111,102177,1,2,0:2:0:0:
105,111,102263,2,0,P|100:166|100:221,1,93.5000028533936,2|0,0:2|3:2,0:2:0:0:
271,315,102605,2,0,P|276:260|276:205,1,93.5000028533936,8|0,0:2|0:2,0:2:0:0:
255,66,102948,5,2,3:2:0:0:
380,148,103120,2,0,B|428:159|428:159|471:151,1,93.5000028533936,2|8,0:2|0:2,0:2:0:0:
276,221,103463,1,2,0:2:0:0:
387,264,103634,2,0,L|398:356,1,93.5000028533936,2|0,0:2|3:2,0:2:0:0:
384,151,103891,1,0,3:2:0:0:
384,151,103977,2,0,L|373:59,1,93.5000028533936,8|0,0:2|0:2,0:2:0:0:
302,236,104320,6,0,B|343:238|369:248|369:248|427:210|506:239,1,187.000005706787,2|8,3:2|0:2,0:2:0:0:
354,107,104834,1,2,0:2:0:0:
354,107,104920,1,2,0:2:0:0:
354,107,105005,2,0,B|310:99|310:99|264:112,1,93.5000028533936,2|0,0:2|3:2,0:2:0:0:
37,227,105348,2,0,B|92:225|92:225|118:241|118:241|203:238,1,140.25000428009,10|0,0:2|2:2,0:2:0:0:
69,309,105691,6,0,P|17:318|-20:298,1,93.5000028533936,2|0,3:2|2:0,0:0:0:0:
165,160,106034,1,8,0:2:0:0:
265,309,106205,1,2,2:2:0:0:
417,198,106377,2,0,L|414:104,1,93.5000028533936,2|0,2:2|3:2,0:2:0:0:
471,295,106720,2,0,P|425:305|379:298,1,93.5000028533936,8|0,0:2|0:2,0:2:0:0:
188,158,107063,5,2,3:2:0:0:
114,225,107234,2,0,P|65:218|-3:218,1,93.5000028533936,2|8,0:2|0:2,0:2:0:0:
173,305,107577,1,2,0:2:0:0:
259,240,107748,2,0,P|331:235|384:229,1,93.5000028533936,2|0,0:2|3:2,0:2:0:0:
163,317,108005,1,0,3:2:0:0:
163,317,108091,2,0,P|91:312|38:306,1,93.5000028533936,8|0,0:2|0:2,0:2:0:0:
250,157,108434,5,2,3:2:0:0:
291,353,108605,1,0,3:2:0:0:
438,155,108777,1,0,3:2:0:0:
479,351,108948,1,0,3:2:0:0:
200,259,109120,5,0,3:2:0:0:
390,274,109291,1,0,3:2:0:0:
312,87,109463,1,0,3:2:0:0:
289,318,109634,1,2,3:2:0:0:
447,185,109805,5,0,3:2:0:0:
464,158,109890,1,0,3:2:0:0:
472,128,109976,1,0,3:2:0:0:
471,97,110062,1,0,3:2:0:0:
461,68,110147,1,2,3:2:0:0:
443,43,110233,1,0,3:2:0:0:
418,24,110320,2,0,P|407:44|400:66,1,46.7500014266968,0|0,3:2|3:2,0:2:0:0:
223,246,110491,5,8,2:3:0:0:
180,266,110576,1,8,2:3:0:0:
134,264,110662,1,4,2:3:0:0:
93,242,110748,1,4,2:3:0:0:
73,204,110833,1,10,0:2:0:0:
190,52,111005,1,0,3:2:0:0:
139,369,111177,5,2,0:2:0:0:
