osu file format v14

[General]
AudioFilename: audio.mp3
AudioLeadIn: 0
PreviewTime: 65776
Countdown: 0
SampleSet: Soft
StackLeniency: 0.4
Mode: 0
LetterboxInBreaks: 0
WidescreenStoryboard: 0

[Editor]
DistanceSpacing: 1.4
BeatDivisor: 4
GridSize: 8
TimelineZoom: 2.2

[Metadata]
Title:We Won't Be Alone (feat. Laura Brehm) (Cut Ver.)
TitleUnicode:We Won't Be Alone (feat. Laura Brehm) (Cut Ver.)
Artist:Feint
ArtistUnicode:Feint
Creator:Kuki1537
Version:Hard
Source:
Tags:dnb monstercat edm drum and bass wont MCS375 electronic english n dance music d&b featured artist fa female vocal vocalist ft. enuhq majk00 d'n'b short version
BeatmapID:4024380
BeatmapSetID:1940162

[Difficulty]
HPDrainRate:4
CircleSize:3.6
OverallDifficulty:6
ApproachRate:7.5
SliderMultiplier:1.5
SliderTickRate:1

[Events]
//Background and Video events
0,0,"laternnnnn.jpg",0,0
//Break Periods
2,114062,121265
//Storyboard Layer 0 (Background)
//Storyboard Layer 1 (Fail)
//Storyboard Layer 2 (Pass)
//Storyboard Layer 3 (Foreground)
//Storyboard Layer 4 (Overlay)
//Storyboard Sound Samples

[TimingPoints]
1405,342.857142857143,4,2,22,30,1,0
23347,-142.857142857143,4,2,22,40,0,0
26005,-142.857142857143,4,2,22,5,0,0
26090,-142.857142857143,4,2,22,40,0,0
41433,-142.857142857143,4,2,22,5,0,0
41519,-142.857142857143,4,2,22,40,0,0
56262,-111.111111111111,4,2,22,75,0,0
65862,-111.111111111111,4,2,22,65,0,0
67233,-100,4,2,22,90,0,0
76833,-100,4,2,22,80,0,0
78205,-100,4,2,22,90,0,0
89176,-100,4,2,22,55,0,0
90033,-100,4,2,22,80,0,0
90547,-105.263157894737,4,2,22,80,0,0
98776,-105.263157894737,4,2,22,70,0,0
100147,-105.263157894737,4,2,22,80,0,0
111119,-105.263157894737,4,2,22,35,0,0
122090,-142.857142857143,4,2,22,35,0,0
124490,-250.000000000001,4,2,22,35,0,0
126890,-142.857142857143,4,2,22,35,0,0
129976,-285.714285714284,4,2,22,35,0,0
133062,-142.857142857143,4,2,22,35,0,0
135462,-250,4,2,22,35,0,0
139919,-142.857142857143,4,2,22,35,0,0
144033,-142.857142857143,4,2,22,5,0,0

[Colours]
Combo1 : 151,169,255
Combo2 : 255,170,249
Combo3 : 208,151,255
Combo4 : 172,151,255

[HitObjects]
119,183,23347,6,0,L|89:78,1,104.999996795654,0|8,1:2|0:3,0:2:0:0:
146,26,23862,1,2,0:2:0:0:
146,26,24033,2,0,P|177:50|249:51,1,104.999996795654,2|10,0:2|0:3,0:2:0:0:
308,12,24547,2,0,L|369:-4,1,52.4999983978272,2|0,0:2|1:2,0:2:0:0:
424,42,24890,2,0,L|400:148,1,104.999996795654,2|0,0:2|0:2,0:2:0:0:
340,196,25405,1,2,0:2:0:0:
457,300,25747,1,10,0:3:0:0:
317,372,26090,6,0,L|191:345,2,104.999996795654,2|8|0,1:2|0:3|0:2,0:2:0:0:
384,328,26947,1,0,1:2:0:0:
384,328,27119,2,0,L|360:222,1,104.999996795654,10|0,0:3|0:2,0:2:0:0:
309,173,27633,1,0,1:2:0:0:
309,173,27805,2,0,L|332:70,1,104.999996795654,10|0,0:3|0:2,0:2:0:0:
387,13,28319,2,0,L|444:-1,2,52.4999983978272,0|10|2,1:2|0:3|0:2,0:0:0:0:
316,84,28833,6,0,P|265:87|209:45,1,104.999996795654,0|8,1:2|0:3,0:2:0:0:
150,92,29347,1,2,0:2:0:0:
150,92,29519,2,0,L|123:207,1,104.999996795654,2|10,0:2|0:3,0:2:0:0:
57,234,30033,1,2,0:2:0:0:
104,297,30205,2,0,B|159:289|151:324|209:318,1,104.999996795654,0|8,1:2|0:3,0:2:0:0:
274,365,30719,1,2,0:2:0:0:
274,365,30890,2,0,L|288:305,1,52.4999983978272,2|0,0:2|1:2,0:2:0:0:
354,274,31233,2,0,L|340:214,1,52.4999983978272,10|2,0:3|0:2,0:0:0:0:
325,145,31576,5,0,1:2:0:0:
400,6,31919,2,0,P|444:1|506:41,1,104.999996795654,8|0,0:3|0:2,0:0:0:0:
512,111,32433,1,0,1:2:0:0:
512,111,32605,2,0,L|489:216,1,104.999996795654,10|0,0:3|0:2,0:2:0:0:
475,294,33119,1,0,1:2:0:0:
475,294,33290,2,0,L|368:317,1,104.999996795654,10|0,0:3|0:2,0:2:0:0:
294,330,33805,2,0,L|281:388,2,52.4999983978272,0|10|2,1:2|0:3|0:2,0:0:0:0:
247,241,34319,6,0,B|259:174|268:219|279:139,1,104.999996795654,0|10,1:2|0:3,0:2:0:0:
331,83,34833,1,2,0:2:0:0:
331,83,35005,2,0,P|303:65|278:64,1,52.4999983978272,2|0,0:2|1:2,0:2:0:0:
226,10,35347,2,0,P|200:14|179:29,1,52.4999983978272,10|0,0:3|0:2,0:2:0:0:
104,55,35690,2,0,L|131:171,1,104.999996795654,2|10,1:2|0:3,0:2:0:0:
55,189,36205,2,0,L|31:291,1,104.999996795654,2|0,0:2|1:2,0:2:0:0:
12,368,36719,1,10,0:3:0:0:
154,300,37062,5,0,1:2:0:0:
289,380,37405,2,0,P|308:350|307:272,1,104.999996795654,10|0,0:3|0:2,0:2:0:0:
251,238,37919,1,0,1:2:0:0:
251,238,38090,2,0,L|227:131,1,104.999996795654,10|0,0:3|0:2,0:2:0:0:
250,62,38605,1,0,1:2:0:0:
250,62,38776,2,0,P|213:45|182:44,1,52.4999983978272,10|0,0:3|0:2,0:2:0:0:
135,0,39119,2,0,P|82:1|22:43,1,104.999996795654,2|10,0:2|0:3,0:0:0:0:
0,94,39633,1,2,0:2:0:0:
83,148,39805,6,0,L|99:215,1,52.4999983978272,2|2,1:2|0:2,0:2:0:0:
151,253,40147,2,0,L|218:269,1,52.4999983978272,10|0,0:3|0:2,0:2:0:0:
266,219,40490,2,0,P|295:195|371:192,1,104.999996795654,2|10,0:2|0:3,0:0:0:0:
442,179,41005,1,0,0:2:0:0:
442,179,41176,2,0,L|429:236,1,52.4999983978272,2|2,1:2|0:0,0:2:0:0:
485,286,41519,2,0,L|498:343,1,52.4999983978272,10|0,0:3|0:2,0:2:0:0:
428,376,41862,2,0,P|399:364|363:359,1,52.4999983978272,2|0,0:2|1:2,0:2:0:0:
322,304,42205,2,0,P|288:331|207:329,2,104.999996795654,10|0|8,0:3|1:2|0:3,0:2:0:0:
378,156,43233,6,0,L|365:100,1,52.4999983978272,2|0,0:2|1:2,0:0:0:0:
400,33,43576,2,0,L|280:8,1,104.999996795654,10|0,0:3|0:2,0:2:0:0:
235,60,44090,1,0,1:2:0:0:
235,60,44262,2,0,P|198:89|119:89,1,104.999996795654,10|2,0:3|0:2,0:2:0:0:
77,50,44776,2,0,L|63:-5,2,52.4999983978272,0|10|2,1:2|0:3|0:2,0:0:0:0:
14,128,45290,6,0,P|-7:175|-1:226,1,104.999996795654,6|0,1:2|0:0,0:2:0:0:
94,324,45976,2,0,L|198:297,1,104.999996795654,2|0,0:2|0:0,0:2:0:0:
301,210,46662,2,0,B|382:192|369:255|450:239,1,157.499995193482,2|0,0:2|0:2,0:2:0:0:
500,211,47347,1,2,0:2:0:0:
401,116,47690,6,0,L|378:13,2,104.999996795654,2|0|2,0:2|0:2|0:2,0:2:0:0:
301,210,48719,2,0,P|277:201|242:203,1,52.4999983978272,2|2,0:2|0:2,0:2:0:0:
184,245,49062,2,0,P|159:265|77:266,1,104.999996795654,2|0,0:2|0:2,0:2:0:0:
1,165,49747,1,2,0:2:0:0:
98,68,50090,2,0,L|151:54,2,52.4999983978272,2|2|2,0:2|0:2|0:2,0:2:0:0:
35,19,50605,6,0,P|71:52|79:177,1,157.499995193482,2|2,0:2|0:2,0:2:0:0:
4,263,51462,1,2,0:2:0:0:
101,358,51805,1,2,0:2:0:0:
218,289,52147,6,0,P|300:288|369:343,2,157.499995193482,2|2|2,0:2|0:2|0:2,0:2:0:0:
121,191,53519,1,0,0:2:0:0:
4,263,53862,1,2,0:2:0:0:
101,358,54205,2,0,L|114:303,1,52.4999983978272,2|2,0:2|0:2,0:2:0:0:
164,247,54547,2,0,L|140:137,1,104.999996795654,2|0,0:2|0:2,0:2:0:0:
111,10,55233,1,2,0:2:0:0:
237,61,55576,2,0,L|249:112,1,52.4999983978272,2|2,0:2|0:2,0:2:0:0:
312,159,55919,2,0,L|299:210,1,52.4999983978272,2|2,0:2|0:2,0:2:0:0:
231,284,56262,6,0,P|277:265|360:269,1,134.999995880127,6|0,1:2|1:2,0:2:0:0:
422,339,56776,1,0,0:2:0:0:
422,339,56947,2,0,P|444:309|447:276,1,67.4999979400635,2|0,1:2|0:2,0:2:0:0:
508,215,57290,2,0,P|503:181|482:155,1,67.4999979400635,0|0,1:2|0:2,0:2:0:0:
488,54,57633,6,0,L|351:89,1,134.999995880127,2|0,1:2|1:2,0:0:0:0:
271,65,58147,2,0,L|286:-5,1,67.4999979400635,2|0,0:2|1:2,0:2:0:0:
181,68,58490,1,0,0:2:0:0:
181,68,58662,2,0,L|195:134,1,67.4999979400635,2|0,1:2|0:2,0:2:0:0:
277,165,59005,5,0,1:2:0:0:
276,254,59176,1,0,0:2:0:0:
191,275,59347,2,0,P|155:259|120:259,1,67.4999979400635,0|0,1:2|0:2,0:2:0:0:
52,304,59690,2,0,L|34:230,1,67.4999979400635,0|0,1:2|0:2,0:0:0:0:
101,179,60033,2,0,L|119:105,1,67.4999979400635,0|0,1:2|0:2,0:0:0:0:
64,32,60376,5,2,1:2:0:0:
64,32,60547,2,0,L|-4:50,2,67.4999979400635,2|0|0,0:2|1:2|0:2,0:2:0:0:
116,113,61062,1,2,1:2:0:0:
116,113,61233,2,0,L|184:131,2,67.4999979400635,2|0|0,0:2|1:2|0:2,0:2:0:0:
34,173,61747,6,0,L|54:262,1,67.4999979400635,2|2,1:2|1:2,0:0:0:0:
0,320,62090,2,0,L|65:334,1,67.4999979400635,0|0,1:2|1:2,0:0:0:0:
153,382,62433,1,2,1:2:0:0:
153,382,62605,1,2,1:2:0:0:
209,306,62776,2,0,P|198:266|178:235,1,67.4999979400635,0|0,1:2|1:2,0:0:0:0:
302,345,63119,5,2,1:2:0:0:
302,345,63290,2,0,P|340:310|427:309,1,134.999995880127,2|0,1:2|1:2,0:0:0:0:
495,247,63805,2,0,L|477:174,1,67.4999979400635,2|0,1:2|1:2,0:0:0:0:
412,114,64147,2,0,L|430:41,1,67.4999979400635,2|0,1:2|1:2,0:0:0:0:
329,140,64490,6,0,L|290:150,3,33.7499989700318,0|0|0|0,1:2|1:2|1:2|1:2,0:0:0:0:
262,181,64833,2,0,L|223:171,3,33.7499989700318,0|0|0|0,1:2|1:2|1:2|1:2,0:0:0:0:
191,143,65176,2,0,L|152:153,3,33.7499989700318,0|0|0|0,1:2|1:2|1:2|1:2,0:0:0:0:
123,183,65519,1,0,1:2:0:0:
5,131,65862,6,0,L|21:65,1,67.4999979400635,4|4,0:3|0:1,0:0:0:0:
92,12,66205,2,0,L|157:27,1,67.4999979400635,4|4,0:3|0:1,0:0:0:0:
227,80,66547,2,0,L|292:64,1,67.4999979400635,4|4,0:3|0:1,0:0:0:0:
353,0,66890,1,0,0:2:0:0:
246,168,67233,6,0,L|275:296,1,112.5,6|0,1:2|0:2,0:2:0:0:
286,324,67576,2,0,L|358:341,1,75,10|0,0:2|0:2,0:2:0:0:
451,372,67919,1,2,0:2:0:0:
509,294,68090,1,2,1:2:0:0:
468,204,68262,2,0,P|469:163|497:128,1,75,10|0,0:2|0:2,0:2:0:0:
426,21,68605,5,2,1:2:0:0:
426,21,68776,2,0,P|425:62|397:97,2,75,2|10|2,0:2|0:2|3:2,0:0:0:0:
329,37,69290,2,0,L|248:54,1,75,2|2,3:2|1:2,0:0:0:0:
204,135,69633,1,10,0:2:0:0:
283,200,69805,1,2,0:2:0:0:
283,200,69976,1,2,1:2:0:0:
180,366,70319,6,0,L|98:350,1,75,10|0,0:2|0:2,0:2:0:0:
22,301,70662,1,2,0:2:0:0:
92,234,70833,1,2,1:2:0:0:
38,152,71005,2,0,P|16:117|20:78,1,75,10|0,0:2|0:2,0:2:0:0:
104,2,71347,6,0,L|220:26,1,112.5,0|0,1:2|0:0,0:2:0:0:
261,36,71690,2,0,L|277:112,1,75,10|0,0:2|3:2,0:2:0:0:
210,181,72033,1,2,3:2:0:0:
210,181,72205,1,2,1:2:0:0:
201,277,72376,1,10,0:2:0:0:
293,307,72547,1,2,0:2:0:0:
364,210,72719,6,0,P|403:183|477:182,1,112.5,0|0,1:2|0:2,0:2:0:0:
506,150,73062,2,0,L|489:76,1,75,10|0,0:2|0:2,0:2:0:0:
421,5,73405,1,2,0:2:0:0:
349,71,73576,1,2,1:2:0:0:
258,35,73747,2,0,P|212:35|176:58,1,75,10|0,0:2|0:2,0:2:0:0:
75,107,74090,5,2,1:2:0:0:
75,107,74262,2,0,L|57:32,2,75,2|10|2,0:2|0:2|3:2,0:0:0:0:
33,195,74776,2,0,P|72:202|109:226,1,75,2|2,3:2|1:2,0:0:0:0:
192,257,75119,1,10,0:2:0:0:
263,190,75290,1,2,0:2:0:0:
263,190,75462,1,2,1:2:0:0:
451,138,75805,6,0,L|470:222,1,75,10|0,0:2|0:2,0:2:0:0:
509,298,76147,1,2,0:2:0:0:
439,367,76319,1,2,1:2:0:0:
351,323,76490,2,0,P|308:322|269:347,1,75,10|0,0:2|0:2,0:2:0:0:
190,370,76833,6,0,P|152:342|46:337,2,150,0|2|2,1:2|1:2|1:2,0:2:0:0:
280,336,77690,1,2,1:2:0:0:
280,336,77776,1,0,1:2:0:0:
280,336,77862,1,10,0:2:0:0:
236,249,78033,1,2,1:2:0:0:
343,194,78205,6,0,P|372:133|354:75,1,112.5,6|0,1:2|0:2,0:2:0:0:
333,52,78547,2,0,L|248:72,1,75,10|0,0:2|0:2,0:2:0:0:
193,140,78890,1,2,0:2:0:0:
98,105,79062,1,2,1:2:0:0:
29,173,79233,2,0,L|48:245,1,75,10|0,0:2|0:2,0:2:0:0:
85,364,79576,5,2,1:2:0:0:
85,364,79747,2,0,L|3:344,2,75,2|10|2,0:2|0:2|3:2,0:0:0:0:
160,301,80262,2,0,P|199:279|239:278,1,75,2|2,3:2|1:2,0:0:0:0:
313,325,80605,1,10,0:2:0:0:
374,249,80776,1,2,0:2:0:0:
374,249,80947,1,2,1:2:0:0:
231,116,81290,6,0,B|218:72|218:72|258:27|317:46,1,150,10|2,0:2|0:2,0:2:0:0:
405,6,81805,1,2,1:2:0:0:
405,6,81976,2,0,L|425:100,1,75,10|0,0:2|0:2,0:2:0:0:
512,156,82319,6,0,L|486:279,1,112.5,0|0,1:2|0:0,0:2:0:0:
476,313,82662,2,0,P|426:319|387:344,1,75,10|0,0:2|3:2,0:2:0:0:
323,381,83005,1,2,3:2:0:0:
323,381,83176,1,2,1:2:0:0:
254,312,83347,1,10,0:2:0:0:
164,350,83519,1,2,0:2:0:0:
77,268,83690,6,0,L|52:149,1,112.5,0|0,1:2|0:2,0:2:0:0:
43,110,84033,2,0,L|131:127,1,75,10|0,0:2|0:2,0:2:0:0:
185,194,84376,1,2,0:2:0:0:
274,156,84547,1,2,1:2:0:0:
340,227,84719,2,0,L|428:244,1,75,10|0,0:2|0:2,0:2:0:0:
468,110,85062,5,2,1:2:0:0:
468,110,85233,2,0,L|485:198,2,75,2|10|2,0:2|0:2|3:2,0:0:0:0:
484,13,85747,2,0,P|440:13|406:34,1,75,2|2,3:2|1:2,0:0:0:0:
336,87,86090,2,0,P|292:87|258:66,1,75,10|2,0:2|0:2,0:0:0:0:
186,128,86433,5,2,1:2:0:0:
186,128,86605,1,2,0:2:0:0:
108,78,86776,1,10,0:2:0:0:
108,78,86947,1,2,0:2:0:0:
31,138,87119,2,0,P|36:182|59:219,1,75,2|2,0:2|1:2,0:0:0:0:
36,305,87462,2,0,L|135:280,1,75,10|2,0:2|0:2,0:0:0:0:
183,223,87805,5,2,1:2:0:0:
273,259,87976,1,2,0:2:0:0:
340,189,88147,5,2,1:2:0:0:
430,225,88318,1,2,0:2:0:0:
497,155,88490,6,0,L|480:77,1,75,2|2,1:2|1:2,0:0:0:0:
469,34,88747,1,0,1:2:0:0:
469,34,88833,1,10,0:2:0:0:
376,2,89005,1,2,1:2:0:0:
307,71,89176,1,4,1:2:0:0:
150,114,90033,5,0,1:2:0:0:
150,114,90205,2,0,L|74:97,1,75,8|0,0:2|0:2,0:2:0:0:
0,45,90547,6,0,P|24:81|55:188,1,142.49999619484,2|8,1:2|0:2,0:2:0:0:
14,263,91062,1,0,3:2:0:0:
14,263,91147,1,0,3:2:0:0:
14,263,91233,2,0,L|88:281,1,71.2499980974198,2|0,3:2|1:2,0:0:0:0:
153,340,91576,2,0,L|227:322,1,71.2499980974198,10|0,0:2|3:2,0:0:0:0:
312,300,91919,1,2,1:2:0:0:
207,146,92262,6,0,P|196:73|251:18,1,142.49999619484,8|0,0:2|3:2,0:0:0:0:
327,0,92776,1,0,1:2:0:0:
377,77,92947,2,0,P|409:93|483:83,1,106.87499714613,8|0,0:2|3:2,0:2:0:0:
510,53,93290,6,0,L|482:199,1,142.49999619484,0|8,1:2|0:2,0:2:0:0:
422,263,93805,1,0,3:2:0:0:
422,263,93890,1,0,3:2:0:0:
422,263,93976,2,0,L|439:341,1,71.2499980974198,0|0,3:2|1:2,0:0:0:0:
356,377,94319,2,0,P|319:356|277:355,1,71.2499980974198,8|0,0:2|3:2,0:0:0:0:
183,313,94662,6,0,P|228:298|270:211,1,142.49999619484,2|10,1:2|0:2,0:2:0:0:
218,140,95176,1,0,3:2:0:0:
279,71,95347,2,0,L|354:89,1,71.2499980974198,2|0,3:2|1:2,0:2:0:0:
220,0,95690,2,0,L|108:25,1,106.87499714613,10|0,0:2|3:0,0:2:0:0:
70,14,96033,6,0,B|49:102|34:57|11:162,1,142.49999619484,2|8,1:2|0:2,0:2:0:0:
70,231,96547,1,0,3:2:0:0:
70,231,96633,1,0,3:2:0:0:
70,231,96719,2,0,L|154:208,1,71.2499980974198,2|0,3:2|1:2,0:0:0:0:
191,288,97062,2,0,L|122:306,1,71.2499980974198,10|0,0:2|3:2,0:0:0:0:
32,332,97405,1,2,1:2:0:0:
212,372,97747,6,0,L|362:332,1,142.49999619484,8|0,0:2|3:2,0:0:0:0:
435,371,98262,1,0,1:2:0:0:
502,307,98433,2,0,L|474:187,1,106.87499714613,8|0,0:2|3:2,0:2:0:0:
438,177,98776,6,0,P|407:218|314:221,2,142.49999619484,0|0|0,1:2|1:2|1:2,0:2:0:0:
501,110,99633,1,0,1:2:0:0:
501,110,99719,1,0,1:2:0:0:
501,110,99805,1,8,0:2:0:0:
451,31,99976,1,0,1:2:0:0:
349,81,100147,6,0,B|273:75|292:128|211:121,1,142.49999619484,2|10,1:2|0:2,0:2:0:0:
144,180,100662,1,0,3:2:0:0:
209,245,100833,2,0,L|227:321,1,71.2499980974198,2|0,3:2|1:2,0:2:0:0:
157,378,101176,2,0,L|44:352,1,106.87499714613,10|0,0:2|3:2,0:2:0:0:
22,318,101519,6,0,P|63:305|98:213,1,142.49999619484,2|8,1:2|0:2,0:2:0:0:
39,162,102033,1,0,3:2:0:0:
39,162,102119,1,0,3:2:0:0:
39,162,102205,2,0,L|21:88,1,71.2499980974198,2|0,3:2|1:2,0:0:0:0:
84,24,102547,2,0,P|117:45|165:48,1,71.2499980974198,10|0,0:2|3:2,0:0:0:0:
235,16,102890,1,2,1:2:0:0:
313,184,103233,6,0,L|282:335,1,142.49999619484,8|0,0:2|3:2,0:0:0:0:
360,376,103747,1,0,1:2:0:0:
426,310,103919,2,0,P|442:270|512:229,1,106.87499714613,8|0,0:2|3:2,0:2:0:0:
511,190,104262,6,0,L|479:42,1,142.49999619484,0|8,1:2|0:2,0:2:0:0:
407,12,104776,1,0,3:2:0:0:
407,12,104862,1,0,3:2:0:0:
407,12,104947,2,0,P|372:37|338:44,1,71.2499980974198,0|0,3:2|1:2,0:0:0:0:
278,108,105290,2,0,P|243:98|216:76,1,71.2499980974198,8|0,0:2|3:2,0:0:0:0:
130,0,105633,6,0,B|87:61|87:61|123:133,1,142.49999619484,2|10,1:2|0:2,0:2:0:0:
104,213,106147,1,0,3:2:0:0:
191,245,106319,2,0,L|266:224,1,71.2499980974198,2|0,3:2|1:2,0:2:0:0:
345,262,106662,2,0,P|346:302|308:362,1,106.87499714613,10|0,0:2|3:0,0:2:0:0:
269,374,107005,5,2,1:2:0:0:
184,337,107176,2,0,B|108:331|127:384|46:377,1,142.49999619484,2|0,0:2|3:2,0:0:0:0:
8,295,107690,2,0,L|23:220,1,71.2499980974198,2|0,0:2|1:2,0:0:0:0:
92,164,108033,2,0,L|77:89,1,71.2499980974198,10|0,0:2|3:2,0:0:0:0:
143,28,108376,5,0,1:2:0:0:
228,63,108547,1,0,1:2:0:0:
299,4,108719,1,0,1:2:0:0:
393,43,108890,1,0,1:2:0:0:
393,43,108976,1,0,0:0:0:0:
393,43,109062,2,0,L|375:120,1,71.2499980974198,0|0,1:2|1:2,0:0:0:0:
299,163,109405,2,0,L|317:240,1,71.2499980974198,0|0,1:2|1:2,0:0:0:0:
341,342,109747,6,0,L|298:331,3,35.6249990487099,0|0|0|0,1:2|1:2|1:2|1:2,0:0:0:0:
264,312,110090,2,0,L|221:323,3,35.6249990487099,0|0|0|0,1:2|1:2|1:2|1:2,0:0:0:0:
192,348,110433,1,0,1:2:0:0:
126,298,110605,1,0,1:2:0:0:
126,298,110690,1,0,1:2:0:0:
126,298,110776,1,8,0:2:0:0:
171,217,110947,1,0,1:2:0:0:
106,150,111119,1,6,1:2:0:0:
256,192,111205,12,2,113862,0:2:0:0:
60,11,122090,6,0,L|85:120,1,104.999996795654,2|0,0:2|0:0,0:2:0:0:
0,208,122776,2,0,L|25:317,1,104.999996795654,2|0,0:2|0:0,0:2:0:0:
137,364,123462,2,0,P|163:328|286:316,1,157.499995193482,2|0,0:2|0:2,0:2:0:0:
336,269,124147,1,2,0:2:0:0:
444,344,124490,2,0,B|453:160|494:238|499:47,1,300,2|0,0:2|0:2,0:2:0:0:
254,11,126890,5,2,0:2:0:0:
254,11,127062,1,2,0:2:0:0:
325,114,127405,2,0,P|331:155|295:274,1,157.499995193482,2|2,0:2|0:2,0:2:0:0:
216,358,128262,2,0,L|113:337,1,104.999996795654,2|2,0:2|0:2,0:2:0:0:
63,221,128947,2,0,P|57:180|93:61,1,157.499995193482,2|2,0:2|0:2,0:2:0:0:
266,10,129976,2,0,B|291:228|227:145|247:375,1,367.49998878479,2|0,0:2|0:2,0:2:0:0:
488,298,133062,6,0,L|467:191,1,104.999996795654,2|0,0:2|0:0,0:2:0:0:
367,119,133747,2,0,L|387:222,1,104.999996795654,2|0,0:2|0:0,0:2:0:0:
336,337,134433,2,0,P|287:311|231:316,1,104.999996795654,2|0,0:2|0:2,0:2:0:0:
184,369,134947,1,2,0:2:0:0:
3,373,135462,2,0,B|-20:158|36:242|24:16,1,360,2|0,0:2|0:2,0:2:0:0:
290,8,139919,5,2,0:2:0:0:
290,8,140090,2,0,L|270:114,1,104.999996795654,2|0,0:2|0:2,0:2:0:0:
207,158,140605,2,0,L|227:264,2,104.999996795654,2|2|0,0:2|0:2|0:2,0:0:0:0:
97,95,141633,5,2,0:2:0:0:
256,192,141719,12,0,144033,0:2:0:0:
