osu file format v14

[General]
AudioFilename: audio.mp3
AudioLeadIn: 0
PreviewTime: 65776
Countdown: 0
SampleSet: Soft
StackLeniency: 0.7
Mode: 0
LetterboxInBreaks: 0
WidescreenStoryboard: 0

[Editor]
DistanceSpacing: 1
BeatDivisor: 4
GridSize: 8
TimelineZoom: 2.2

[Metadata]
Title:We Won't Be Alone (feat. Laura Brehm) (Cut Ver.)
TitleUnicode:We Won't Be Alone (feat. Laura Brehm) (Cut Ver.)
Artist:Feint
ArtistUnicode:Feint
Creator:Kuki1537
Version:Everlasting Warmth
Source:
Tags:dnb monstercat edm drum and bass wont MCS375 electronic english n dance music d&b featured artist fa female vocal vocalist ft. enuhq majk00 d'n'b short version
BeatmapID:4011524
BeatmapSetID:1940162

[Difficulty]
HPDrainRate:5.5
CircleSize:4
OverallDifficulty:9.2
ApproachRate:9.3
SliderMultiplier:1.8
SliderTickRate:1

[Events]
//Background and Video events
0,0,"laternnnnn.jpg",0,0
//Break Periods
2,114062,121536
//Storyboard Layer 0 (Background)
//Storyboard Layer 1 (Fail)
//Storyboard Layer 2 (Pass)
//Storyboard Layer 3 (Foreground)
//Storyboard Layer 4 (Overlay)
//Storyboard Sound Samples

[TimingPoints]
1405,342.857142857143,4,2,22,30,1,0
20605,-100,4,2,22,30,0,0
23347,-142.857142857143,4,2,22,40,0,0
26005,-142.857142857143,4,2,22,5,0,0
26090,-142.857142857143,4,2,22,40,0,0
41433,-142.857142857143,4,2,22,5,0,0
41519,-142.857142857143,4,2,22,40,0,0
56262,-111.111111111111,4,2,22,75,0,0
65862,-111.111111111111,4,2,22,65,0,0
66890,-142.857142857143,4,2,22,65,0,0
67233,-90.9090909090909,4,2,22,90,0,0
76833,-111.111111111111,4,2,22,80,0,0
78205,-90.9090909090909,4,2,22,90,0,0
89176,-166.666666666667,4,2,22,55,0,0
90033,-100,4,2,22,80,0,0
98776,-117.647058823529,4,2,22,70,0,0
100147,-100,4,2,22,80,0,0
111119,-250,4,2,22,35,0,0
124490,-285.714285714286,4,2,22,35,0,0
126890,-250,4,2,22,35,0,0
129976,-285.714285714286,4,2,22,35,0,0
133062,-250,4,2,22,35,0,0
144033,-250,4,2,22,5,0,0

[Colours]
Combo1 : 151,169,255
Combo2 : 255,170,249
Combo3 : 208,151,255
Combo4 : 172,151,255

[HitObjects]
256,192,20605,12,0,23005,0:2:0:0:
69,50,23347,6,0,L|96:187,1,125.999996154785,0|8,1:2|0:3,0:2:0:0:
0,302,23862,1,2,0:2:0:0:
0,302,24033,2,0,P|23:277|124:272,1,125.999996154785,2|10,0:2|0:3,0:2:0:0:
203,369,24547,2,0,L|190:299,1,62.9999980773926,2|0,0:2|1:2,0:2:0:0:
244,181,24890,2,0,L|255:242,1,62.9999980773926,2|8,0:2|0:3,0:2:0:0:
392,316,25233,1,0,0:2:0:0:
392,316,25405,2,0,L|330:304,1,62.9999980773926,2|0,0:2|1:2,0:2:0:0:
457,378,25747,2,0,P|478:345|464:266,1,94.499997116089,10|0,0:3|0:2,0:2:0:0:
498,257,26090,6,0,L|473:133,2,125.999996154785,2|8|0,1:2|0:3|0:2,0:2:0:0:
401,235,26947,1,0,1:2:0:0:
401,235,27119,2,0,B|358:226|358:226|322:256|267:250,1,125.999996154785,10|0,0:3|0:2,0:2:0:0:
204,193,27633,1,0,1:2:0:0:
204,193,27805,2,0,L|229:69,1,125.999996154785,10|0,0:3|0:2,0:2:0:0:
322,13,28319,1,0,1:2:0:0:
385,65,28490,1,10,0:3:0:0:
307,94,28662,1,2,0:2:0:0:
439,0,28833,6,0,B|483:33|483:33|457:123,1,125.999996154785,0|8,1:2|0:3,0:2:0:0:
512,190,29347,1,2,0:2:0:0:
512,190,29519,2,0,B|443:173|454:221|386:205,1,125.999996154785,2|10,0:2|0:3,0:2:0:0:
311,249,30033,1,2,0:2:0:0:
227,170,30205,6,0,B|186:176|186:176|157:213|157:213|99:224,1,125.999996154785,0|8,1:2|0:3,0:2:0:0:
83,83,30719,1,2,0:2:0:0:
83,83,30890,2,0,P|96:118|87:164,1,62.9999980773926,2|0,0:2|1:2,0:2:0:0:
36,214,31233,1,10,0:3:0:0:
9,129,31405,1,2,0:2:0:0:
119,220,31576,6,0,L|94:344,2,125.999996154785,0|8|0,1:2|0:3|0:2,0:2:0:0:
194,160,32433,1,0,1:2:0:0:
194,160,32605,2,0,P|246:148|310:197,1,125.999996154785,10|0,0:3|0:2,0:2:0:0:
374,263,33119,1,0,1:2:0:0:
374,263,33290,2,0,L|498:238,1,125.999996154785,10|0,0:3|0:2,0:2:0:0:
492,120,33805,1,0,1:2:0:0:
406,167,33976,1,10,0:3:0:0:
512,109,34147,1,2,0:2:0:0:
385,29,34319,6,0,B|342:20|342:20|306:50|251:44,1,125.999996154785,0|10,1:2|0:3,0:2:0:0:
180,84,34833,1,2,0:2:0:0:
258,141,35005,2,0,L|272:212,1,62.9999980773926,2|0,0:2|1:2,0:2:0:0:
206,317,35347,2,0,L|193:255,1,62.9999980773926,10|0,0:3|0:2,0:2:0:0:
93,99,35690,2,0,P|137:106|174:195,1,125.999996154785,2|10,1:2|0:3,0:2:0:0:
118,309,36205,2,0,L|93:185,1,125.999996154785,2|0,0:2|1:2,0:2:0:0:
10,71,36719,2,0,L|71:83,1,62.9999980773926,10|0,0:3|0:2,0:2:0:0:
159,37,37062,5,0,1:2:0:0:
447,174,37405,2,0,B|406:180|406:180|377:217|377:217|319:228,1,125.999996154785,10|0,0:3|0:2,0:2:0:0:
258,182,37919,1,0,1:2:0:0:
258,182,38090,2,0,B|214:215|214:215|240:305,1,125.999996154785,10|0,0:3|0:2,0:2:0:0:
320,380,38605,1,0,1:2:0:0:
320,380,38776,2,0,L|258:367,1,62.9999980773926,10|0,0:3|0:2,0:2:0:0:
99,339,39119,1,2,0:2:0:0:
216,281,39290,1,0,1:2:0:0:
140,236,39462,1,10,0:3:0:0:
175,384,39633,1,2,0:2:0:0:
135,217,39805,6,0,L|120:140,1,62.9999980773926,2|2,1:2|0:2,0:2:0:0:
26,107,40147,2,0,L|38:168,1,62.9999980773926,10|0,0:3|0:2,0:2:0:0:
191,97,40490,1,2,0:2:0:0:
106,71,40662,1,0,1:2:0:0:
180,12,40833,2,0,P|223:16|244:29,1,62.9999980773926,10|0,0:3|0:2,0:2:0:0:
306,194,41176,5,2,1:2:0:0:
188,119,41347,1,2,0:0:0:0:
316,72,41519,2,0,L|378:84,1,62.9999980773926,10|0,0:3|0:2,0:2:0:0:
499,142,41862,2,0,L|437:154,1,62.9999980773926,2|0,0:2|1:2,0:2:0:0:
306,194,42205,2,0,P|354:202|393:279,2,125.999996154785,10|0|8,0:3|1:2|0:3,0:2:0:0:
23,234,43233,1,2,0:2:0:0:
6,145,43405,1,0,1:2:0:0:
27,254,43576,6,0,L|51:379,1,125.999996154785,10|0,0:3|0:2,0:2:0:0:
157,304,44090,1,0,1:2:0:0:
157,304,44262,2,0,L|168:242,1,62.9999980773926,10|0,0:3|0:2,0:2:0:0:
192,116,44605,1,2,0:2:0:0:
96,192,44776,1,0,1:2:0:0:
267,168,44947,1,10,0:3:0:0:
119,64,45119,1,2,0:2:0:0:
254,259,45290,6,0,P|302:253|349:128,1,188.999994232178,6|0,1:2|0:2,0:2:0:0:
323,64,45976,2,0,L|365:264,1,188.999994232178,2|0,0:2|0:2,0:2:0:0:
512,358,46662,2,0,B|476:351|456:317|456:317|324:345,1,188.999994232178,2|0,0:2|0:2,0:2:0:0:
247,362,47347,1,2,0:2:0:0:
247,362,47690,6,0,L|273:229,2,125.999996154785,2|0|2,0:2|0:2|0:2,0:2:0:0:
170,303,48719,1,2,0:2:0:0:
109,361,48890,1,2,0:2:0:0:
34,319,49062,2,0,L|60:186,1,125.999996154785,2|0,0:2|0:2,0:2:0:0:
133,38,49747,1,2,0:2:0:0:
133,38,50090,2,0,L|68:55,2,62.9999980773926,2|2|2,0:2|0:2|0:2,0:2:0:0:
207,91,50605,6,0,L|335:120,1,125.999996154785,2|0,0:2|0:2,0:2:0:0:
421,144,51119,1,2,0:2:0:0:
421,144,51462,2,0,L|407:80,1,62.9999980773926,2|0,0:2|0:2,0:2:0:0:
506,171,51805,2,0,L|492:232,1,62.9999980773926,2|0,0:2|0:2,0:2:0:0:
512,372,52147,2,0,P|483:319|404:311,1,125.999996154785,2|0,0:2|0:2,0:2:0:0:
337,334,52662,2,0,L|201:305,1,125.999996154785,2|0,0:2|0:2,0:2:0:0:
197,212,53176,6,0,L|320:238,2,125.999996154785,2|0|2,0:2|0:2|0:2,0:2:0:0:
332,86,54205,1,2,0:2:0:0:
251,117,54376,1,2,0:2:0:0:
197,49,54547,2,0,P|172:80|70:86,1,125.999996154785,2|0,0:2|0:2,0:2:0:0:
0,0,55233,1,2,0:2:0:0:
0,0,55576,2,0,L|14:69,1,62.9999980773926,2|2,0:2|0:2,0:2:0:0:
90,95,55919,2,0,L|76:164,1,62.9999980773926,2|2,0:2|0:2,0:2:0:0:
0,313,56262,6,0,P|22:272|140:254,1,161.999995056153,6|0,1:2|1:2,0:2:0:0:
288,287,56776,1,0,0:2:0:0:
185,384,56947,2,0,L|204:280,1,80.9999975280763,2|0,1:2|0:2,0:2:0:0:
348,154,57290,2,0,L|362:233,1,80.9999975280763,0|0,1:2|0:2,0:2:0:0:
249,113,57633,5,2,1:2:0:0:
411,46,57805,1,0,0:2:0:0:
271,204,57976,1,0,1:2:0:0:
433,137,58147,2,0,P|476:136|524:172,1,80.9999975280763,2|0,0:2|1:2,0:2:0:0:
504,314,58490,1,0,0:2:0:0:
348,154,58662,2,0,L|362:233,1,80.9999975280763,2|0,1:2|0:2,0:2:0:0:
246,381,59005,5,0,1:2:0:0:
185,220,59176,1,0,0:2:0:0:
342,319,59347,2,0,P|385:320|433:284,1,80.9999975280763,0|0,1:2|0:2,0:2:0:0:
369,128,59690,1,0,1:2:0:0:
265,270,59862,1,0,0:2:0:0:
451,197,60033,1,0,1:2:0:0:
257,115,60205,1,0,0:2:0:0:
487,21,60376,5,2,1:2:0:0:
487,21,60547,2,0,L|470:108,1,80.9999975280763,2|0,0:2|1:2,0:2:0:0:
451,197,60890,1,0,0:2:0:0:
155,90,61062,5,2,1:2:0:0:
155,90,61233,2,0,L|172:177,1,80.9999975280763,2|0,0:2|1:2,0:2:0:0:
191,266,61576,1,0,0:2:0:0:
377,134,61747,5,2,1:2:0:0:
277,343,61919,1,2,1:2:0:0:
251,103,62090,1,0,1:2:0:0:
413,280,62262,1,0,1:2:0:0:
174,282,62433,5,2,1:2:0:0:
377,134,62605,1,2,1:2:0:0:
134,180,62776,1,0,1:2:0:0:
325,267,62947,1,0,1:2:0:0:
139,85,63119,5,2,1:2:0:0:
58,312,63290,1,2,1:2:0:0:
218,138,63462,1,0,1:2:0:0:
242,384,63633,1,0,1:2:0:0:
39,118,63805,5,2,1:2:0:0:
293,202,63976,1,0,1:2:0:0:
58,312,64147,1,2,1:2:0:0:
222,46,64319,1,0,1:2:0:0:
347,309,64490,5,0,1:2:0:0:
384,333,64576,1,0,1:2:0:0:
428,337,64662,1,0,1:2:0:0:
469,320,64747,1,0,1:2:0:0:
498,286,64833,1,0,1:2:0:0:
508,243,64919,1,0,1:2:0:0:
496,200,65004,1,0,1:2:0:0:
465,167,65090,1,0,1:2:0:0:
423,152,65176,5,0,1:2:0:0:
406,169,65261,1,0,1:2:0:0:
386,183,65347,1,0,1:2:0:0:
364,194,65433,1,0,1:2:0:0:
341,201,65518,1,0,1:2:0:0:
317,204,65604,1,0,1:2:0:0:
293,202,65690,1,0,1:2:0:0:
269,197,65776,1,0,1:2:0:0:
247,187,65861,5,4,0:3:0:0:
331,109,66033,1,4,0:1:0:0:
229,279,66205,1,4,0:3:0:0:
155,146,66376,1,4,0:1:0:0:
329,250,66547,1,4,0:3:0:0:
153,331,66719,1,4,0:1:0:0:
247,187,66890,2,0,L|227:292,1,94.499997116089,0|0,0:2|0:2,0:2:0:0:
284,376,67233,6,0,P|240:338|128:341,1,148.50000453186,6|0,1:2|0:2,0:2:0:0:
72,384,67576,2,0,L|47:263,1,99.0000030212403,10|0,0:2|0:2,0:2:0:0:
206,101,67919,1,2,0:2:0:0:
0,216,68090,1,2,1:2:0:0:
229,279,68262,2,0,P|282:280|328:255,1,99.0000030212403,10|0,0:2|0:2,0:2:0:0:
399,32,68605,5,2,1:2:0:0:
186,201,68776,1,2,0:2:0:0:
461,189,68947,1,10,0:2:0:0:
214,108,69119,1,2,3:2:0:0:
214,108,69205,1,0,3:2:0:0:
214,108,69290,1,2,3:2:0:0:
278,301,69462,1,2,1:2:0:0:
401,125,69633,1,10,0:2:0:0:
186,201,69805,1,2,0:2:0:0:
314,2,69976,6,0,B|291:57|291:57|317:102|314:161,1,148.50000453186,2|0,1:2|0:2,0:2:0:0:
382,213,70319,2,0,L|361:316,1,99.0000030212403,10|0,0:2|0:2,0:2:0:0:
163,209,70662,1,2,0:2:0:0:
401,125,70833,1,2,1:2:0:0:
194,297,71005,2,0,P|141:302|91:274,1,99.0000030212403,10|0,0:2|0:2,0:2:0:0:
160,26,71347,6,0,B|189:68|189:68|178:121,1,99.0000030212403,0|0,1:2|0:2,0:2:0:0:
3,301,71690,2,0,L|107:281,1,99.0000030212403,10|0,0:2|3:2,0:2:0:0:
145,276,71947,1,0,3:2:0:0:
145,276,72033,1,2,3:2:0:0:
19,66,72205,1,2,1:2:0:0:
271,144,72376,1,10,0:2:0:0:
17,286,72547,1,2,0:2:0:0:
160,26,72719,6,0,B|238:12|226:69|308:53,1,148.50000453186,0|0,1:2|0:2,0:2:0:0:
374,0,73062,2,0,P|393:44|381:99,1,99.0000030212403,10|0,0:2|0:2,0:2:0:0:
347,306,73405,1,2,0:2:0:0:
480,100,73576,1,2,1:2:0:0:
284,235,73747,2,0,L|177:214,1,99.0000030212403,10|0,0:2|0:2,0:2:0:0:
384,92,74090,5,2,1:2:0:0:
477,319,74262,1,2,0:2:0:0:
302,143,74433,1,10,0:2:0:0:
304,384,74605,1,2,3:2:0:0:
304,384,74690,1,0,3:2:0:0:
304,384,74776,1,2,3:2:0:0:
449,170,74947,1,2,1:2:0:0:
252,256,75119,1,10,0:2:0:0:
462,332,75290,1,2,0:2:0:0:
281,160,75462,6,0,B|232:147|232:147|196:183|129:177,1,148.50000453186,2|0,1:2|0:2,0:2:0:0:
69,122,75805,2,0,L|49:23,1,99.0000030212403,10|0,0:2|0:2,0:2:0:0:
261,56,76147,1,2,0:2:0:0:
59,217,76319,1,2,1:2:0:0:
279,42,76490,2,0,P|331:38|381:65,1,99.0000030212403,10|0,0:2|0:2,0:2:0:0:
212,342,76833,6,0,L|197:260,1,80.9999975280763,0|0,1:2|0:2,0:2:0:0:
311,128,77176,2,0,L|325:207,1,80.9999975280763,2|0,1:2|0:2,0:2:0:0:
506,361,77519,1,2,1:2:0:0:
300,297,77690,1,2,1:2:0:0:
300,297,77776,1,0,1:2:0:0:
300,297,77862,1,10,0:2:0:0:
479,171,78033,1,2,1:2:0:0:
327,379,78205,6,0,P|270:382|211:286,1,148.50000453186,6|0,1:2|0:2,0:2:0:0:
224,234,78547,2,0,L|244:130,1,99.0000030212403,10|0,0:2|0:2,0:2:0:0:
154,0,78890,1,2,0:2:0:0:
366,109,79062,1,2,1:2:0:0:
136,201,79233,2,0,P|87:206|40:183,1,99.0000030212403,10|0,0:2|0:2,0:2:0:0:
270,0,79576,5,2,1:2:0:0:
219,253,79747,1,2,0:2:0:0:
74,50,79919,1,10,0:2:0:0:
140,298,80090,1,2,3:2:0:0:
140,298,80176,1,0,3:2:0:0:
140,298,80262,1,2,3:2:0:0:
223,121,80433,1,2,1:2:0:0:
72,232,80605,1,10,0:2:0:0:
166,46,80776,1,2,0:2:0:0:
235,267,80947,6,0,B|318:260|291:310|389:301,1,148.50000453186,2|0,1:2|0:2,0:2:0:0:
451,256,81290,2,0,P|462:202|445:156,1,99.0000030212403,10|0,0:2|0:2,0:2:0:0:
267,0,81633,1,2,0:2:0:0:
367,208,81805,1,2,1:2:0:0:
510,17,81976,2,0,L|407:38,1,99.0000030212403,10|0,0:2|0:2,0:2:0:0:
190,172,82319,6,0,B|233:199|233:199|297:186,1,99.0000030212403,0|0,1:2|0:2,0:2:0:0:
487,373,82662,2,0,P|439:352|389:357,1,99.0000030212403,10|0,0:2|3:2,0:2:0:0:
353,371,82919,1,0,3:2:0:0:
353,371,83005,1,2,3:2:0:0:
471,114,83176,1,2,1:2:0:0:
235,289,83347,1,10,0:2:0:0:
512,268,83519,1,2,0:2:0:0:
271,103,83690,6,0,B|223:89|223:89|185:128|125:123,1,148.50000453186,0|0,1:2|0:2,0:2:0:0:
38,92,84033,2,0,L|58:194,1,99.0000030212403,10|0,0:2|0:2,0:2:0:0:
257,268,84376,1,2,0:2:0:0:
140,33,84547,1,2,1:2:0:0:
0,262,84719,2,0,P|46:282|103:270,1,99.0000030212403,10|0,0:2|0:2,0:2:0:0:
288,88,85062,5,2,1:2:0:0:
57,189,85233,1,2,0:2:0:0:
332,175,85405,1,10,0:2:0:0:
140,33,85576,1,2,3:2:0:0:
140,33,85662,1,0,3:2:0:0:
140,33,85747,1,2,3:2:0:0:
239,251,85919,1,2,1:2:0:0:
319,53,86090,1,10,0:2:0:0:
156,181,86262,1,2,0:2:0:0:
434,261,86433,6,0,P|442:217|416:163,1,99.0000030212403,2|2,1:2|0:2,0:2:0:0:
227,62,86776,2,0,L|248:168,1,99.0000030212403,10|2,0:2|0:2,0:2:0:0:
258,207,87033,1,0,0:2:0:0:
258,207,87119,1,2,0:2:0:0:
319,53,87290,1,2,1:2:0:0:
139,167,87462,1,10,0:2:0:0:
351,225,87633,1,2,0:2:0:0:
143,313,87805,5,2,1:2:0:0:
223,38,87976,1,2,0:2:0:0:
308,358,88147,1,2,1:2:0:0:
133,145,88319,1,2,0:2:0:0:
372,217,88490,5,2,1:2:0:0:
66,349,88662,1,2,1:2:0:0:
66,349,88747,1,0,1:2:0:0:
66,349,88833,1,10,0:2:0:0:
233,152,89005,1,2,1:2:0:0:
408,362,89176,6,0,P|479:361|494:225,1,215.999993408203,4|0,1:2|0:2,0:2:0:0:
426,120,90033,1,0,1:2:0:0:
361,260,90205,2,0,L|342:165,1,90,8|0,0:2|0:2,0:2:0:0:
484,49,90547,6,0,P|439:28|395:33,1,90,2|0,1:2|0:2,0:2:0:0:
253,149,90890,1,8,0:2:0:0:
447,210,91062,1,0,3:2:0:0:
441,188,91147,1,0,3:2:0:0:
436,165,91233,1,2,3:2:0:0:
431,143,91319,1,0,3:2:0:0:
426,120,91405,1,0,1:2:0:0:
303,227,91576,1,10,0:2:0:0:
509,291,91747,1,0,3:2:0:0:
509,291,91833,1,0,3:2:0:0:
509,291,91919,6,0,P|465:310|410:301,1,90,2|0,1:2|0:2,0:2:0:0:
253,149,92262,1,8,0:2:0:0:
340,312,92433,2,0,L|329:368,1,45,0|0,3:2|3:2,0:2:0:0:
217,273,92605,2,0,L|206:217,1,45,0|0,3:2|3:2,0:2:0:0:
303,227,92776,1,0,1:2:0:0:
191,360,92947,2,0,L|98:342,1,90,8|0,0:2|3:2,0:2:0:0:
63,337,93205,1,0,3:2:0:0:
63,337,93290,6,0,P|41:301|48:250,1,90,0|0,1:2|0:2,0:2:0:0:
148,127,93633,1,8,0:2:0:0:
217,273,93805,1,0,3:2:0:0:
195,268,93890,1,0,3:2:0:0:
174,263,93976,1,0,3:2:0:0:
153,258,94062,1,0,3:2:0:0:
132,254,94147,1,0,1:2:0:0:
61,90,94319,1,8,0:2:0:0:
231,187,94490,1,0,3:2:0:0:
231,187,94576,1,0,3:2:0:0:
231,187,94662,6,0,P|276:188|330:158,1,90,2|0,1:2|0:2,0:2:0:0:
429,36,95005,1,10,0:2:0:0:
245,52,95176,2,0,L|260:122,1,45,0|0,3:2|3:2,0:2:0:0:
398,171,95347,2,0,L|413:101,1,45,2|0,3:2|3:2,0:2:0:0:
339,66,95519,1,0,1:2:0:0:
231,187,95690,2,0,L|253:291,1,90,10|0,0:2|3:2,0:2:0:0:
512,274,96033,6,0,P|472:254|415:263,1,90,2|0,1:2|0:2,0:2:0:0:
242,361,96376,1,8,0:2:0:0:
324,199,96547,1,0,3:2:0:0:
329,219,96633,1,0,3:2:0:0:
334,240,96719,1,2,3:2:0:0:
339,261,96805,1,0,3:2:0:0:
344,283,96890,1,0,1:2:0:0:
413,164,97062,1,10,0:2:0:0:
249,275,97233,1,0,3:2:0:0:
249,275,97319,1,0,3:2:0:0:
249,275,97405,6,0,L|154:259,1,90,2|0,1:2|0:2,0:2:0:0:
59,85,97747,1,8,0:2:0:0:
249,141,97919,2,0,L|239:198,1,45,0|0,3:2|3:2,0:2:0:0:
160,260,98090,2,0,L|150:203,1,45,0|0,3:2|3:2,0:2:0:0:
138,124,98262,1,0,1:2:0:0:
249,275,98433,2,0,P|298:275|343:245,1,90,8|0,0:2|3:2,0:2:0:0:
362,231,98690,1,0,3:2:0:0:
362,231,98776,6,0,L|345:147,1,76.5000014591217,0|0,1:2|0:2,0:2:0:0:
464,41,99119,2,0,L|479:115,1,76.5000014591217,0|0,1:2|0:2,0:2:0:0:
246,170,99462,1,0,1:2:0:0:
375,38,99633,1,0,1:2:0:0:
375,38,99719,1,0,1:2:0:0:
375,38,99805,1,8,0:2:0:0:
362,231,99976,1,0,1:2:0:0:
176,37,100147,6,0,B|131:30|131:30|92:56|92:56|24:46,1,135,2|0,1:2|0:2,0:2:0:0:
6,40,100490,1,10,0:2:0:0:
153,124,100662,2,0,P|161:148|165:181,1,45,0|0,3:2|3:2,0:2:0:0:
49,267,100833,2,0,P|41:243|37:210,1,45,2|0,3:2|3:2,0:2:0:0:
22,135,101005,1,0,1:2:0:0:
182,254,101176,2,0,L|286:234,1,90,10|0,0:2|3:2,0:2:0:0:
304,231,101433,1,0,3:2:0:0:
304,231,101519,6,0,L|288:326,1,90,2|0,1:2|0:2,0:2:0:0:
446,342,101862,1,8,0:2:0:0:
371,171,102033,1,0,3:2:0:0:
355,154,102119,1,0,3:2:0:0:
335,143,102205,1,2,3:2:0:0:
313,138,102290,1,0,3:2:0:0:
290,139,102376,1,0,1:2:0:0:
182,254,102547,1,10,0:2:0:0:
395,264,102719,1,0,3:2:0:0:
395,264,102805,1,0,3:2:0:0:
395,264,102890,6,0,L|497:242,1,90,2|0,1:2|0:2,0:2:0:0:
411,86,103233,1,8,0:2:0:0:
304,231,103405,2,0,L|242:218,1,45,0|0,3:2|3:2,0:2:0:0:
155,164,103576,2,0,L|199:154,1,45,0|0,3:2|3:2,0:2:0:0:
272,91,103747,1,0,1:2:0:0:
182,254,103919,2,0,P|137:255|87:228,1,90,8|0,0:2|3:2,0:2:0:0:
66,208,104176,1,0,3:2:0:0:
66,208,104262,6,0,L|48:314,1,90,0|0,1:2|0:2,0:2:0:0:
155,164,104605,1,8,0:2:0:0:
251,308,104776,1,0,3:2:0:0:
273,312,104862,1,0,3:2:0:0:
294,316,104947,1,0,3:2:0:0:
316,320,105033,1,0,3:2:0:0:
338,324,105119,1,0,1:2:0:0:
281,176,105290,1,8,0:2:0:0:
163,343,105462,1,0,3:2:0:0:
163,343,105547,1,0,3:2:0:0:
163,343,105633,6,0,L|145:248,1,90,2|0,1:2|0:2,0:2:0:0:
193,86,105976,1,10,0:2:0:0:
60,255,106147,2,0,L|70:209,1,45,0|0,3:2|3:2,0:2:0:0:
0,95,106319,2,0,L|9:144,1,45,2|0,3:2|3:2,0:2:0:0:
160,237,106490,1,0,1:2:0:0:
113,28,106662,2,0,L|93:128,1,90,10|0,0:2|3:2,0:2:0:0:
131,154,106919,1,0,3:0:0:0:
131,154,107005,5,2,1:2:0:0:
263,27,107176,2,0,P|285:71|278:119,1,90,2|8,0:2|0:2,0:0:0:0:
168,244,107519,1,0,3:2:0:0:
168,244,107605,1,0,3:2:0:0:
168,244,107690,2,0,L|259:226,1,90,2|0,0:2|1:2,0:0:0:0:
457,359,108033,2,0,L|366:341,1,90,10|0,0:2|3:2,0:0:0:0:
323,334,108290,1,0,3:2:0:0:
323,334,108376,5,0,1:2:0:0:
390,151,108547,1,0,1:2:0:0:
212,325,108719,1,0,1:2:0:0:
443,246,108890,1,0,1:2:0:0:
201,112,109062,1,0,1:2:0:0:
323,334,109233,1,0,1:2:0:0:
415,57,109405,1,0,1:2:0:0:
268,255,109576,1,0,1:2:0:0:
204,16,109747,5,0,1:2:0:0:
162,0,109833,1,0,1:2:0:0:
117,6,109919,1,0,1:2:0:0:
80,31,110005,1,0,1:2:0:0:
59,71,110090,1,0,1:2:0:0:
59,116,110176,1,0,1:2:0:0:
80,156,110262,1,0,1:2:0:0:
117,182,110347,1,0,1:2:0:0:
162,187,110433,5,0,1:2:0:0:
11,259,110605,1,0,1:2:0:0:
11,259,110690,1,0,1:2:0:0:
11,259,110776,1,8,0:2:0:0:
151,96,110947,1,0,1:2:0:0:
257,359,111119,5,6,1:2:0:0:
256,192,111205,12,2,113862,0:2:0:0:
301,327,122090,6,0,P|260:333|196:373,1,108,2|0,0:2|0:2,0:2:0:0:
105,380,122776,2,0,P|64:374|0:334,1,108,2|0,0:2|0:2,0:2:0:0:
86,282,123462,2,0,L|111:165,1,108,2|0,0:2|0:2,0:2:0:0:
128,90,124147,1,2,0:2:0:0:
128,90,124490,2,0,B|293:42|263:189|423:143,1,314.999990386963,2|0,0:2|0:2,0:2:0:0:
373,30,126890,5,2,0:2:0:0:
373,30,127062,2,0,L|364:75,1,36,2|0,0:2|0:2,0:2:0:0:
422,143,127405,2,0,L|440:226,1,72,2|0,0:2|0:2,0:2:0:0:
406,293,127919,1,2,0:2:0:0:
406,293,128262,2,0,L|453:306,1,36,2|0,0:2|0:2,0:2:0:0:
329,335,128605,2,0,L|282:348,1,36,2|0,0:2|0:2,0:2:0:0:
206,365,128947,6,0,P|191:338|177:285,1,72,2|0,0:2|0:2,0:2:0:0:
114,235,129462,2,0,P|124:200|141:168,1,72,2|0,0:2|0:2,0:2:0:0:
93,91,129976,2,0,B|198:-21|346:38|346:38|253:37|213:117,1,440.999986541748,2|0,0:2|0:2,0:2:0:0:
467,318,133062,6,0,L|351:294,1,108,2|0,0:2|0:2,0:2:0:0:
290,238,133747,2,0,L|174:262,1,108,2|0,0:2|0:2,0:2:0:0:
102,211,134433,2,0,P|100:246|83:278,1,72,2|0,0:2|0:2,0:2:0:0:
0,254,134947,2,0,P|1:218|18:186,1,72,2|0,0:2|0:2,0:2:0:0:
83,125,135462,2,0,B|145:88|145:88|213:111|213:111|334:10|483:68,1,432,2|0,0:2|0:2,0:2:0:0:
117,60,139919,5,2,0:2:0:0:
117,60,140090,2,0,P|131:95|140:141,1,72,2|0,0:2|0:2,0:2:0:0:
91,200,140605,1,2,0:2:0:0:
220,131,140947,2,0,L|299:148,1,72,2|0,0:2|0:2,0:2:0:0:
395,42,141633,6,0,B|262:127|265:359|451:400|514:245|433:173,1,504,2|0,0:2|0:2,0:2:0:0:
