osu file format v14

[General]
AudioFilename: audio.mp3
AudioLeadIn: 0
PreviewTime: 65776
Countdown: 0
SampleSet: Soft
StackLeniency: 0.7
Mode: 0
LetterboxInBreaks: 0
WidescreenStoryboard: 0

[Editor]
DistanceSpacing: 2
BeatDivisor: 4
GridSize: 32
TimelineZoom: 2.2

[Metadata]
Title:We Won't Be Alone (feat. Laura Brehm) (Cut Ver.)
TitleUnicode:We Won't Be Alone (feat. Laura Brehm) (Cut Ver.)
Artist:Feint
ArtistUnicode:Feint
Creator:Kuki1537
Version:Enu's Insane
Source:
Tags:dnb monstercat edm drum and bass wont MCS375 electronic english n dance music d&b featured artist fa female vocal vocalist ft. enuhq majk00 d'n'b short version
BeatmapID:4024194
BeatmapSetID:1940162

[Difficulty]
HPDrainRate:4.5
CircleSize:3.6
OverallDifficulty:8.2
ApproachRate:9
SliderMultiplier:1.64
SliderTickRate:1

[Events]
//Background and Video events
0,0,"laternnnnn.jpg",0,0
//Break Periods
2,114062,121490
//Storyboard Layer 0 (Background)
//Storyboard Layer 1 (Fail)
//Storyboard Layer 2 (Pass)
//Storyboard Layer 3 (Foreground)
//Storyboard Layer 4 (Overlay)
//Storyboard Sound Samples

[TimingPoints]
1405,342.857142857143,4,2,22,30,1,0
23347,-135.135135135135,4,2,22,40,0,0
26005,-135.135135135135,4,2,22,5,0,0
26090,-135.135135135135,4,2,22,40,0,0
41433,-135.135135135135,4,2,22,5,0,0
41519,-135.135135135135,4,2,22,40,0,0
45290,-185.185185185185,4,2,22,40,0,0
56262,-106.382978723404,4,2,22,75,0,0
65862,-106.382978723404,4,2,22,65,0,0
66890,-156.25,4,2,22,65,0,0
67233,-96.1538461538461,4,2,22,90,0,0
76833,-96.1538461538461,4,2,22,80,0,0
78205,-96.1538461538461,4,2,22,90,0,0
89176,-227.272727272727,4,2,22,55,0,0
90033,-227.272727272727,4,2,22,80,0,0
90205,-100,4,2,22,80,0,0
98776,-100,4,2,22,70,0,0
100147,-100,4,2,22,80,0,0
111119,-100,4,2,22,35,0,0
122090,-185.185185185185,4,2,22,35,0,0
124490,-294.117647058823,4,2,22,35,0,0
127062,-185.185185185185,4,2,22,35,0,0
129976,-416.666666666667,4,2,22,35,0,0
133062,-185.185185185185,4,2,22,35,0,0
135805,-263.157894736842,4,2,22,35,0,0
140090,-185.185185185185,4,2,22,35,0,0
141633,-232.558139534884,4,2,22,35,0,0
144033,-232.558139534884,4,2,22,5,0,0

[Colours]
Combo1 : 151,169,255
Combo2 : 255,170,249
Combo3 : 208,151,255
Combo4 : 172,151,255

[HitObjects]
256,192,20605,12,0,23005,0:0:0:0:
14,5,23347,6,0,P|-12:57|11:110,1,121.36,0|8,1:2|0:3,0:2:0:0:
80,68,23862,1,2,0:2:0:0:
80,68,24033,2,0,L|41:182,1,121.36,2|10,0:2|0:3,0:2:0:0:
155,128,24547,6,0,L|136:185,1,60.6800000000001,2|0,0:2|1:2,0:2:0:0:
102,266,24890,2,0,B|167:276|152:300|215:312,1,121.36,2|0,0:2|0:2,0:2:0:0:
285,376,25405,1,2,0:2:0:0:
223,300,25576,1,0,1:2:0:0:
117,384,25747,1,10,0:3:0:0:
258,133,26090,6,0,L|302:258,2,121.36,2|8|0,1:2|0:3|0:2,0:2:0:0:
357,159,26947,5,0,1:2:0:0:
357,159,27119,2,0,L|399:38,1,121.36,10|0,0:3|0:2,0:2:0:0:
289,49,27633,1,0,1:2:0:0:
289,48,27805,2,0,P|245:9|186:9,1,121.36,10|0,0:3|0:2,0:2:0:0:
24,86,28319,1,0,1:2:0:0:
24,86,28490,1,10,0:3:0:0:
87,6,28662,1,2,0:2:0:0:
151,92,28833,6,0,P|132:144|112:206,1,121.36,0|8,1:2|0:3,0:2:0:0:
32,264,29347,1,2,0:2:0:0:
32,264,29519,2,0,P|70:308|128:307,1,121.36,2|10,0:2|0:3,0:2:0:0:
209,240,30033,5,2,0:2:0:0:
209,240,30205,2,0,B|255:261|255:261|265:284|265:284|312:307,1,121.36,0|8,1:2|0:3,0:2:0:0:
425,381,30719,1,2,0:2:0:0:
424,380,30890,2,0,P|402:360|392:331,1,60.6800000000001,2|0,0:2|1:2,0:2:0:0:
508,256,31233,2,0,P|498:284|476:304,1,60.6800000000001,10|2,0:3|0:2,0:0:0:0:
393,232,31576,6,0,P|412:174|433:117,2,121.36,0|8|0,1:2|0:3|0:2,0:2:0:0:
318,153,32433,5,0,1:2:0:0:
318,153,32605,2,0,B|272:174|272:174|262:197|262:197|215:220,1,121.36,10|0,0:3|0:2,0:2:0:0:
141,252,33119,1,0,1:2:0:0:
207,347,33290,2,0,P|226:289|247:232,1,121.36,10|0,0:3|0:2,0:2:0:0:
360,309,33805,2,0,L|303:328,2,60.6800000000001,0|10|2,1:2|0:3|0:2,0:0:0:0:
417,384,34319,6,0,P|458:342|453:285,1,121.36,0|10,1:2|0:3,0:2:0:0:
385,194,34833,1,2,0:2:0:0:
358,274,35005,2,0,L|377:217,1,60.6800000000001,2|0,0:2|1:2,0:2:0:0:
455,143,35347,2,0,P|466:171|474:200,1,60.6800000000001,10|0,0:3|0:2,0:2:0:0:
373,99,35690,6,0,P|411:55|469:56,1,121.36,2|10,1:2|0:3,0:2:0:0:
371,191,36205,2,0,P|315:170|257:151,1,121.36,2|0,0:2|1:2,0:2:0:0:
228,48,36719,2,0,P|257:58|286:67,1,60.6800000000001,10|0,0:3|0:2,0:2:0:0:
171,118,37062,5,0,1:2:0:0:
26,9,37405,2,0,B|0:53|0:53|28:120,1,121.36,10|0,0:3|0:2,0:2:0:0:
96,60,37919,1,0,1:2:0:0:
1,189,38090,6,0,P|57:168|115:149,1,121.36,10|0,0:3|0:2,0:2:0:0:
210,42,38605,1,0,1:2:0:0:
210,42,38776,2,0,P|199:70|191:99,1,60.6800000000001,10|0,0:3|0:2,0:2:0:0:
89,5,39119,2,0,P|100:33|108:62,1,60.6800000000001,2|0,0:2|1:2,0:0:0:0:
46,209,39462,1,10,0:3:0:0:
116,148,39633,1,2,0:2:0:0:
148,256,39805,6,0,L|167:313,1,60.6800000000001,2|2,1:2|0:2,0:2:0:0:
27,266,40147,2,0,L|46:209,1,60.6800000000001,10|0,0:3|0:2,0:2:0:0:
41,376,40490,2,0,P|97:355|155:336,1,121.36,2|10,0:2|0:3,0:0:0:0:
345,345,41176,6,0,P|316:356|287:364,1,60.6800000000001,2|2,1:2|0:0,0:2:0:0:
316,264,41519,2,0,P|325:234|336:206,1,60.6800000000001,10|0,0:3|0:2,0:2:0:0:
459,262,41862,2,0,P|430:270|402:281,1,60.6800000000001,2|0,0:2|1:2,0:2:0:0:
333,123,42205,6,0,P|392:131|422:181,2,121.36,10|0|8,0:3|1:2|0:3,0:2:0:0:
219,284,43233,1,2,0:2:0:0:
219,284,43405,1,0,1:2:0:0:
153,213,43576,6,0,P|135:270|113:327,1,121.36,10|0,0:3|0:2,0:2:0:0:
259,201,44090,1,0,1:2:0:0:
259,201,44262,2,0,P|241:258|219:315,1,121.36,10|2,0:3|0:2,0:2:0:0:
130,212,44776,5,0,1:2:0:0:
44,353,44947,1,10,0:3:0:0:
128,308,45119,1,2,0:2:0:0:
52,178,45290,6,0,L|5:40,1,132.840003243164,6|0,1:2|0:2,0:2:0:0:
90,8,45976,2,0,B|140:17|140:17|161:49|161:49|210:58,1,132.840003243164,2|0,0:2|0:2,0:2:0:0:
272,6,46662,2,0,P|311:54|278:107,1,132.840003243164,2|0,0:2|0:2,0:2:0:0:
213,156,47347,2,0,L|228:197,1,44.2800010810547,2|0,0:2|0:0,0:0:0:0:
291,242,47690,2,0,L|277:283,1,44.2800010810547,2|0,0:2|0:0,0:2:0:0:
256,364,48033,5,0,0:2:0:0:
256,364,48376,1,2,0:2:0:0:
366,289,48719,2,0,L|407:304,1,44.2800010810547,2|2,0:2|0:2,0:2:0:0:
463,366,49062,2,0,P|489:330|487:287,1,88.5600021621094,2|0,0:2|0:2,0:2:0:0:
430,160,49747,1,2,0:2:0:0:
430,160,50090,2,0,L|471:175,2,44.2800010810547,2|2|2,0:2|0:2|0:2,0:2:0:0:
353,138,50605,6,0,L|270:109,1,88.5600021621094,2|0,0:2|0:2,0:2:0:0:
194,86,51119,1,2,0:2:0:0:
74,46,51462,2,0,L|60:88,1,44.2800010810547,2|0,0:2|0:2,0:2:0:0:
26,173,51805,2,0,L|41:214,1,44.2800010810547,2|0,0:2|0:2,0:2:0:0:
130,272,52147,2,0,L|5:315,2,132.840003243164,2|2|2,0:2|0:2|0:2,0:2:0:0:
240,176,53519,5,0,0:2:0:0:
240,176,53862,1,2,0:2:0:0:
164,145,54205,2,0,L|123:160,1,44.2800010810547,2|2,0:2|0:2,0:2:0:0:
50,197,54547,2,0,P|31:235|40:278,1,88.5600021621094,2|0,0:2|0:2,0:2:0:0:
94,382,55233,1,2,0:2:0:0:
200,305,55576,2,0,L|215:346,1,44.2800010810547,2|2,0:2|0:2,0:2:0:0:
144,209,55919,2,0,L|129:250,1,44.2800010810547,2|2,0:2|0:2,0:2:0:0:
34,384,56262,6,0,B|0:297|0:297|32:245,1,154.16,6|0,1:2|1:2,0:2:0:0:
131,377,56776,1,0,0:2:0:0:
204,257,56947,2,0,P|166:267|131:282,1,77.0800000000002,2|0,1:2|0:2,0:2:0:0:
207,154,57290,2,0,P|244:164|279:179,1,77.0800000000002,0|0,1:2|0:2,0:2:0:0:
109,49,57633,6,0,P|72:113|107:178,1,154.16,2|0,1:2|1:2,0:0:0:0:
289,76,58147,1,2,0:2:0:0:
201,46,58319,2,0,P|236:61|273:71,1,77.0800000000002,0|0,1:2|0:2,0:0:0:0:
406,0,58662,2,0,P|392:35|402:72,1,77.0800000000002,2|0,1:2|0:2,0:2:0:0:
509,153,59005,6,0,L|428:180,1,77.0800000000002,0|0,1:2|0:2,0:0:0:0:
324,270,59347,2,0,L|396:295,1,77.0800000000002,0|0,1:2|0:2,0:2:0:0:
272,346,59690,1,0,1:2:0:0:
347,187,59862,1,0,0:2:0:0:
240,264,60033,1,0,1:2:0:0:
177,131,60205,1,0,0:2:0:0:
137,324,60376,5,2,1:2:0:0:
240,264,60547,2,0,L|95:212,1,154.16,2|0,0:2|0:2,0:2:0:0:
137,324,61062,1,2,1:2:0:0:
313,215,61233,2,0,P|330:287|283:345,1,154.16,2|0,0:2|0:2,0:2:0:0:
417,242,61747,6,0,P|454:254|489:267,1,77.0800000000002,2|2,1:2|1:2,0:0:0:0:
312,122,62090,2,0,P|276:135|240:147,1,77.0800000000002,0|0,1:2|1:2,0:0:0:0:
451,11,62433,1,2,1:2:0:0:
397,148,62605,1,2,1:2:0:0:
252,8,62776,1,0,1:2:0:0:
368,53,62947,1,0,1:2:0:0:
219,206,63119,6,0,P|232:169|245:133,1,77.0800000000002,2|2,1:2|1:2,0:0:0:0:
82,27,63462,2,0,P|95:63|107:100,1,77.0800000000002,0|0,1:2|1:2,0:0:0:0:
3,220,63805,1,2,1:2:0:0:
123,327,63976,1,0,1:2:0:0:
219,206,64147,1,2,1:2:0:0:
107,99,64319,1,0,1:2:0:0:
219,206,64490,6,0,L|256:194,3,38.5400000000001,0|0|0|0,1:2|1:2|1:2|1:2,0:0:0:0:
301,275,64833,1,0,1:2:0:0:
332,251,64919,1,0,1:2:0:0:
349,217,65005,1,0,1:2:0:0:
349,179,65090,1,0,1:2:0:0:
334,144,65176,2,0,L|371:132,3,38.5400000000001,0|0|0|0,1:2|1:2|1:2|1:2,0:0:0:0:
475,190,65519,2,0,L|439:202,3,38.5400000000001,0|0|0|0,1:2|1:2|1:2|1:2,0:0:0:0:
461,101,65862,5,4,0:3:0:0:
358,228,66033,1,4,0:1:0:0:
434,291,66205,1,4,0:3:0:0:
358,228,66376,1,4,0:1:0:0:
286,384,66547,2,0,P|275:345|261:311,1,77.0800000000002,4|4,0:3|0:1,0:0:0:0:
411,155,66890,2,0,P|397:190|385:231,1,78.72,0|0,0:2|0:2,0:2:0:0:
302,238,67233,6,0,B|366:259|366:259|385:292|385:292|455:313,2,170.56,6|10|2,1:2|0:2|0:2,0:2:0:0:
309,361,68090,1,2,1:2:0:0:
448,222,68262,2,0,P|465:183|453:144,1,85.2800000000001,10|0,0:2|0:2,0:2:0:0:
213,305,68605,5,2,1:2:0:0:
135,160,68776,2,0,L|221:189,1,85.2800000000001,2|10,0:2|0:2,0:0:0:0:
117,21,69119,1,2,3:2:0:0:
117,21,69205,1,0,3:2:0:0:
117,21,69290,1,2,3:2:0:0:
33,202,69462,1,2,1:2:0:0:
201,78,69633,2,0,P|218:39|206:0,1,85.2800000000001,10|2,0:2|0:2,0:0:0:0:
33,202,69976,6,0,B|73:166|123:149|123:149|155:177|189:183,2,170.56,2|10|2,1:2|0:2|0:2,0:2:0:0:
206,300,70833,1,2,1:2:0:0:
85,341,71005,2,0,L|113:260,1,85.2800000000001,10|0,0:2|0:2,0:2:0:0:
267,367,71347,6,0,P|327:386|386:363,1,127.92,0|0,1:2|0:0,0:2:0:0:
432,301,71690,2,0,P|476:314|512:328,1,85.2800000000001,10|0,0:2|3:2,0:2:0:0:
412,108,72033,1,2,3:2:0:0:
327,298,72205,1,2,1:2:0:0:
327,298,72376,1,10,0:2:0:0:
489,198,72547,1,2,0:2:0:0:
298,54,72719,6,0,L|355:220,2,170.56,0|10|2,1:2|0:2|0:2,0:2:0:0:
243,175,73576,1,2,1:2:0:0:
443,52,73747,2,0,L|415:133,1,85.2800000000001,10|0,0:2|0:2,0:2:0:0:
348,297,74090,5,2,1:2:0:0:
220,160,74262,2,0,L|301:188,1,85.2800000000001,2|10,0:2|0:2,0:0:0:0:
211,20,74605,1,2,3:2:0:0:
211,20,74690,1,0,3:2:0:0:
211,20,74776,1,2,3:2:0:0:
114,212,74947,1,2,1:2:0:0:
0,79,75119,2,0,P|39:62|78:74,1,85.2800000000001,10|2,0:2|0:2,0:0:0:0:
165,278,75462,6,0,P|89:249|4:222,2,170.56,2|10|2,1:2|0:2|0:2,0:2:0:0:
46,373,76319,1,2,1:2:0:0:
95,226,76490,2,0,L|123:145,1,85.2800000000001,10|0,0:2|0:2,0:2:0:0:
236,374,76833,6,0,L|278:253,1,127.92,0|0,1:2|0:0,0:2:0:0:
294,229,77176,2,0,L|322:309,1,85.2800000000001,2|0,1:2|0:2,0:2:0:0:
512,153,77519,1,2,1:2:0:0:
417,332,77690,1,2,1:2:0:0:
417,332,77776,1,0,1:2:0:0:
417,332,77862,1,10,0:2:0:0:
259,147,78033,1,2,1:2:0:0:
393,26,78205,6,0,P|424:103|391:179,2,170.56,6|10|2,1:2|0:2|0:2,0:2:0:0:
181,101,79062,1,2,1:2:0:0:
285,136,79233,2,0,L|199:107,1,85.2800000000001,10|0,0:2|0:2,0:2:0:0:
286,27,79576,5,2,1:2:0:0:
139,196,79747,2,0,P|104:172|93:133,1,85.2800000000001,2|10,0:2|0:2,0:0:0:0:
264,252,80090,1,2,3:2:0:0:
264,252,80176,1,0,3:2:0:0:
264,252,80262,1,2,3:2:0:0:
164,61,80433,1,2,1:2:0:0:
38,254,80605,2,0,L|124:225,1,85.2800000000001,10|2,0:2|0:2,0:0:0:0:
273,382,80947,6,0,B|232:340|239:279|239:279|282:228,2,170.56,2|10|2,1:2|0:2|0:2,0:2:0:0:
408,198,81805,1,2,1:2:0:0:
498,317,81976,2,0,P|460:332|420:318,1,85.2800000000001,10|0,0:2|0:2,0:2:0:0:
275,113,82319,6,0,P|256:173|279:232,1,127.92,0|0,1:2|0:0,0:2:0:0:
340,278,82662,2,0,P|327:322|313:358,1,85.2800000000001,10|0,0:2|3:2,0:2:0:0:
383,170,83005,1,2,3:2:0:0:
194,281,83176,1,2,1:2:0:0:
194,281,83347,1,10,0:2:0:0:
307,93,83519,1,2,0:2:0:0:
459,289,83690,6,0,L|293:232,2,170.56,0|10|2,1:2|0:2|0:2,0:2:0:0:
397,140,84547,1,2,1:2:0:0:
244,384,84719,2,0,L|325:356,1,85.2800000000001,10|0,0:2|0:2,0:2:0:0:
188,190,85062,5,2,1:2:0:0:
80,362,85233,2,0,P|66:322|81:283,1,85.2800000000001,2|10,0:2|0:2,0:0:0:0:
232,383,85576,1,2,3:2:0:0:
232,383,85662,1,0,3:2:0:0:
232,383,85747,1,2,3:2:0:0:
91,190,85919,1,2,1:2:0:0:
271,272,86090,2,0,L|299:191,1,85.2800000000001,10|2,0:2|0:2,0:0:0:0:
185,33,86433,6,0,B|121:54|121:54|102:87|102:87|32:108,2,170.56,2|10|2,1:2|0:2|0:2,0:2:0:0:
102,192,87290,1,2,1:2:0:0:
283,81,87462,2,0,P|297:41|282:2,1,85.2800000000001,10|2,0:2|0:2,0:0:0:0:
201,216,87805,5,2,1:2:0:0:
384,86,87976,1,2,0:2:0:0:
295,307,88147,1,2,1:2:0:0:
160,80,88319,1,2,0:2:0:0:
353,213,88490,1,2,1:2:0:0:
150,353,88662,1,2,1:2:0:0:
150,353,88747,1,0,1:2:0:0:
150,353,88833,2,0,L|182:260,1,85.2800000000001,10|2,0:2|1:2,0:0:0:0:
264,24,89176,6,0,P|350:39|399:115,1,180.4,4|0,1:2|1:2,0:2:0:0:
498,144,90205,2,0,P|485:178|472:221,1,82,8|0,0:2|0:2,0:2:0:0:
457,252,90462,5,0,0:0:0:0:
457,252,90547,2,0,P|471:286|484:329,1,82,2|0,1:2|0:2,0:2:0:0:
283,245,90890,2,0,P|322:230|361:218,1,82,8|0,0:2|3:2,0:0:0:0:
378,358,91233,1,2,3:2:0:0:
281,221,91405,1,0,1:2:0:0:
138,384,91576,2,0,P|165:330|141:275,1,123,10|0,0:2|3:2,0:0:0:0:
91,221,91919,6,0,P|106:182|118:143,1,82,2|0,1:2|0:2,0:2:0:0:
0,290,92262,1,8,0:2:0:0:
192,202,92433,1,0,3:2:0:0:
192,202,92519,1,0,3:2:0:0:
192,202,92605,1,0,3:2:0:0:
75,329,92776,1,0,1:2:0:0:
4,189,92947,2,0,P|16:149|31:111,1,82,8|0,0:2|3:2,0:2:0:0:
203,226,93290,6,0,B|142:249|142:249|129:286|129:286|63:312,1,164,0|8,1:2|0:2,0:2:0:0:
119,143,93805,1,0,3:2:0:0:
119,143,93890,1,0,3:2:0:0:
119,143,93976,2,0,L|135:98,2,41,0|0|0,3:2|3:2|1:2,0:0:0:0:
161,24,94319,1,8,0:2:0:0:
284,157,94490,5,0,3:2:0:0:
284,157,94576,1,0,3:2:0:0:
284,157,94662,2,0,P|363:127|448:100,2,164,2|10|2,1:2|0:2|3:2,0:2:0:0:
328,48,95519,1,0,1:2:0:0:
435,190,95690,2,0,P|448:228|433:265,1,82,10|0,0:2|3:2,0:2:0:0:
262,347,96033,6,0,P|277:308|289:269,1,82,2|0,1:2|0:2,0:2:0:0:
456,378,96376,2,0,P|418:363|379:351,1,82,8|0,0:2|3:2,0:0:0:0:
178,284,96719,1,2,3:2:0:0:
178,284,96805,1,0,3:2:0:0:
178,284,96890,1,0,1:2:0:0:
250,384,97062,1,10,0:2:0:0:
319,269,97233,1,0,3:2:0:0:
106,345,97405,6,0,P|79:291|103:236,1,123,2|0,1:2|0:0,0:2:0:0:
153,181,97747,2,0,P|138:142|126:103,1,82,8|0,0:2|3:2,0:0:0:0:
114,89,98005,1,0,3:2:0:0:
114,89,98090,1,0,3:2:0:0:
252,174,98262,1,0,1:2:0:0:
198,19,98433,2,0,P|213:57|225:96,1,82,8|0,0:2|3:2,0:2:0:0:
395,149,98776,6,0,P|408:111|393:74,1,82,0|0,1:2|0:2,0:2:0:0:
252,174,99119,2,0,P|237:211|250:249,1,82,0|0,1:2|0:2,0:2:0:0:
406,357,99462,1,0,1:2:0:0:
344,266,99633,1,0,1:2:0:0:
344,266,99719,1,0,1:2:0:0:
344,266,99805,1,8,0:2:0:0:
249,375,99976,1,0,1:2:0:0:
435,279,100147,6,0,P|473:294|512:306,1,82,2|0,1:2|0:0,0:2:0:0:
390,135,100490,2,0,P|351:147|313:162,1,82,10|0,0:2|3:2,0:0:0:0:
494,74,100833,1,2,3:2:0:0:
364,234,101005,1,0,1:2:0:0:
265,0,101176,2,0,P|238:54|262:109,1,123,10|0,0:2|3:2,0:2:0:0:
312,163,101519,6,0,P|297:202|285:241,1,82,2|0,1:2|0:2,0:2:0:0:
345,84,101862,1,8,0:2:0:0:
196,230,102033,1,0,3:2:0:0:
196,230,102119,1,0,3:2:0:0:
196,230,102205,1,2,3:2:0:0:
301,343,102376,1,0,1:2:0:0:
111,214,102547,2,0,P|121:174|153:151,1,82,10|0,0:2|3:2,0:0:0:0:
67,369,102890,6,0,P|144:339|222:314,1,164,2|8,1:2|0:2,0:2:0:0:
399,384,103405,1,0,3:2:0:0:
399,384,103490,1,0,3:2:0:0:
399,384,103576,2,0,L|415:339,2,41,0|0|0,3:2|3:2|1:2,0:2:0:0:
325,253,103919,1,8,0:2:0:0:
502,375,104090,5,0,3:2:0:0:
502,375,104176,1,0,3:2:0:0:
502,375,104262,2,0,P|537:305|498:225,2,164,0|8|0,1:2|0:2|3:2,0:2:0:0:
410,201,105119,1,0,1:2:0:0:
324,342,105290,2,0,P|363:327|402:315,1,82,8|0,0:2|3:2,0:0:0:0:
190,243,105633,6,0,P|177:281|192:318,1,82,2|0,1:2|0:2,0:2:0:0:
308,214,105976,2,0,P|324:176|311:138,1,82,10|0,0:2|3:2,0:0:0:0:
146,0,106319,1,2,3:2:0:0:
146,0,106405,1,0,3:2:0:0:
146,0,106490,1,0,1:2:0:0:
202,127,106662,1,10,0:2:0:0:
300,0,106833,1,0,3:2:0:0:
119,84,107005,6,0,P|92:138|116:193,1,123,2|0,1:2|0:0,0:2:0:0:
166,248,107347,2,0,P|151:287|139:326,1,82,8|0,0:2|3:2,0:0:0:0:
127,340,107605,1,0,3:2:0:0:
127,340,107690,1,2,0:2:0:0:
272,224,107862,1,0,1:2:0:0:
334,355,108033,2,0,P|295:340|256:328,1,82,10|0,0:2|3:2,0:0:0:0:
106,173,108376,5,0,1:2:0:0:
298,128,108547,1,0,1:2:0:0:
99,61,108719,2,0,P|50:69|17:82,1,82,0|0,1:2|1:2,0:0:0:0:
88,266,109062,5,0,1:2:0:0:
217,52,109233,1,0,1:2:0:0:
288,270,109405,1,0,1:2:0:0:
119,81,109576,1,0,1:2:0:0:
168,313,109747,5,0,1:2:0:0:
144,344,109833,1,0,1:2:0:0:
110,361,109919,1,0,1:2:0:0:
72,361,110005,1,0,1:2:0:0:
37,346,110090,2,0,L|24:386,3,41,0|0|0|0,1:2|1:2|1:2|1:2,0:0:0:0:
89,176,110433,5,0,1:2:0:0:
183,326,110605,1,0,1:2:0:0:
183,326,110690,1,0,1:2:0:0:
183,326,110776,1,8,0:2:0:0:
8,214,110947,1,0,1:2:0:0:
179,47,111119,1,6,1:2:0:0:
256,192,111205,12,2,113862,0:2:0:0:
370,0,122090,6,0,P|394:62|414:125,1,132.84,2|0,0:2|0:2,0:2:0:0:
512,104,122776,2,0,P|489:166|469:229,1,132.84,2|0,0:2|0:2,0:2:0:0:
505,309,123462,2,0,P|439:312|394:262,1,132.84,2|0,0:2|0:2,0:2:0:0:
356,197,124147,1,2,0:2:0:0:
215,346,124490,6,0,B|157:199|277:226|217:67,1,278.8,2|0,0:2|0:2,0:2:0:0:
467,381,126890,5,2,0:2:0:0:
467,381,127062,2,0,L|452:335,1,44.28,2|0,0:2|0:2,0:2:0:0:
421,267,127405,2,0,L|393:183,1,88.5600000000001,2|0,0:2|0:2,0:2:0:0:
361,111,127919,1,2,0:2:0:0:
249,248,128262,1,2,0:2:0:0:
115,132,128605,1,2,0:2:0:0:
239,5,128947,6,0,P|257:44|243:85,1,88.5600000000001,2|0,0:2|0:2,0:2:0:0:
310,130,129462,2,0,P|282:162|239:165,1,88.5600000000001,2|0,0:2|0:2,0:2:0:0:
166,118,129976,2,0,P|215:240|259:381,1,275.52,2|0,0:2|0:2,0:2:0:0:
512,91,133062,6,0,P|488:153|468:216,1,132.84,2|0,0:2|0:2,0:2:0:0:
370,195,133747,2,0,P|393:257|413:320,1,132.84,2|0,0:2|0:2,0:2:0:0:
345,356,134433,2,0,P|307:340|262:327,1,88.5600000000001,2|0,0:2|0:2,0:2:0:0:
213,264,134947,2,0,P|175:279|130:292,1,88.5600000000001,2|0,0:2|0:2,0:2:0:0:
57,259,135462,1,2,0:2:0:0:
180,365,135805,6,0,P|231:219|347:117,1,311.6,0|0,0:0|0:2,0:0:0:0:
497,57,137862,1,0,0:0:0:0:
438,149,138205,1,0,0:0:0:0:
344,29,138547,2,0,L|324:87,2,62.32
410,151,139576,1,0,0:0:0:0:
227,72,139919,5,2,0:2:0:0:
227,72,140090,2,0,P|245:112|258:158,1,88.5600000000001,2|0,0:2|0:2,0:2:0:0:
272,231,140605,1,2,0:2:0:0:
346,87,140947,2,0,P|359:44|377:4,1,88.5600000000001,2|0,0:2|0:2,0:2:0:0:
512,206,141633,6,0,B|429:74|199:77|159:261|312:323|379:252,1,493.639999999999,2|0,0:2|0:2,0:2:0:0:
