osu file format v14

[General]
AudioFilename: audio.mp3
AudioLeadIn: 0
PreviewTime: 56254
Countdown: 0
SampleSet: Normal
StackLeniency: 0.7
Mode: 3
LetterboxInBreaks: 0
SpecialStyle: 0
WidescreenStoryboard: 1

[Editor]
DistanceSpacing: 1.1
BeatDivisor: 2
GridSize: 4
TimelineZoom: 0.7999998

[Metadata]
Title:We Won't Be Alone (feat. Laura Brehm)
TitleUnicode:We Won't Be Alone (feat. Laura Brehm)
Artist:Feint
ArtistUnicode:Feint
Creator:-NoName-
Version:Easy
Source:
Tags:dnb monstercat edm drum and bass wont MCS375 electronic english n dance music d&b
BeatmapID:2217316
BeatmapSetID:1048385

[Difficulty]
HPDrainRate:7
CircleSize:4
OverallDifficulty:7
ApproachRate:5
SliderMultiplier:1.4
SliderTickRate:1

[Events]
//Background and Video events
0,0,"anime_couple.jpg",0,0
//Break Periods
//Storyboard Layer 0 (Background)
//Storyboard Layer 1 (Fail)
//Storyboard Layer 2 (Pass)
//Storyboard Layer 3 (Foreground)
//Storyboard Layer 4 (Overlay)
//Storyboard Sound Samples

[TimingPoints]
1397,342.857142857143,4,1,1,60,1,0
56254,-100,4,1,1,85,0,0
67225,-100,4,1,1,85,0,1
89168,-100,4,1,1,85,0,0
111111,-100,4,1,1,60,0,0
144025,-100,4,1,1,85,0,0
154997,-100,4,1,1,85,0,1
176939,-100,4,1,1,85,0,0

[HitObjects]
64,192,23339,5,0,0:0:0:0:
320,192,23682,1,0,0:0:0:0:
320,192,24368,1,0,0:0:0:0:
64,192,24711,1,0,0:0:0:0:
448,192,25054,1,0,0:0:0:0:
448,192,25739,1,0,0:0:0:0:
64,192,26082,1,0,0:0:0:0:
320,192,26425,1,0,0:0:0:0:
320,192,27111,1,0,0:0:0:0:
320,192,27797,1,0,0:0:0:0:
320,192,28482,1,0,0:0:0:0:
64,192,28825,1,0,0:0:0:0:
320,192,29168,1,0,0:0:0:0:
320,192,29854,1,0,0:0:0:0:
64,192,30197,1,0,0:0:0:0:
448,192,30539,1,0,0:0:0:0:
448,192,31225,1,0,0:0:0:0:
64,192,31568,1,0,0:0:0:0:
320,192,31911,1,0,0:0:0:0:
320,192,32597,1,0,0:0:0:0:
320,192,33282,1,0,0:0:0:0:
320,192,33968,1,0,0:0:0:0:
192,192,34311,1,0,0:0:0:0:
448,192,34654,1,0,0:0:0:0:
448,192,35339,1,0,0:0:0:0:
192,192,35682,1,0,0:0:0:0:
320,192,36025,1,0,0:0:0:0:
320,192,36711,1,0,0:0:0:0:
192,192,37054,1,0,0:0:0:0:
448,192,37397,1,0,0:0:0:0:
448,192,38082,1,0,0:0:0:0:
448,192,38768,1,0,0:0:0:0:
448,192,39454,1,0,0:0:0:0:
64,192,39797,1,0,0:0:0:0:
320,192,40139,1,0,0:0:0:0:
320,192,40825,1,0,0:0:0:0:
64,192,41168,1,0,0:0:0:0:
448,192,41511,1,0,0:0:0:0:
448,192,42197,1,0,0:0:0:0:
64,192,42539,1,0,0:0:0:0:
320,192,42882,1,0,0:0:0:0:
320,192,43568,1,0,0:0:0:0:
320,192,44254,1,0,0:0:0:0:
448,192,44939,1,0,0:0:0:0:
320,192,45282,128,0,46654:1:0:0:40:soft-hitfinish.wav
448,192,46654,128,0,48025:0:0:0:0:
192,192,48025,128,0,50768:0:0:0:0:
320,192,50768,128,0,52139:0:0:0:0:
448,192,52139,128,0,53511:0:0:0:0:
192,192,53511,128,0,56254:0:0:0:0:
448,192,56254,1,0,1:0:0:100:normal-hitwhistle.wav
64,192,56597,1,0,1:0:0:100:normal-hitwhistle.wav
448,192,56939,1,0,1:0:0:100:normal-hitwhistle.wav
64,192,57282,1,0,1:0:0:100:normal-hitwhistle.wav
320,192,57625,1,0,1:0:0:100:normal-hitwhistle.wav
192,192,57968,1,0,1:0:0:100:normal-hitwhistle.wav
320,192,58311,1,0,1:0:0:100:normal-hitwhistle.wav
192,192,58654,1,0,1:0:0:100:normal-hitwhistle.wav
448,192,58997,1,0,1:0:0:100:normal-hitwhistle.wav
64,192,59339,1,0,1:0:0:100:normal-hitwhistle.wav
448,192,59682,1,0,1:0:0:100:normal-hitwhistle.wav
64,192,60025,1,0,1:0:0:100:normal-hitwhistle.wav
320,192,60368,1,0,1:0:0:100:normal-hitwhistle.wav
192,192,60711,1,0,1:0:0:100:normal-hitwhistle.wav
320,192,61054,1,0,1:0:0:100:normal-hitwhistle.wav
192,192,61397,1,0,1:0:0:100:normal-hitwhistle.wav
448,192,61739,1,0,1:0:0:100:normal-hitwhistle.wav
64,192,62082,1,0,1:0:0:100:normal-hitwhistle.wav
320,192,62425,1,0,1:0:0:100:normal-hitwhistle.wav
192,192,62768,1,0,1:0:0:100:normal-hitwhistle.wav
448,192,63111,1,0,1:0:0:100:normal-hitwhistle.wav
64,192,63454,1,0,1:0:0:100:normal-hitwhistle.wav
320,192,63797,1,0,1:0:0:100:normal-hitwhistle.wav
192,192,64139,1,0,1:0:0:100:normal-hitwhistle.wav
448,192,64482,1,0,1:0:0:100:normal-hitwhistle.wav
320,192,64654,1,0,1:0:0:90:normal-hitwhistle.wav
192,192,64825,1,0,1:0:0:100:normal-hitwhistle.wav
64,192,64997,1,0,1:0:0:70:normal-hitwhistle.wav
448,192,65168,128,0,65511:0:0:0:60:normal-hitwhistle.wav
64,192,65511,128,0,65854:0:0:0:40:normal-hitwhistle.wav
448,192,65854,128,0,66882:1:0:0:50:drum-hitclap.wav
64,192,67225,1,0,1:0:0:100:normal-hitwhistle.wav
192,192,67568,1,0,1:0:0:100:soft-hitclap.wav
448,192,67568,1,0,0:0:0:0:
64,192,68082,1,0,1:0:0:100:normal-hitwhistle.wav
192,192,68254,1,0,1:0:0:100:soft-hitclap.wav
448,192,68254,1,0,0:0:0:0:
320,192,68597,1,0,1:0:0:100:normal-hitwhistle.wav
64,192,68939,1,0,1:0:0:100:soft-hitclap.wav
448,192,68939,1,0,0:0:0:0:
320,192,69454,1,0,1:0:0:100:normal-hitwhistle.wav
64,192,69625,1,0,1:0:0:100:soft-hitclap.wav
448,192,69625,1,0,0:0:0:0:
192,192,69968,1,0,1:0:0:100:normal-hitwhistle.wav
64,192,70311,1,0,1:0:0:100:soft-hitclap.wav
320,192,70311,1,0,0:0:0:0:
192,192,70825,1,0,1:0:0:100:normal-hitwhistle.wav
64,192,70997,1,0,1:0:0:100:soft-hitclap.wav
320,192,70997,1,0,0:0:0:0:
192,192,71339,1,0,1:0:0:100:normal-hitwhistle.wav
320,192,71682,1,0,1:0:0:100:soft-hitclap.wav
448,192,71682,1,0,0:0:0:0:
192,192,72197,1,0,1:0:0:100:normal-hitwhistle.wav
320,192,72368,1,0,1:0:0:100:soft-hitclap.wav
448,192,72368,1,0,0:0:0:0:
64,192,72711,1,0,1:0:0:100:normal-hitwhistle.wav
192,192,73054,1,0,1:0:0:100:soft-hitclap.wav
448,192,73054,1,0,0:0:0:0:
64,192,73568,1,0,1:0:0:100:normal-hitwhistle.wav
192,192,73739,1,0,1:0:0:100:soft-hitclap.wav
448,192,73739,1,0,0:0:0:0:
320,192,74082,1,0,1:0:0:100:normal-hitwhistle.wav
64,192,74425,1,0,1:0:0:100:soft-hitclap.wav
448,192,74425,1,0,0:0:0:0:
320,192,74939,1,0,1:0:0:100:normal-hitwhistle.wav
64,192,75111,1,0,1:0:0:100:soft-hitclap.wav
448,192,75111,1,0,0:0:0:0:
192,192,75454,1,0,1:0:0:100:normal-hitwhistle.wav
64,192,75797,1,0,1:0:0:100:soft-hitclap.wav
320,192,75797,1,0,0:0:0:0:
192,192,76311,1,0,1:0:0:100:normal-hitwhistle.wav
64,192,76482,1,0,1:0:0:100:soft-hitclap.wav
320,192,76482,1,0,0:0:0:0:
448,192,76825,1,0,1:0:0:100:normal-hitwhistle.wav
64,192,77168,1,0,1:0:0:100:normal-hitwhistle.wav
448,192,77511,1,0,1:0:0:100:normal-hitwhistle.wav
320,192,77682,1,0,1:0:0:100:normal-hitwhistle.wav
64,192,77854,1,0,1:0:0:100:soft-hitclap.wav
192,192,77854,1,0,0:0:0:0:
448,192,78197,1,0,1:0:0:100:normal-hitwhistle.wav
192,192,78539,1,0,1:0:0:100:soft-hitclap.wav
320,192,78539,1,0,0:0:0:0:
64,192,79054,1,0,1:0:0:100:normal-hitwhistle.wav
192,192,79225,1,0,1:0:0:100:soft-hitclap.wav
320,192,79225,1,0,0:0:0:0:
64,192,79568,1,0,1:0:0:100:normal-hitwhistle.wav
320,192,79911,1,0,1:0:0:100:soft-hitclap.wav
448,192,79911,1,0,0:0:0:0:
64,192,80425,1,0,1:0:0:100:normal-hitwhistle.wav
320,192,80597,1,0,1:0:0:100:soft-hitclap.wav
448,192,80597,1,0,0:0:0:0:
192,192,80939,1,0,1:0:0:100:normal-hitwhistle.wav
64,192,81282,1,0,1:0:0:100:soft-hitclap.wav
320,192,81282,1,0,0:0:0:0:
192,192,81797,1,0,1:0:0:100:normal-hitwhistle.wav
64,192,81968,1,0,1:0:0:100:soft-hitclap.wav
320,192,81968,1,0,0:0:0:0:
192,192,82311,1,0,1:0:0:100:normal-hitwhistle.wav
320,192,82654,1,0,1:0:0:100:soft-hitclap.wav
448,192,82654,1,0,0:0:0:0:
192,192,83168,1,0,1:0:0:100:normal-hitwhistle.wav
320,192,83339,1,0,1:0:0:100:soft-hitclap.wav
448,192,83339,1,0,0:0:0:0:
64,192,83682,1,0,1:0:0:100:normal-hitwhistle.wav
192,192,84025,1,0,1:0:0:100:soft-hitclap.wav
320,192,84025,1,0,0:0:0:0:
64,192,84539,1,0,1:0:0:100:normal-hitwhistle.wav
192,192,84711,1,0,1:0:0:100:soft-hitclap.wav
320,192,84711,1,0,0:0:0:0:
64,192,85054,1,0,1:0:0:100:normal-hitwhistle.wav
320,192,85397,1,0,1:0:0:100:soft-hitclap.wav
448,192,85397,1,0,0:0:0:0:
64,192,85911,1,0,1:0:0:100:normal-hitwhistle.wav
320,192,86082,1,0,1:0:0:100:soft-hitclap.wav
448,192,86082,1,0,0:0:0:0:
192,192,86425,1,0,1:0:0:100:normal-hitwhistle.wav
64,192,86768,1,0,1:0:0:100:soft-hitclap.wav
448,192,86768,1,0,0:0:0:0:
192,192,87282,1,0,1:0:0:100:normal-hitwhistle.wav
64,192,87454,1,0,1:0:0:100:soft-hitclap.wav
448,192,87454,1,0,0:0:0:0:
320,192,87797,1,0,1:0:0:100:normal-hitwhistle.wav
64,192,88139,1,0,1:0:0:100:normal-hitwhistle.wav
320,192,88482,1,0,1:0:0:100:normal-hitwhistle.wav
192,192,88654,1,0,1:0:0:100:normal-hitwhistle.wav
64,192,88825,1,0,1:0:0:100:soft-hitclap.wav
448,192,88825,1,0,0:0:0:0:
192,192,89168,1,0,1:0:0:100:soft-hitfinish.wav
320,192,89168,1,0,0:0:0:0:
192,192,90025,1,0,1:0:0:100:normal-hitwhistle.wav
64,192,90197,1,0,1:0:0:100:soft-hitclap.wav
448,192,90197,1,0,0:0:0:0:
192,192,90539,1,0,1:0:0:100:normal-hitwhistle.wav
320,192,90882,1,0,1:0:0:100:soft-hitclap.wav
448,192,90882,1,0,0:0:0:0:
192,192,91397,1,0,1:0:0:100:normal-hitwhistle.wav
320,192,91568,1,0,1:0:0:100:soft-hitclap.wav
448,192,91568,1,0,0:0:0:0:
64,192,91911,1,0,1:0:0:100:normal-hitwhistle.wav
192,192,92254,1,0,1:0:0:100:soft-hitclap.wav
448,192,92254,1,0,0:0:0:0:
320,192,92768,1,0,1:0:0:100:normal-hitwhistle.wav
192,192,92939,1,0,1:0:0:100:soft-hitclap.wav
448,192,92939,1,0,0:0:0:0:
64,192,93282,1,0,1:0:0:100:normal-hitwhistle.wav
320,192,93625,1,0,1:0:0:100:soft-hitclap.wav
448,192,93625,1,0,0:0:0:0:
192,192,94139,1,0,1:0:0:100:normal-hitwhistle.wav
320,192,94311,1,0,1:0:0:100:soft-hitclap.wav
448,192,94311,1,0,0:0:0:0:
64,192,94654,1,0,1:0:0:100:normal-hitwhistle.wav
192,192,94997,1,0,1:0:0:100:soft-hitclap.wav
320,192,94997,1,0,0:0:0:0:
448,192,95511,1,0,1:0:0:100:normal-hitwhistle.wav
192,192,95682,1,0,1:0:0:100:soft-hitclap.wav
320,192,95682,1,0,0:0:0:0:
64,192,96025,1,0,1:0:0:100:normal-hitwhistle.wav
192,192,96368,1,0,1:0:0:100:soft-hitclap.wav
448,192,96368,1,0,0:0:0:0:
64,192,96882,1,0,1:0:0:100:normal-hitwhistle.wav
192,192,97054,1,0,1:0:0:100:soft-hitclap.wav
448,192,97054,1,0,0:0:0:0:
320,192,97397,1,0,1:0:0:100:normal-hitwhistle.wav
64,192,97739,1,0,1:0:0:100:soft-hitclap.wav
192,192,97739,1,0,0:0:0:0:
320,192,98254,1,0,1:0:0:100:normal-hitwhistle.wav
64,192,98425,1,0,1:0:0:100:soft-hitclap.wav
192,192,98425,1,0,0:0:0:0:
448,192,98768,1,0,1:0:0:100:normal-hitwhistle.wav
64,192,99111,1,0,1:0:0:100:normal-hitwhistle.wav
320,192,99454,1,0,1:0:0:100:normal-hitwhistle.wav
192,192,99625,1,0,1:0:0:100:normal-hitwhistle.wav
64,192,99797,1,0,1:0:0:100:soft-hitclap.wav
448,192,99797,1,0,0:0:0:0:
192,192,100139,1,0,1:0:0:100:normal-hitwhistle.wav
320,192,100482,1,0,1:0:0:100:soft-hitclap.wav
448,192,100482,1,0,0:0:0:0:
192,192,100997,1,0,1:0:0:100:normal-hitwhistle.wav
320,192,101168,1,0,1:0:0:100:soft-hitclap.wav
448,192,101168,1,0,0:0:0:0:
64,192,101511,1,0,1:0:0:100:normal-hitwhistle.wav
192,192,101854,1,0,1:0:0:100:soft-hitclap.wav
448,192,101854,1,0,0:0:0:0:
320,192,102368,1,0,1:0:0:100:normal-hitwhistle.wav
192,192,102539,1,0,1:0:0:100:soft-hitclap.wav
448,192,102539,1,0,0:0:0:0:
64,192,102882,1,0,1:0:0:100:normal-hitwhistle.wav
320,192,103225,1,0,1:0:0:100:soft-hitclap.wav
448,192,103225,1,0,0:0:0:0:
64,192,103739,1,0,1:0:0:100:normal-hitwhistle.wav
320,192,103911,1,0,1:0:0:100:soft-hitclap.wav
448,192,103911,1,0,0:0:0:0:
64,192,104254,1,0,1:0:0:100:normal-hitwhistle.wav
192,192,104597,1,0,1:0:0:100:soft-hitclap.wav
320,192,104597,1,0,0:0:0:0:
448,192,105111,1,0,1:0:0:100:normal-hitwhistle.wav
192,192,105282,1,0,1:0:0:100:soft-hitclap.wav
320,192,105282,1,0,0:0:0:0:
64,192,105625,1,0,1:0:0:100:normal-hitwhistle.wav
192,192,105968,1,0,1:0:0:100:soft-hitclap.wav
448,192,105968,1,0,0:0:0:0:
64,192,106482,1,0,1:0:0:100:normal-hitwhistle.wav
192,192,106654,1,0,1:0:0:100:soft-hitclap.wav
448,192,106654,1,0,0:0:0:0:
320,192,106997,1,0,1:0:0:100:normal-hitwhistle.wav
64,192,107339,1,0,1:0:0:100:soft-hitclap.wav
192,192,107339,1,0,0:0:0:0:
320,192,107854,1,0,1:0:0:100:normal-hitwhistle.wav
64,192,108025,1,0,1:0:0:100:soft-hitclap.wav
192,192,108025,1,0,0:0:0:0:
448,192,108368,1,0,1:0:0:100:normal-hitwhistle.wav
64,192,108711,1,0,1:0:0:100:soft-hitclap.wav
320,192,108711,1,0,0:0:0:0:
448,192,109225,1,0,1:0:0:100:normal-hitwhistle.wav
64,192,109397,1,0,1:0:0:100:soft-hitclap.wav
320,192,109397,1,0,0:0:0:0:
192,192,109739,1,0,1:0:0:100:normal-hitwhistle.wav
320,192,110082,1,0,1:0:0:100:normal-hitwhistle.wav
64,192,110425,1,0,1:0:0:100:normal-hitwhistle.wav
192,192,110597,1,0,1:0:0:100:normal-hitwhistle.wav
320,192,110768,1,0,1:0:0:100:soft-hitclap.wav
448,192,110768,1,0,0:0:0:0:
64,192,111111,1,0,1:0:0:100:soft-hitfinish.wav
320,192,111454,1,0,0:0:0:0:
320,192,112139,1,0,0:0:0:0:
64,192,112482,1,0,0:0:0:0:
448,192,112825,1,0,0:0:0:0:
448,192,113511,1,0,0:0:0:0:
64,192,113854,1,0,0:0:0:0:
320,192,114197,1,0,0:0:0:0:
320,192,114882,1,0,0:0:0:0:
320,192,115568,1,0,0:0:0:0:
320,192,116254,1,0,0:0:0:0:
64,192,116597,1,0,0:0:0:0:
320,192,116939,1,0,0:0:0:0:
320,192,117625,1,0,0:0:0:0:
64,192,117968,1,0,0:0:0:0:
448,192,118311,1,0,0:0:0:0:
448,192,118997,1,0,0:0:0:0:
64,192,119339,1,0,0:0:0:0:
320,192,119682,1,0,0:0:0:0:
320,192,120368,1,0,0:0:0:0:
320,192,121054,1,0,0:0:0:0:
320,192,121739,1,0,0:0:0:0:
192,192,122082,1,0,0:0:0:0:
448,192,122425,1,0,0:0:0:0:
448,192,123111,1,0,0:0:0:0:
192,192,123454,1,0,0:0:0:0:
320,192,123797,1,0,0:0:0:0:
320,192,124482,1,0,0:0:0:0:
192,192,124825,1,0,0:0:0:0:
448,192,125168,1,0,0:0:0:0:
448,192,125854,1,0,0:0:0:0:
448,192,126539,1,0,0:0:0:0:
448,192,127225,1,0,0:0:0:0:
64,192,127568,1,0,0:0:0:0:
320,192,127911,1,0,0:0:0:0:
320,192,128597,1,0,0:0:0:0:
64,192,128939,1,0,0:0:0:0:
448,192,129282,1,0,0:0:0:0:
448,192,129968,1,0,0:0:0:0:
64,192,130311,1,0,0:0:0:0:
320,192,130654,1,0,0:0:0:0:
320,192,131339,1,0,0:0:0:0:
320,192,132025,1,0,0:0:0:0:
448,192,132711,1,0,0:0:0:0:
320,192,133054,128,0,134425:1:0:0:40:soft-hitfinish.wav
448,192,134425,128,0,135797:0:0:0:0:
192,192,135797,128,0,138539:0:0:0:0:
320,192,138539,128,0,139911:0:0:0:0:
448,192,139911,128,0,141282:0:0:0:0:
192,192,141282,128,0,144025:0:0:0:0:
320,192,144025,1,0,1:0:0:100:normal-hitwhistle.wav
64,192,144368,1,0,1:0:0:100:normal-hitwhistle.wav
320,192,144711,1,0,1:0:0:100:normal-hitwhistle.wav
64,192,145054,1,0,1:0:0:100:normal-hitwhistle.wav
448,192,145397,1,0,1:0:0:100:normal-hitwhistle.wav
192,192,145739,1,0,1:0:0:100:normal-hitwhistle.wav
448,192,146082,1,0,1:0:0:100:normal-hitwhistle.wav
192,192,146425,1,0,1:0:0:100:normal-hitwhistle.wav
320,192,146768,1,0,1:0:0:100:normal-hitwhistle.wav
64,192,147111,1,0,1:0:0:100:normal-hitwhistle.wav
320,192,147454,1,0,1:0:0:100:normal-hitwhistle.wav
64,192,147797,1,0,1:0:0:100:normal-hitwhistle.wav
448,192,148139,1,0,1:0:0:100:normal-hitwhistle.wav
192,192,148482,1,0,1:0:0:100:normal-hitwhistle.wav
448,192,148825,1,0,1:0:0:100:normal-hitwhistle.wav
192,192,149168,1,0,1:0:0:100:normal-hitwhistle.wav
448,192,149511,1,0,1:0:0:100:normal-hitwhistle.wav
64,192,149854,1,0,1:0:0:100:normal-hitwhistle.wav
320,192,150197,1,0,1:0:0:100:normal-hitwhistle.wav
192,192,150539,1,0,1:0:0:100:normal-hitwhistle.wav
448,192,150882,1,0,1:0:0:100:normal-hitwhistle.wav
64,192,151225,1,0,1:0:0:100:normal-hitwhistle.wav
320,192,151568,1,0,1:0:0:100:normal-hitwhistle.wav
192,192,151911,1,0,1:0:0:100:normal-hitwhistle.wav
448,192,152254,1,0,1:0:0:100:normal-hitwhistle.wav
320,192,152425,1,0,1:0:0:90:normal-hitwhistle.wav
192,192,152597,1,0,1:0:0:100:normal-hitwhistle.wav
64,192,152768,1,0,1:0:0:70:normal-hitwhistle.wav
448,192,152939,128,0,153282:0:0:0:60:normal-hitwhistle.wav
64,192,153282,128,0,153625:0:0:0:40:normal-hitwhistle.wav
448,192,153625,128,0,154654:3:0:0:50:drum-hitclap.wav
64,192,154997,1,0,1:0:0:100:normal-hitwhistle.wav
192,192,155339,1,0,0:0:0:0:
320,192,155682,1,0,1:0:0:100:soft-hitclap.wav
448,192,155682,1,0,0:0:0:0:
64,192,156025,1,0,0:0:0:0:
448,192,156368,1,0,1:0:0:100:normal-hitwhistle.wav
320,192,156711,1,0,0:0:0:0:
64,192,157054,1,0,1:0:0:100:soft-hitclap.wav
192,192,157054,1,0,0:0:0:0:
448,192,157397,1,0,0:0:0:0:
320,192,157739,1,0,1:0:0:100:normal-hitwhistle.wav
64,192,158082,1,0,0:0:0:0:
320,192,158425,1,0,1:0:0:100:soft-hitclap.wav
448,192,158425,1,0,0:0:0:0:
64,192,158768,1,0,0:0:0:0:
192,192,159111,1,0,1:0:0:100:normal-hitwhistle.wav
320,192,159282,1,0,1:0:0:100:normal-hitwhistle.wav
448,192,159625,1,0,1:0:0:100:normal-hitwhistle.wav
64,192,159797,1,0,1:0:0:100:soft-hitclap.wav
192,192,159797,1,0,0:0:0:0:
448,192,160139,1,0,0:0:0:0:
192,192,160482,1,0,0:0:0:100:normal-hitwhistle.wav
320,192,160825,1,0,0:0:0:0:
64,192,161168,1,0,1:0:0:100:soft-hitclap.wav
448,192,161168,1,0,0:0:0:0:
192,192,161511,1,0,0:0:0:0:
320,192,161854,1,0,0:0:0:100:normal-hitwhistle.wav
192,192,162197,1,0,0:0:0:0:
64,192,162539,1,0,1:0:0:100:soft-hitclap.wav
448,192,162539,1,0,0:0:0:0:
320,192,162882,1,0,0:0:0:0:
64,192,163225,1,0,1:0:0:100:normal-hitwhistle.wav
320,192,163568,1,0,0:0:0:0:
192,192,163911,1,0,1:0:0:100:soft-hitclap.wav
448,192,163911,1,0,0:0:0:0:
64,192,164254,1,0,0:0:0:0:
448,192,164597,1,0,0:0:0:100:normal-hitwhistle.wav
192,192,164768,1,0,1:0:0:100:normal-hitwhistle.wav
320,192,165111,1,0,1:0:0:100:normal-hitwhistle.wav
64,192,165282,1,0,1:0:0:100:soft-hitclap.wav
192,192,165282,1,0,0:0:0:0:
320,192,165625,1,0,1:0:0:100:soft-hitclap.wav
448,192,165625,1,0,0:0:0:0:
64,192,165968,1,0,1:0:0:100:normal-hitwhistle.wav
192,192,166311,1,0,0:0:0:0:
320,192,166654,1,0,1:0:0:100:soft-hitclap.wav
448,192,166654,1,0,0:0:0:0:
64,192,166997,1,0,0:0:0:0:
192,192,167339,1,0,1:0:0:100:normal-hitwhistle.wav
320,192,167682,1,0,0:0:0:0:
64,192,168025,1,0,1:0:0:100:soft-hitclap.wav
192,192,168025,1,0,0:0:0:0:
448,192,168368,1,0,0:0:0:0:
320,192,168711,1,0,1:0:0:100:normal-hitwhistle.wav
64,192,169054,1,0,0:0:0:0:
320,192,169397,1,0,1:0:0:100:soft-hitclap.wav
448,192,169397,1,0,0:0:0:0:
64,192,169739,1,0,0:0:0:0:
192,192,170082,1,0,0:0:0:100:normal-hitwhistle.wav
320,192,170254,1,0,0:0:0:100:normal-hitwhistle.wav
448,192,170597,1,0,0:0:0:100:normal-hitwhistle.wav
64,192,170768,1,0,1:0:0:100:soft-hitclap.wav
192,192,170768,1,0,0:0:0:0:
448,192,171111,1,0,0:0:0:0:
192,192,171454,1,0,1:0:0:100:normal-hitwhistle.wav
320,192,171797,1,0,0:0:0:0:
64,192,172139,1,0,1:0:0:100:soft-hitclap.wav
448,192,172139,1,0,0:0:0:0:
192,192,172482,1,0,0:0:0:0:
320,192,172825,1,0,1:0:0:100:normal-hitwhistle.wav
192,192,173168,1,0,0:0:0:0:
64,192,173511,1,0,1:0:0:100:soft-hitclap.wav
448,192,173511,1,0,0:0:0:0:
320,192,173854,1,0,0:0:0:0:
64,192,174197,1,0,1:0:0:100:normal-hitwhistle.wav
64,192,174539,1,0,0:0:0:0:
192,192,174882,1,0,1:0:0:100:soft-hitclap.wav
448,192,174882,1,0,0:0:0:0:
192,192,175225,1,0,0:0:0:0:
320,192,175568,1,0,1:0:0:100:normal-hitwhistle.wav
320,192,175911,1,0,1:0:0:100:normal-hitwhistle.wav
64,192,176254,1,0,1:0:0:100:soft-hitclap.wav
448,192,176254,1,0,0:0:0:0:
192,192,176597,1,0,1:0:0:100:soft-hitclap.wav
320,192,176597,1,0,0:0:0:0:
64,192,176939,1,0,1:0:0:100:normal-hitwhistle.wav
448,192,176939,1,0,1:0:0:100:soft-hitfinish.wav
192,192,177797,1,0,1:0:0:100:normal-hitwhistle.wav
64,192,177968,1,0,1:0:0:100:soft-hitclap.wav
448,192,177968,1,0,0:0:0:0:
320,192,178311,1,0,1:0:0:100:normal-hitwhistle.wav
64,192,178654,1,0,1:0:0:100:soft-hitclap.wav
192,192,178654,1,0,0:0:0:0:
320,192,179168,1,0,1:0:0:100:normal-hitwhistle.wav
64,192,179339,1,0,1:0:0:100:soft-hitclap.wav
192,192,179339,1,0,0:0:0:0:
448,192,179682,1,0,1:0:0:100:normal-hitwhistle.wav
64,192,180025,1,0,1:0:0:100:soft-hitclap.wav
320,192,180025,1,0,0:0:0:0:
192,192,180539,1,0,1:0:0:100:normal-hitwhistle.wav
64,192,180711,1,0,1:0:0:100:soft-hitclap.wav
320,192,180711,1,0,0:0:0:0:
448,192,181054,1,0,1:0:0:100:normal-hitwhistle.wav
64,192,181397,1,0,1:0:0:100:soft-hitclap.wav
192,192,181397,1,0,0:0:0:0:
320,192,181911,1,0,1:0:0:100:normal-hitwhistle.wav
64,192,182082,1,0,1:0:0:100:soft-hitclap.wav
192,192,182082,1,0,0:0:0:0:
448,192,182425,1,0,1:0:0:100:normal-hitwhistle.wav
192,192,182768,1,0,1:0:0:100:soft-hitclap.wav
320,192,182768,1,0,0:0:0:0:
64,192,183282,1,0,1:0:0:100:normal-hitwhistle.wav
192,192,183454,1,0,1:0:0:100:soft-hitclap.wav
320,192,183454,1,0,0:0:0:0:
448,192,183797,1,0,1:0:0:100:normal-hitwhistle.wav
64,192,184139,1,0,1:0:0:100:soft-hitclap.wav
320,192,184139,1,0,0:0:0:0:
448,192,184654,1,0,1:0:0:100:normal-hitwhistle.wav
64,192,184825,1,0,1:0:0:100:soft-hitclap.wav
320,192,184825,1,0,0:0:0:0:
192,192,185168,1,0,1:0:0:100:normal-hitwhistle.wav
320,192,185511,1,0,1:0:0:100:soft-hitclap.wav
448,192,185511,1,0,0:0:0:0:
192,192,186025,1,0,1:0:0:100:normal-hitwhistle.wav
320,192,186197,1,0,1:0:0:100:soft-hitclap.wav
448,192,186197,1,0,0:0:0:0:
64,192,186539,1,0,1:0:0:100:normal-hitwhistle.wav
448,192,186882,1,0,1:0:0:100:normal-hitwhistle.wav
320,192,187225,1,0,1:0:0:100:normal-hitwhistle.wav
192,192,187397,1,0,1:0:0:100:normal-hitwhistle.wav
64,192,187568,1,0,1:0:0:100:soft-hitclap.wav
448,192,187568,1,0,0:0:0:0:
320,192,187911,1,0,1:0:0:100:normal-hitwhistle.wav
64,192,188254,1,0,1:0:0:100:soft-hitclap.wav
192,192,188254,1,0,0:0:0:0:
320,192,188768,1,0,1:0:0:100:normal-hitwhistle.wav
64,192,188939,1,0,1:0:0:100:soft-hitclap.wav
192,192,188939,1,0,0:0:0:0:
448,192,189282,1,0,1:0:0:100:normal-hitwhistle.wav
64,192,189625,1,0,1:0:0:100:soft-hitclap.wav
320,192,189625,1,0,0:0:0:0:
192,192,190139,1,0,1:0:0:100:normal-hitwhistle.wav
64,192,190311,1,0,1:0:0:100:soft-hitclap.wav
320,192,190311,1,0,0:0:0:0:
448,192,190654,1,0,1:0:0:100:normal-hitwhistle.wav
64,192,190997,1,0,1:0:0:100:soft-hitclap.wav
192,192,190997,1,0,0:0:0:0:
320,192,191511,1,0,1:0:0:100:normal-hitwhistle.wav
64,192,191682,1,0,1:0:0:100:soft-hitclap.wav
192,192,191682,1,0,0:0:0:0:
448,192,192025,1,0,1:0:0:100:normal-hitwhistle.wav
192,192,192368,1,0,1:0:0:100:soft-hitclap.wav
320,192,192368,1,0,0:0:0:0:
64,192,192882,1,0,1:0:0:100:normal-hitwhistle.wav
192,192,193054,1,0,1:0:0:100:soft-hitclap.wav
320,192,193054,1,0,0:0:0:0:
448,192,193397,1,0,1:0:0:100:normal-hitwhistle.wav
64,192,193739,1,0,1:0:0:100:soft-hitclap.wav
320,192,193739,1,0,0:0:0:0:
448,192,194254,1,0,1:0:0:100:normal-hitwhistle.wav
64,192,194425,1,0,1:0:0:100:soft-hitclap.wav
320,192,194425,1,0,0:0:0:0:
192,192,194768,1,0,1:0:0:100:normal-hitwhistle.wav
320,192,195111,1,0,1:0:0:100:soft-hitclap.wav
448,192,195111,1,0,0:0:0:0:
192,192,195625,1,0,1:0:0:100:normal-hitwhistle.wav
320,192,195797,1,0,1:0:0:100:soft-hitclap.wav
448,192,195797,1,0,0:0:0:0:
64,192,196139,1,0,1:0:0:100:normal-hitwhistle.wav
192,192,196482,1,0,1:0:0:100:normal-hitwhistle.wav
320,192,196825,1,0,1:0:0:100:normal-hitwhistle.wav
448,192,197168,1,0,1:0:0:100:normal-hitwhistle.wav
64,192,197511,1,0,1:0:0:100:normal-hitwhistle.wav
192,192,197682,1,0,1:0:0:100:normal-hitwhistle.wav
448,192,197854,1,0,1:0:0:100:normal-hitwhistle.wav
320,192,198025,1,0,1:0:0:100:normal-hitwhistle.wav
64,192,198197,1,0,1:0:0:100:normal-hitwhistle.wav
192,192,198539,1,0,1:0:0:100:soft-hitclap.wav
320,192,198539,1,0,0:0:0:0:
64,192,198882,1,0,1:0:0:100:normal-hitwhistle.wav
448,192,198882,1,0,1:0:0:100:soft-hitfinish.wav
