osu file format v14

[General]
AudioFilename: audio.mp3
AudioLeadIn: 0
PreviewTime: 66794
Countdown: 0
SampleSet: Soft
StackLeniency: 0.7
Mode: 0
LetterboxInBreaks: 0
WidescreenStoryboard: 0

[Editor]
Bookmarks: 33691,55760,61277,66794,77829,88863,99898,110932
DistanceSpacing: 1.01
BeatDivisor: 4
GridSize: 4
TimelineZoom: 3.099999

[Metadata]
Title:Watch Me
TitleUnicode:Watch Me
Artist:Feint
ArtistUnicode:Feint
Creator:Shmiklak
Version:Insane
Source:
Tags:dnb drum and bass xdarxen wajinshu Kuron-kun marvollo m_a_r_v_o_l_l_o vanucik vanucik5656 Fall Away EP
BeatmapID:1252544
BeatmapSetID:548833

[Difficulty]
HPDrainRate:7
CircleSize:4
OverallDifficulty:8
ApproachRate:9
SliderMultiplier:1.8
SliderTickRate:1

[Events]
//Background and Video events
0,0,"pls dont dq thx.jpg",0,0
//Break Periods
2,55960,60677
//Storyboard Layer 0 (Background)
//Storyboard Layer 1 (Fail)
//Storyboard Layer 2 (Pass)
//Storyboard Layer 3 (Foreground)
//Storyboard Sound Samples

[TimingPoints]
588,344.827586206897,4,2,1,70,1,0
26794,-100,4,2,1,5,0,0
33346,-100,4,2,1,80,0,0
33691,-133.333333333333,4,2,1,70,0,0
55760,-133.333333333333,4,2,1,45,0,0
61277,-133.333333333333,4,2,1,45,0,0
61967,-133.333333333333,4,2,1,50,0,0
62656,-133.333333333333,4,2,1,55,0,0
63346,-133.333333333333,4,2,1,60,0,0
64036,-133.333333333333,4,2,1,65,0,0
64725,-133.333333333333,4,2,1,70,0,0
65415,-133.333333333333,4,2,1,75,0,0
65760,-133.333333333333,4,2,1,75,0,0
66105,-133.333333333333,4,2,1,50,0,0
66450,-133.333333333333,4,2,1,80,0,0
66794,-100,4,2,1,80,0,1
73346,-133.333333333333,4,2,1,80,0,1
73691,-100,4,2,1,80,0,1
74725,-133.333333333333,4,2,1,80,0,1
75070,-100,4,2,1,80,0,1
76105,-133.333333333333,4,2,1,80,0,1
76450,-100,4,2,1,80,0,1
84381,-133.333333333333,4,2,1,80,0,1
84725,-100,4,2,1,80,0,1
85760,-133.333333333333,4,2,1,80,0,1
86105,-100,4,2,1,80,0,1
87139,-133.333333333333,4,2,1,80,0,1
87484,-100,4,2,1,80,0,1
95415,-133.333333333333,4,2,1,80,0,1
95760,-100,4,2,1,80,0,1
96794,-133.333333333333,4,2,1,80,0,1
97139,-100,4,2,1,80,0,1
98174,-133.333333333333,4,2,1,80,0,1
98519,-100,4,2,1,80,0,1
106450,-133.333333333333,4,2,1,80,0,1
106794,-100,4,2,1,80,0,1
107829,-133.333333333333,4,2,1,80,0,1
108174,-100,4,2,1,80,0,1
109208,-133.333333333333,4,2,1,80,0,1
109553,-100,4,2,1,80,0,1
110932,-200,4,2,1,70,0,0

[Colours]
Combo1 : 61,179,241
Combo2 : 210,247,9
Combo3 : 27,230,245
Combo4 : 249,217,34
SliderTrackOverride : 100,100,100

[HitObjects]
256,192,26794,12,8,33346,0:0:0:0:
392,220,33691,6,0,P|324:202|228:188,1,135,0|8,0:0|0:0,0:0:0:0:
164,240,34208,1,0,3:0:0:0:
164,240,34725,2,0,P|168:274|165:308,1,68,8|0,3:2|0:0,0:0:0:0:
80,184,35070,6,0,P|148:188|199:148,1,135.000005149842,2|10,0:0|0:0,0:0:0:0:
244,56,35588,1,0,0:0:0:0:
368,48,35760,2,0,P|365:111|360:196,1,135.000005149842,2|10,0:0|0:0,0:0:0:0:
408,292,36277,1,0,0:0:0:0:
265,158,36450,6,0,P|215:148|181:148,1,68,2|0,0:0|0:0,0:0:0:0:
104,200,36794,1,8,0:0:0:0:
252,293,36967,1,0,3:0:0:0:
120,224,37484,6,0,P|56:224|8:177,2,135.000005149842,2|2|10,3:2|0:0|0:0,0:0:0:0:
198,147,38346,1,0,0:0:0:0:
332,272,38519,2,0,P|363:284|397:285,1,68,2|0,0:0|0:0,0:0:0:0:
252,293,38863,2,0,P|216:325|200:363,1,68,10|0,0:0|0:0,0:0:0:0:
276,214,39208,70,0,P|276:156|208:96,1,135.000005149842,2|8,0:0|0:0,0:0:0:0:
128,132,39725,1,0,0:0:0:0:
156,228,39898,2,0,B|176:296|176:296|144:364,1,135.000005149842,2|10,0:0|0:0,0:0:0:0:
148,354,40588,6,0,P|220:344|300:348,1,135.000005149842,2|10,0:0|0:0,0:0:0:0:
340,290,41105,1,0,0:0:0:0:
268,184,41277,2,0,P|321:190|351:180,1,68,2|0,0:0|0:0,0:0:0:0:
425,102,41622,1,10,0:0:0:0:
425,102,41967,6,0,P|421:162|417:243,1,135.000005149842,2|10,0:0|0:0,0:0:0:0:
372,336,42484,2,0,P|408:348|439:344,2,67.5000025749208,0|2|0,0:0|0:0|0:0,0:0:0:0:
288,264,43001,1,10,0:0:0:0:
76,232,43346,6,0,P|50:199|44:150,1,68,2|0,0:0|0:0,0:0:0:0:
140,152,43691,2,0,P|130:111|145:64,1,68,10|0,0:0|0:0,0:0:0:0:
233,106,44036,2,0,P|241:64|273:27,1,68,2|0,0:0|0:0,0:0:0:0:
290,193,44381,1,10,0:0:0:0:
254,43,44725,70,0,P|326:39|416:36,1,135.000005149842,2|10,0:0|0:0,0:0:0:0:
464,84,45243,1,0,3:0:0:0:
413,263,45760,1,10,3:2:0:0:
280,172,46105,6,0,P|246:163|197:160,1,67.5000025749208,0|0,0:0|0:0,0:0:0:0:
168,228,46450,2,0,P|164:262|168:312,1,67.5000025749208,10|0,0:0|0:0,0:0:0:0:
128,152,46794,2,0,P|92:153|61:162,1,67.5000025749208,2|0,0:0|0:0,0:0:0:0:
20,232,47139,1,10,0:0:0:0:
20,232,47312,1,0,0:0:0:0:
20,232,47484,6,0,P|88:220|142:260,1,135.000005149842,2|10,0:0|0:0,0:0:0:0:
192,328,48001,1,0,3:0:0:0:
256,274,48519,1,10,3:2:0:0:
256,274,48863,6,0,P|312:296|389:248,1,135.000005149842,2|10,0:0|0:0,0:0:0:0:
432,204,49381,1,0,0:0:0:0:
389,136,49553,2,0,P|350:126|305:118,1,68,2|0,0:0|0:0,0:0:0:0:
179,106,49898,2,0,P|213:99|246:91,1,68,10|0,0:0|0:0,0:0:0:0:
100,64,50243,70,0,P|91:126|150:192,1,135.000005149842,2|10,0:0|0:0,0:0:0:0:
225,213,50760,1,0,0:0:0:0:
130,248,50932,2,0,P|123:208|142:163,1,67.5000025749208,2|0,0:0|0:0,0:0:0:0:
195,106,51277,1,10,0:0:0:0:
260,360,51622,6,0,B|296:352|318:324|318:324|348:342|383:341,1,135.000005149842,2|10,0:0|0:0,0:0:0:0:
448,292,52139,1,0,0:0:0:0:
412,219,52312,2,0,P|383:213|344:208,1,67.5000025749208,2|0,0:0|0:0,0:0:0:0:
472,164,52656,1,10,0:0:0:0:
472,164,53001,6,0,P|435:108|458:41,1,135.000005149842,2|10,0:0|0:0,0:0:0:0:
352,48,53519,1,0,0:0:0:0:
272,120,53691,2,0,P|212:124|180:108,1,67.5000025749208,2|0,0:0|0:0,0:0:0:0:
116,60,54036,1,10,0:0:0:0:
293,299,54381,6,0,P|323:284|363:254,1,67.5000025749208,2|0,0:0|0:0,0:0:0:0:
272,187,54725,2,0,P|250:216|229:240,1,67.5000025749208,10|0,0:0|0:0,0:0:0:0:
149,201,55070,2,0,P|165:167|182:125,1,67.5000025749208,2|0,0:0|0:0,0:0:0:0:
69,120,55415,2,0,P|64:156|62:188,1,67.5000025749208,10|0,0:0|0:0,0:0:0:0:
225,356,55760,5,4,3:1:0:0:
128,128,61277,5,8,3:3:0:0:
128,263,61450,1,0,3:3:0:0:
262,263,61622,1,8,3:3:0:0:
262,128,61794,1,0,3:3:0:0:
134,117,61967,5,8,3:3:0:0:
122,251,62140,1,0,3:3:0:0:
255,263,62312,1,8,3:3:0:0:
267,128,62484,1,0,3:3:0:0:
141,106,62656,5,8,3:3:0:0:
117,239,62829,1,0,3:3:0:0:
249,262,63001,1,8,3:3:0:0:
273,130,63173,1,0,3:3:0:0:
148,97,63346,5,8,3:3:0:0:
113,227,63519,1,0,3:3:0:0:
243,262,63691,1,8,3:3:0:0:
278,131,63863,1,0,3:3:0:0:
157,88,64036,5,8,3:0:0:0:
131,110,64122,1,0,3:0:0:0:
112,137,64208,1,0,3:0:0:0:
99,168,64294,1,0,3:0:0:0:
92,201,64380,5,8,3:0:0:0:
93,235,64467,1,0,3:0:0:0:
102,268,64553,1,0,3:0:0:0:
117,298,64639,1,0,3:0:0:0:
140,324,64725,5,8,3:0:0:0:
171,334,64811,1,0,3:0:0:0:
205,334,64897,1,0,3:0:0:0:
237,324,64983,1,0,3:0:0:0:
268,308,65070,6,0,P|296:300|320:300,1,33.7500012874604,8|0,3:0|3:0,3:0:0:0:
449,228,65243,2,0,P|421:236|397:236,1,33.7500012874604,0|0,3:0|3:0,3:0:0:0:
275,173,65415,6,0,P|269:157|267:141,1,33.7500012874604,8|0,3:0|3:0,3:0:0:0:
409,81,65588,2,0,P|406:97|400:113,1,33.7500012874604,0|0,3:0|3:0,3:0:0:0:
215,239,65760,6,0,P|180:232|170:227,1,33.7500012874604,8|0,3:0|3:0,3:0:0:0:
85,108,65932,2,0,P|120:115|140:132,1,33.7500012874604,0|0,3:0|3:0,3:0:0:0:
46,314,66105,6,0,L|38:338,6,16.8750006437302,8|0|0|0|0|0|0,3:0|0:0|3:0|0:0|3:0|0:0|3:0,0:0:0:0:
46,279,66450,5,8,3:2:0:0:
416,356,66794,6,0,P|404:312|420:256,1,90,4|0,0:0|0:0,0:0:0:0:
512,108,67139,1,8,0:0:0:0:
376,164,67312,1,0,0:0:0:0:
376,164,67398,1,0,0:0:0:0:
376,164,67484,1,2,0:0:0:0:
496,314,67656,1,0,0:0:0:0:
416,56,67829,1,8,0:0:0:0:
376,164,68001,1,0,0:0:0:0:
496,314,68174,6,0,P|500:272|492:208,1,90,2|0,0:0|0:0,0:0:0:0:
376,74,68519,2,0,P|371:118|375:163,2,90,8|0|2,0:0|0:0|0:0,0:0:0:0:
324,256,69036,1,0,0:0:0:0:
499,118,69208,1,8,0:0:0:0:
375,163,69381,1,0,0:0:0:0:
216,32,69553,6,0,P|259:22|316:40,1,90,2|0,0:0|0:0,0:0:0:0:
148,164,69898,1,8,0:0:0:0:
96,48,70070,1,0,0:0:0:0:
96,48,70156,1,0,0:0:0:0:
96,48,70243,1,2,0:0:0:0:
259,115,70415,1,0,0:0:0:0:
120,280,70588,2,0,P|123:230|128:168,1,90,8|0,0:0|0:0,0:0:0:0:
336,356,70932,6,0,P|295:372|238:345,1,90,2|0,0:0|0:0,0:0:0:0:
140,208,71277,1,8,0:0:0:0:
292,295,71450,1,0,0:0:0:0:
292,295,71536,1,0,0:0:0:0:
292,295,71622,2,0,P|296:244|302:183,1,90,2|0,0:0|0:0,0:0:0:0:
204,80,71967,2,0,P|208:130|214:192,1,90,8|0,0:0|0:0,0:0:0:0:
364,336,72312,6,0,P|432:304|356:304,1,180,2|8,0:0|0:0,0:0:0:0:
270,302,72829,1,0,0:0:0:0:
352,187,73001,1,2,0:0:0:0:
256,47,73174,1,0,0:0:0:0:
120,118,73346,6,0,B|116:162|116:162|124:182|124:182|120:230,1,101.250003862381,8|0,0:0|0:0,0:0:0:0:
166,292,73691,6,0,P|113:306|77:295,1,90,2|0,0:0|0:0,0:0:0:0:
244,196,74036,2,0,P|296:181|338:198,1,90,8|0,0:0|0:0,0:0:0:0:
408,292,74381,1,2,0:0:0:0:
372,100,74553,1,0,0:0:0:0:
293,288,74725,6,0,B|249:292|249:292|229:284|229:284|181:288,1,101.250003862381,8|0,0:0|0:0,0:0:0:0:
136,205,75070,6,0,P|136:141|176:205,1,180,2|8,0:0|0:0,0:0:0:0:
160,306,75588,1,0,0:0:0:0:
288,259,75760,1,2,0:0:0:0:
136,205,75932,1,0,0:0:0:0:
293,342,76105,6,0,B|337:346|337:346|357:338|357:338|405:342,1,101.250003862381,8|0,0:0|0:0,0:0:0:0:
454,272,76450,6,0,P|452:219|452:175,1,90,2|0,0:0|0:0,0:0:0:0:
288,142,76794,1,8,0:0:0:0:
179,240,76967,1,0,0:0:0:0:
179,240,77053,2,0,P|138:249|120:250,1,45,0|2,0:0|0:0,0:0:0:0:
328,136,77312,1,0,0:0:0:0:
127,148,77484,1,8,0:0:0:0:
279,235,77656,1,0,0:0:0:0:
280,52,77829,6,0,P|324:40|380:56,1,90,4|0,0:0|0:0,0:0:0:0:
452,200,78174,1,8,0:0:0:0:
332,158,78347,1,0,0:0:0:0:
332,158,78433,1,0,0:0:0:0:
332,158,78519,1,2,0:0:0:0:
480,64,78691,1,0,0:0:0:0:
392,276,78864,1,8,0:0:0:0:
332,158,79036,1,0,0:0:0:0:
288,312,79208,6,0,P|340:320|381:310,1,90,2|0,0:0|0:0,0:0:0:0:
232,232,79553,2,0,P|180:224|139:234,2,90,8|0|2,0:0|0:0|0:0,0:0:0:0:
88,164,80070,1,0,0:0:0:0:
190,352,80243,1,8,0:0:0:0:
232,232,80415,1,0,0:0:0:0:
80,52,80588,6,0,P|68:94|76:138,1,90,2|0,0:0|0:0,0:0:0:0:
232,232,80932,1,8,0:0:0:0:
172,108,81105,1,0,0:0:0:0:
172,108,81191,1,0,0:0:0:0:
172,108,81277,1,2,0:0:0:0:
160,284,81450,1,0,0:0:0:0:
277,146,81622,2,0,P|285:102|273:59,1,90,8|0,0:0|0:0,0:0:0:0:
160,284,81967,6,0,P|119:300|77:287,1,90,2|0,0:0|0:0,0:0:0:0:
161,136,82312,1,8,0:0:0:0:
168,292,82485,1,0,0:0:0:0:
168,292,82571,1,0,0:0:0:0:
168,292,82657,2,0,P|164:343|158:404,1,90,0|0,0:0|0:0,0:0:0:0:
305,259,83002,2,0,P|301:209|295:147,1,90,8|0,0:0|0:0,0:0:0:0:
108,48,83346,6,0,B|80:161|141:117|114:234,1,180,2|8,0:0|0:0,0:0:0:0:
184,96,83863,1,0,0:0:0:0:
228,224,84036,1,2,0:0:0:0:
44,185,84208,1,0,0:0:0:0:
312,175,84381,6,0,B|316:219|316:219|308:239|308:239|312:287,1,101.250003862381,8|0,0:0|0:0,0:0:0:0:
354,350,84725,6,0,P|398:354|443:357,1,90,2|0,0:0|0:0,0:0:0:0:
221,281,85070,2,0,P|260:279|317:273,1,90,8|0,0:0|0:0,0:0:0:0:
448,317,85415,1,2,0:0:0:0:
312,175,85588,1,0,0:0:0:0:
332,352,85760,6,0,B|376:356|376:356|396:348|396:348|444:352,1,101.250003862381,8|0,0:0|0:0,0:0:0:0:
496,286,86105,6,0,B|524:173|463:217|490:100,1,180,2|8,0:0|0:0,0:0:0:0:
405,29,86622,1,0,0:0:0:0:
380,205,86794,1,2,0:0:0:0:
323,97,86967,1,0,0:0:0:0:
213,269,87139,6,0,B|169:273|169:273|149:265|149:265|101:269,1,101.250003862381,8|0,0:0|0:0,0:0:0:0:
41,221,87484,6,0,P|39:177|36:132,1,90,2|0,0:0|0:0,0:0:0:0:
122,46,87829,1,8,0:0:0:0:
230,179,88002,1,0,0:0:0:0:
230,179,88088,2,0,P|239:220|240:238,1,45,0|2,0:0|0:0,0:0:0:0:
184,356,88347,1,0,0:0:0:0:
328,216,88519,1,8,0:0:0:0:
156,256,88691,1,0,0:0:0:0:
45,126,88863,6,0,P|33:82|49:26,1,90,4|0,0:0|0:0,0:0:0:0:
144,212,89208,1,8,0:0:0:0:
145,89,89381,1,0,0:0:0:0:
145,89,89467,1,0,0:0:0:0:
145,89,89553,1,2,0:0:0:0:
40,248,89725,1,0,0:0:0:0:
213,138,89898,2,0,P|225:94|209:38,1,90,8|0,0:0|0:0,0:0:0:0:
255,278,90243,6,0,P|299:290|355:274,1,90,2|0,0:0|0:0,0:0:0:0:
299,141,90588,2,0,P|255:129|199:145,2,90,8|0|2,0:0|0:0|0:0,0:0:0:0:
144,84,91105,1,0,0:0:0:0:
250,255,91277,1,8,0:0:0:0:
299,141,91450,1,0,0:0:0:0:
56,240,91622,6,0,P|47:286|62:339,1,90,2|0,0:0|0:0,0:0:0:0:
272,360,91967,1,8,0:0:0:0:
165,290,92139,1,0,0:0:0:0:
165,290,92225,1,0,0:0:0:0:
165,290,92312,1,2,0:0:0:0:
336,256,92484,1,0,0:0:0:0:
156,384,92656,1,8,0:0:0:0:
272,360,92829,1,0,0:0:0:0:
128,204,93001,6,0,P|118:163|138:105,1,90,2|0,0:0|0:0,0:0:0:0:
304,16,93346,1,8,0:0:0:0:
219,125,93519,1,0,0:0:0:0:
219,125,93605,1,0,0:0:0:0:
219,125,93691,2,0,P|168:121|107:115,1,90,2|0,0:0|0:0,0:0:0:0:
252,262,94036,2,0,P|302:258|364:252,1,90,8|0,0:0|0:0,0:0:0:0:
104,192,94381,6,0,B|100:245|64:273|64:273|96:297|100:349,1,180,2|8,0:0|0:0,0:0:0:0:
212,380,94898,1,0,0:0:0:0:
168,264,95070,1,2,0:0:0:0:
8,350,95243,1,0,0:0:0:0:
247,297,95415,6,0,B|243:253|243:253|251:233|251:233|247:185,1,101.250003862381,8|0,0:0|0:0,0:0:0:0:
213,113,95760,6,0,P|168:114|123:116,1,90,2|0,0:0|0:0,0:0:0:0:
337,201,96105,2,0,P|287:199|233:197,1,90,8|0,0:0|0:0,0:0:0:0:
409,156,96450,1,2,0:0:0:0:
329,337,96622,1,0,0:0:0:0:
124,215,96794,6,0,B|128:171|128:171|120:151|120:151|124:103,1,101.250003862381,8|0,0:0|0:0,0:0:0:0:
162,35,97139,6,0,B|198:55|230:53|262:20|262:20|240:58|252:100,1,180,2|8,0:0|0:0,0:0:0:0:
323,195,97656,1,0,0:0:0:0:
360,76,97829,1,2,0:0:0:0:
213,207,98001,1,0,0:0:0:0:
342,341,98174,6,0,B|386:345|386:345|406:337|406:337|454:341,1,101.250003862381,8|0,0:0|0:0,0:0:0:0:
489,269,98519,6,0,P|484:222|481:169,1,90,2|0,0:0|0:0,0:0:0:0:
295,84,98863,1,8,0:0:0:0:
176,148,99036,1,0,0:0:0:0:
176,148,99122,2,0,P|167:189|166:207,1,45,0|2,0:0|0:0,0:0:0:0:
272,312,99381,1,0,0:0:0:0:
305,123,99553,1,8,0:0:0:0:
176,148,99725,1,0,0:0:0:0:
360,352,99898,6,0,P|412:364|460:336,1,90,4|0,0:0|0:0,0:0:0:0:
508,216,100243,1,8,0:0:0:0:
403,290,100415,1,0,0:0:0:0:
403,290,100501,1,0,0:0:0:0:
403,290,100588,1,2,0:0:0:0:
344,128,100760,1,0,0:0:0:0:
496,240,100932,1,8,0:0:0:0:
372,206,101105,1,0,0:0:0:0:
220,352,101277,6,0,P|272:360|320:340,1,90,2|0,0:0|0:0,0:0:0:0:
160,264,101622,2,0,P|108:256|64:281,2,90,8|0|2,0:0|0:0|0:0,0:0:0:0:
16,344,102139,1,0,0:0:0:0:
156,152,102312,1,8,0:0:0:0:
124,334,102484,1,0,0:0:0:0:
20,152,102656,6,0,P|12:96|28:60,1,90,2|0,0:0|0:0,0:0:0:0:
176,24,103001,1,8,0:0:0:0:
91,117,103174,1,0,0:0:0:0:
91,117,103260,1,0,0:0:0:0:
91,117,103346,1,2,0:0:0:0:
264,128,103519,1,0,0:0:0:0:
104,236,103691,2,0,P|100:186|96:108,1,90,8|0,0:0|0:0,0:0:0:0:
312,328,104036,6,0,P|264:344|224:328,1,90,2|0,0:0|0:0,0:0:0:0:
220,156,104381,1,8,0:0:0:0:
319,238,104554,1,0,0:0:0:0:
319,238,104640,1,0,0:0:0:0:
319,238,104726,2,0,P|315:289|309:350,1,90,0|0,0:0|0:0,0:0:0:0:
456,205,105071,2,0,P|452:155|446:93,1,90,8|0,0:0|0:0,0:0:0:0:
96,140,105415,6,0,B|157:123|157:123|186:74|186:74|259:54,1,180,2|8,0:0|0:0,0:0:0:0:
344,132,105932,1,0,0:0:0:0:
240,156,106105,1,2,0:0:0:0:
352,28,106277,1,0,0:0:0:0:
120,240,106450,6,0,B|164:244|164:244|184:236|184:236|232:240,1,101.250003862381,8|0,0:0|0:0,0:0:0:0:
276,303,106794,6,0,P|324:315|366:305,1,90,2|0,0:0|0:0,0:0:0:0:
223,204,107139,2,0,P|174:191|128:200,1,90,8|0,0:0|0:0,0:0:0:0:
40,304,107484,1,2,0:0:0:0:
96,120,107656,1,0,0:0:0:0:
61,331,107829,6,0,B|105:335|105:335|125:327|125:327|173:331,1,101.250003862381,8|0,0:0|0:0,0:0:0:0:
233,288,108174,6,0,B|296:293|296:293|340:257|340:257|415:263,1,180,2|8,0:0|0:0,0:0:0:0:
502,318,108691,1,0,0:0:0:0:
461,169,108863,1,2,0:0:0:0:
376,368,109036,1,0,0:0:0:0:
240,184,109208,6,0,B|236:140|236:140|244:120|244:120|240:72,1,101.250003862381,8|0,0:0|0:0,0:0:0:0:
300,24,109553,6,0,L|400:28,1,90,2|0,0:0|0:0,0:0:0:0:
240,184,109898,2,0,L|140:188,1,90,8|0,0:0|0:0,0:0:0:0:
72,256,110156,1,0,0:0:0:0:
72,256,110243,1,2,0:0:0:0:
184,75,110415,1,0,0:0:0:0:
259,374,110588,1,8,0:0:0:0:
60,152,110760,1,0,0:0:0:0:
415,203,110932,5,4,0:0:0:0:
