osu file format v14

[General]
AudioFilename: audio.mp3
AudioLeadIn: 0
PreviewTime: -1
Countdown: 0
SampleSet: Normal
StackLeniency: 0.2
Mode: 0
LetterboxInBreaks: 0
WidescreenStoryboard: 0

[Editor]
Bookmarks: 44171,55143,99028,110000,120971,137428,138800,140171,141543,151143,155943,163486,164857
DistanceSpacing: 1
BeatDivisor: 4
GridSize: 8
TimelineZoom: 2

[Metadata]
Title:Tower Of Heaven (You Are Slaves)
TitleUnicode:Tower Of Heaven (You Are Slaves)
Artist:Feint
ArtistUnicode:Feint
Creator:Yuyukoyouji
Version:You Are Slaves
Source:
Tags:dnb drum and bass electronic music 8bit
BeatmapID:2068379
BeatmapSetID:988797

[Difficulty]
HPDrainRate:6
CircleSize:4
OverallDifficulty:8.5
ApproachRate:9
SliderMultiplier:1.8
SliderTickRate:1

[Events]
//Background and Video events
0,0,"770659.jpg",0,0
//Break Periods
2,52600,53857
2,99228,109400
//Storyboard Layer 0 (Background)
//Storyboard Layer 1 (Fail)
//Storyboard Layer 2 (Pass)
//Storyboard Layer 3 (Foreground)
//Storyboard Sound Samples

[TimingPoints]
286,342.857142857143,4,1,0,100,1,0
286,-133.333333333333,4,1,0,100,0,0
22143,-100,4,1,0,100,0,0
22828,-133.333333333333,4,1,0,100,0,0
23171,-100,4,1,0,100,0,0
24200,-133.333333333333,4,1,0,100,0,0
24543,-100,4,1,0,100,0,0
25571,-133.333333333333,4,1,0,100,0,0
25914,-100,4,1,0,100,0,0
26771,-133.333333333333,4,1,0,100,0,0
27628,-100,4,1,0,100,0,0
28314,-133.333333333333,4,1,0,100,0,0
28657,-100,4,1,0,100,0,0
29686,-133.333333333333,4,1,0,100,0,0
30028,-100,4,1,0,100,0,0
31057,-133.333333333333,4,1,0,100,0,0
31400,-100,4,1,0,100,0,0
32428,-133.333333333333,4,1,0,100,0,0
33200,-100,4,1,0,100,0,0
33800,-133.333333333333,4,1,0,100,0,0
34143,-100,4,1,0,100,0,0
35171,-133.333333333333,4,1,0,100,0,0
35514,-100,4,1,0,100,0,0
36543,-133.333333333333,4,1,0,100,0,0
36886,-100,4,1,0,100,0,0
37914,-133.333333333333,4,1,0,100,0,0
38686,-100,4,1,0,100,0,0
39286,-133.333333333333,4,1,0,100,0,0
39628,-100,4,1,0,100,0,0
40657,-133.333333333333,4,1,0,100,0,0
41000,-100,4,1,0,100,0,0
42028,-133.333333333333,4,1,0,100,0,0
42371,-100,4,1,0,100,0,0
44514,-133.333333333333,4,1,0,100,0,0
54371,-111.111111111111,4,1,0,100,0,0
55057,-100,4,1,0,100,0,1
77171,-100,4,1,0,100,0,0
78457,-100,4,1,0,100,0,1
99028,-100,4,1,0,100,0,0
110000,-133.333333333333,4,1,0,100,0,0
115486,-100,4,1,0,100,0,0
118228,-83.3333333333333,4,1,0,100,0,0

[HitObjects]
256,224,286,5,0,0:0:0:0:
192,320,457,2,8,P|160:288|160:256,1,67.5000025749208
160,160,971,1,0,0:0:0:0:
160,160,1143,1,8,0:0:0:0:
352,128,1486,1,0,0:0:0:0:
416,192,1828,2,0,P|416:224|384:256,1,67.5000025749208
256,160,2343,2,0,L|256:256,2,67.5000025749208,8|0|0,0:0|0:0|0:0,0:0:0:0:
384,256,3028,5,0,0:0:0:0:
416,192,3371,1,8,0:0:0:0:
384,128,3714,1,8,0:0:0:0:
128,128,4400,5,0,0:0:0:0:
96,192,4743,1,8,0:0:0:0:
128,256,5086,1,8,0:0:0:0:
256,160,5771,6,0,L|256:256,2,67.5000025749208,0|8|8,0:0|0:0|0:0,0:0:0:0:
128,128,6457,1,0,0:0:0:0:
128,128,6628,1,8,0:0:0:0:
256,64,6971,2,0,P|320:64|320:128,1,135.000005149842,8|8,0:0|0:0,0:0:0:0:
324,122,7486,1,0,0:0:0:0:
224,192,7828,1,0,0:0:0:0:
128,128,8171,1,0,0:0:0:0:
160,256,8514,5,0,0:0:0:0:
160,256,8857,2,8,P|224:288|224:256,1,135.000005149842
352,128,9885,5,0,0:0:0:0:
352,128,10228,2,8,P|288:96|288:128,1,135.000005149842,8|0,0:0|0:0,0:0:0:0:
320,256,11257,5,4,0:0:0:0:
416,224,11771,1,8,0:0:0:0:
384,128,12286,2,8,P|352:64|320:96,1,135.000005149842,8|12,0:0|0:0,0:0:0:0:
288,192,13657,5,0,0:0:0:0:
262,213,13742,1,0,0:0:0:0:
230,223,13828,1,8,0:0:0:0:
197,219,13914,1,8,0:0:0:0:
168,201,13999,1,8,0:0:0:0:
128,96,14343,5,8,0:0:0:0:
128,96,14857,5,8,0:0:0:0:
128,96,15371,5,0,0:0:0:0:
256,96,16057,1,0,0:0:0:0:
192,192,16400,5,8,0:0:0:0:
217,213,16485,1,8,0:0:0:0:
249,223,16571,1,0,0:0:0:0:
282,219,16657,1,0,0:0:0:0:
311,201,16742,1,0,0:0:0:0:
416,128,17257,5,8,0:0:0:0:
384,224,17771,2,0,P|384:288|352:256,1,135.000005149842,8|4,0:0|0:0,0:0:0:0:
256,128,19143,5,8,0:0:0:0:
222,132,19228,1,8,0:0:0:0:
196,153,19314,1,0,0:0:0:0:
184,184,19400,1,0,0:0:0:0:
188,217,19485,1,0,0:0:0:0:
352,256,19828,5,0,0:0:0:0:
352,256,20343,5,0,0:0:0:0:
352,256,20857,6,8,P|480:224|416:128,1,270.000010299683
320,96,22228,6,0,P|288:64|288:96,3,90,4|0|0|0,0:0|0:0|0:0|0:0,0:0:0:0:
208,200,22914,1,8,0:0:0:0:
368,224,23257,6,0,P|400:256|400:224,5,90,0|8|0|0|8|8,0:0|0:0|0:0|0:0|0:0|0:0,0:0:0:0:
192,232,24286,1,8,0:0:0:0:
161,100,24628,6,0,P|193:68|193:100,5,90,0|8|0|0|8|8,0:0|0:0|0:0|0:0|0:0|0:0,0:0:0:0:
119,223,25657,1,8,0:0:0:0:
304,262,26000,6,0,P|336:294|336:262,4,90,0|0|8|0|8,0:0|0:0|0:0|0:0|0:0,0:0:0:0:
320,96,27028,1,12,0:0:0:0:
408,184,27200,1,12,0:0:0:0:
287,244,27371,1,0,0:0:0:0:
257,259,27456,1,0,0:0:0:0:
223,262,27542,1,0,0:0:0:0:
191,254,27628,1,0,0:0:0:0:
163,234,27713,1,0,0:0:0:0:
256,128,28228,5,0,0:0:0:0:
256,128,28400,1,0,0:0:0:0:
356,247,28743,6,0,P|324:279|324:247,5,90,0|8|0|0|8|8,0:0|0:0|0:0|0:0|0:0|0:0,0:0:0:0:
126,218,29771,1,8,0:0:0:0:
289,101,30114,6,0,P|321:69|321:101,5,90,0|8|0|0|8|8,0:0|0:0|0:0|0:0|0:0|0:0,0:0:0:0:
127,158,31143,1,8,0:0:0:0:
384,256,31486,6,0,P|352:288|352:256,5,90,0|8|8|0|8|8,0:0|0:0|0:0|0:0|0:0|0:0,0:0:0:0:
256,192,32514,1,8,0:0:0:0:
160,288,32686,1,8,0:0:0:0:
160,160,32857,1,0,0:0:0:0:
169,127,32942,1,0,0:0:0:0:
192,103,33028,1,0,0:0:0:0:
223,93,33114,1,0,0:0:0:0:
256,98,33199,1,0,0:0:0:0:
352,160,33714,5,0,0:0:0:0:
352,160,33886,1,0,0:0:0:0:
192,224,34228,6,0,P|160:256|160:224,5,90,0|8|8|0|8|8,0:0|0:0|0:0|0:0|0:0|0:0,0:0:0:0:
288,96,35257,1,8,0:0:0:0:
103,115,35600,6,0,P|135:83|135:115,5,90,0|8|8|0|8|8,0:0|0:0|0:0|0:0|0:0|0:0,0:0:0:0:
192,218,36628,1,8,0:0:0:0:
369,230,36971,6,0,P|337:262|337:230,5,90,0|8|8|0|8|8,0:0|0:0|0:0|0:0|0:0|0:0,0:0:0:0:
406,131,37999,1,8,0:0:0:0:
288,64,38171,1,8,0:0:0:0:
160,120,38343,1,0,0:0:0:0:
137,145,38428,1,0,0:0:0:0:
128,177,38514,1,0,0:0:0:0:
132,210,38600,1,0,0:0:0:0:
150,238,38685,1,0,0:0:0:0:
288,280,39200,5,0,0:0:0:0:
288,280,39371,1,0,0:0:0:0:
376,128,39714,6,0,P|344:96|344:128,5,90,0|8|8|0|8|8,0:0|0:0|0:0|0:0|0:0|0:0,0:0:0:0:
352,256,40743,1,8,0:0:0:0:
104,200,41086,6,0,P|136:232|136:200,5,90,0|8|8|0|8|8,0:0|0:0|0:0|0:0|0:0|0:0,0:0:0:0:
240,96,42114,1,8,0:0:0:0:
416,160,42457,6,0,P|384:128|384:160,4,90,0|8|8|0|8,0:0|0:0|0:0|0:0|0:0,0:0:0:0:
288,256,43486,1,8,0:0:0:0:
160,192,43657,1,8,0:0:0:0:
248,80,43828,1,0,0:0:0:0:
292,84,43913,1,0,0:0:0:0:
332,104,43999,1,0,0:0:0:0:
363,136,44085,1,0,0:0:0:0:
381,177,44170,1,0,0:0:0:0:
160,224,44686,5,0,0:0:0:0:
320,256,45200,2,8,P|390:242|381:175,1,135.000005149842
256,96,46571,5,0,0:0:0:0:
225,83,46656,1,0,0:0:0:0:
192,89,46742,1,0,0:0:0:0:
167,111,46828,1,8,0:0:0:0:
157,143,46913,1,8,0:0:0:0:
256,256,47257,6,8,P|292:283|384:192,2,202.500007724762
192,160,48971,1,0,0:0:0:0:
352,96,49314,5,8,0:0:0:0:
381,111,49399,1,8,0:0:0:0:
404,136,49485,1,8,0:0:0:0:
418,167,49571,1,0,0:0:0:0:
420,200,49656,1,0,0:0:0:0:
256,128,50171,1,0,0:0:0:0:
256,128,50686,2,0,L|256:288,1,135.000005149842,8|0,0:0|0:0,0:0:0:0:
128,256,51714,1,0,0:0:0:0:
96,128,52058,5,8,0:0:0:0:
114,99,52143,1,8,0:0:0:0:
143,82,52229,1,8,0:0:0:0:
176,79,52315,1,0,0:0:0:0:
207,93,52400,1,0,0:0:0:0:
384,96,54457,5,8,0:0:0:0:
384,96,54543,1,8,0:0:0:0:
384,96,54628,1,8,0:0:0:0:
384,96,54714,1,0,0:0:0:0:
384,96,54800,1,0,0:0:0:0:
464,220,54971,1,0,0:0:0:0:
352,256,55143,5,0,0:0:0:0:
324,291,55228,1,0,0:0:0:0:
287,316,55314,1,0,0:0:0:0:
243,327,55400,1,0,0:0:0:0:
198,323,55485,1,0,0:0:0:0:
158,305,55571,1,0,0:0:0:0:
125,274,55657,1,0,0:0:0:0:
105,235,55742,1,0,0:0:0:0:
99,190,55828,1,0,0:0:0:0:
108,145,55914,5,0,0:0:0:0:
131,108,56000,1,0,0:0:0:0:
165,79,56085,1,0,0:0:0:0:
207,63,56171,1,0,0:0:0:0:
352,80,56343,1,0,0:0:0:0:
424,184,56514,5,0,0:0:0:0:
421,228,56599,1,0,0:0:0:0:
393,261,56685,1,0,0:0:0:0:
349,270,56771,1,0,0:0:0:0:
310,251,56856,1,0,0:0:0:0:
288,208,56943,1,0,0:0:0:0:
288,163,57028,1,0,0:0:0:0:
271,122,57114,1,0,0:0:0:0:
238,92,57200,1,0,0:0:0:0:
196,78,57285,5,0,0:0:0:0:
151,82,57371,1,0,0:0:0:0:
113,105,57457,1,0,0:0:0:0:
87,141,57542,1,0,0:0:0:0:
120,268,57714,1,0,0:0:0:0:
306,311,57885,5,0,0:0:0:0:
350,309,57971,1,0,0:0:0:0:
391,291,58057,1,0,0:0:0:0:
422,259,58142,1,0,0:0:0:0:
440,218,58228,1,0,0:0:0:0:
440,173,58314,1,0,0:0:0:0:
424,131,58400,1,0,0:0:0:0:
394,98,58485,1,0,0:0:0:0:
354,77,58571,1,0,0:0:0:0:
310,73,58657,5,0,0:0:0:0:
267,85,58743,1,0,0:0:0:0:
224,98,58828,1,0,0:0:0:0:
181,88,58914,1,0,0:0:0:0:
137,96,58999,1,0,0:0:0:0:
99,119,59085,1,0,0:0:0:0:
73,156,59171,1,0,0:0:0:0:
63,199,59256,1,0,0:0:0:0:
71,243,59342,1,0,0:0:0:0:
95,281,59428,5,0,0:0:0:0:
131,307,59513,1,0,0:0:0:0:
175,317,59599,1,0,0:0:0:0:
219,316,59686,1,0,0:0:0:0:
261,300,59772,1,0,0:0:0:0:
296,272,59858,1,0,0:0:0:0:
320,234,59943,1,0,0:0:0:0:
321,190,60028,1,0,0:0:0:0:
289,161,60114,1,0,0:0:0:0:
245,167,60200,1,0,0:0:0:0:
222,204,60285,1,0,0:0:0:0:
344,296,60457,1,0,0:0:0:0:
416,232,60628,5,0,0:0:0:0:
396,192,60713,1,0,0:0:0:0:
359,167,60799,1,0,0:0:0:0:
314,165,60885,1,0,0:0:0:0:
275,186,60970,1,0,0:0:0:0:
251,223,61057,1,0,0:0:0:0:
234,264,61142,1,0,0:0:0:0:
202,294,61228,1,0,0:0:0:0:
159,306,61314,1,0,0:0:0:0:
115,298,61399,5,0,0:0:0:0:
79,271,61485,1,0,0:0:0:0:
59,231,61571,1,0,0:0:0:0:
60,187,61656,1,0,0:0:0:0:
80,144,61743,1,0,0:0:0:0:
118,120,61828,1,0,0:0:0:0:
162,116,61914,1,0,0:0:0:0:
204,132,62000,1,0,0:0:0:0:
234,164,62085,1,0,0:0:0:0:
247,207,62171,5,0,0:0:0:0:
269,245,62256,1,0,0:0:0:0:
307,268,62342,1,0,0:0:0:0:
351,269,62428,1,0,0:0:0:0:
391,249,62513,1,0,0:0:0:0:
416,212,62599,1,0,0:0:0:0:
420,168,62686,1,0,0:0:0:0:
412,123,62771,1,0,0:0:0:0:
391,84,62857,1,0,0:0:0:0:
358,54,62943,5,0,0:0:0:0:
317,36,63028,1,0,0:0:0:0:
272,33,63114,1,0,0:0:0:0:
229,45,63200,1,0,0:0:0:0:
192,70,63285,1,0,0:0:0:0:
165,106,63371,1,0,0:0:0:0:
152,149,63457,1,0,0:0:0:0:
154,194,63543,1,0,0:0:0:0:
161,238,63628,1,0,0:0:0:0:
187,274,63714,5,0,0:0:0:0:
226,295,63800,1,0,0:0:0:0:
271,297,63885,1,0,0:0:0:0:
312,280,63971,1,0,0:0:0:0:
352,256,64057,1,0,0:0:0:0:
372,214,64142,1,0,0:0:0:0:
385,172,64228,1,0,0:0:0:0:
374,128,64314,1,0,0:0:0:0:
344,96,64399,1,0,0:0:0:0:
272,168,64571,1,0,0:0:0:0:
184,72,64743,5,0,0:0:0:0:
140,83,64828,1,0,0:0:0:0:
105,110,64914,1,0,0:0:0:0:
83,149,65000,1,0,0:0:0:0:
77,194,65085,1,0,0:0:0:0:
89,237,65171,1,0,0:0:0:0:
116,272,65257,1,0,0:0:0:0:
155,294,65342,1,0,0:0:0:0:
199,300,65428,1,0,0:0:0:0:
244,304,65513,5,0,0:0:0:0:
289,301,65599,1,0,0:0:0:0:
333,293,65685,1,0,0:0:0:0:
376,278,65770,1,0,0:0:0:0:
416,258,65857,1,0,0:0:0:0:
446,227,65942,1,0,0:0:0:0:
438,184,66028,1,0,0:0:0:0:
398,167,66114,1,0,0:0:0:0:
361,189,66200,1,0,0:0:0:0:
326,216,66285,5,0,0:0:0:0:
284,232,66371,1,0,0:0:0:0:
239,235,66457,1,0,0:0:0:0:
196,224,66543,1,0,0:0:0:0:
155,207,66628,1,0,0:0:0:0:
143,165,66714,1,0,0:0:0:0:
168,129,66800,1,0,0:0:0:0:
211,125,66886,1,0,0:0:0:0:
253,116,66971,1,0,0:0:0:0:
269,76,67057,5,0,0:0:0:0:
245,40,67143,1,0,0:0:0:0:
202,40,67228,1,0,0:0:0:0:
164,63,67313,1,0,0:0:0:0:
137,99,67399,1,0,0:0:0:0:
127,143,67485,1,0,0:0:0:0:
135,187,67570,1,0,0:0:0:0:
159,225,67657,1,0,0:0:0:0:
194,252,67742,1,0,0:0:0:0:
236,269,67828,5,0,0:0:0:0:
281,271,67914,1,0,0:0:0:0:
324,261,67999,1,0,0:0:0:0:
363,238,68085,1,0,0:0:0:0:
393,205,68171,1,0,0:0:0:0:
411,164,68257,1,0,0:0:0:0:
418,120,68342,1,0,0:0:0:0:
397,81,68428,1,0,0:0:0:0:
357,64,68514,1,0,0:0:0:0:
314,75,68599,5,0,0:0:0:0:
287,110,68686,1,0,0:0:0:0:
287,154,68771,1,0,0:0:0:0:
315,189,68857,1,0,0:0:0:0:
347,218,68942,1,0,0:0:0:0:
353,262,69028,1,0,0:0:0:0:
330,300,69114,1,0,0:0:0:0:
289,314,69199,1,0,0:0:0:0:
247,299,69286,1,0,0:0:0:0:
214,269,69371,5,0,0:0:0:0:
195,229,69457,1,0,0:0:0:0:
192,184,69543,1,0,0:0:0:0:
207,142,69628,1,0,0:0:0:0:
236,108,69714,1,0,0:0:0:0:
277,88,69800,1,0,0:0:0:0:
321,85,69886,1,0,0:0:0:0:
364,99,69971,1,0,0:0:0:0:
398,128,70057,1,0,0:0:0:0:
417,167,70142,5,0,0:0:0:0:
399,208,70228,1,0,0:0:0:0:
358,221,70314,1,0,0:0:0:0:
321,198,70400,1,0,0:0:0:0:
282,179,70485,1,0,0:0:0:0:
246,202,70571,1,0,0:0:0:0:
248,245,70657,1,0,0:0:0:0:
255,288,70742,1,0,0:0:0:0:
227,322,70828,1,0,0:0:0:0:
183,323,70914,5,0,0:0:0:0:
154,291,71000,1,0,0:0:0:0:
135,250,71085,1,0,0:0:0:0:
140,206,71171,1,0,0:0:0:0:
168,172,71257,1,0,0:0:0:0:
210,157,71342,1,0,0:0:0:0:
253,167,71428,1,0,0:0:0:0:
285,198,71514,1,0,0:0:0:0:
325,216,71599,1,0,0:0:0:0:
366,201,71685,5,0,0:0:0:0:
383,161,71771,1,0,0:0:0:0:
367,121,71856,1,0,0:0:0:0:
327,103,71943,1,0,0:0:0:0:
284,92,72028,1,0,0:0:0:0:
244,110,72114,1,0,0:0:0:0:
223,148,72200,1,0,0:0:0:0:
230,192,72285,1,0,0:0:0:0:
263,222,72371,1,0,0:0:0:0:
307,225,72457,5,0,0:0:0:0:
339,253,72542,1,0,0:0:0:0:
329,294,72628,1,0,0:0:0:0:
287,303,72714,1,0,0:0:0:0:
245,289,72799,1,0,0:0:0:0:
219,253,72885,1,0,0:0:0:0:
219,209,72971,1,0,0:0:0:0:
244,173,73057,1,0,0:0:0:0:
271,139,73142,1,0,0:0:0:0:
264,96,73228,5,0,0:0:0:0:
227,73,73314,1,0,0:0:0:0:
185,85,73400,1,0,0:0:0:0:
157,120,73485,1,0,0:0:0:0:
143,162,73571,1,0,0:0:0:0:
145,207,73657,1,0,0:0:0:0:
163,248,73742,1,0,0:0:0:0:
195,280,73828,1,0,0:0:0:0:
236,297,73913,1,0,0:0:0:0:
280,294,73999,5,0,0:0:0:0:
318,270,74085,1,0,0:0:0:0:
340,232,74170,1,0,0:0:0:0:
342,187,74257,1,0,0:0:0:0:
329,145,74342,1,0,0:0:0:0:
290,126,74428,1,0,0:0:0:0:
249,141,74514,1,0,0:0:0:0:
232,181,74600,1,0,0:0:0:0:
210,219,74685,1,0,0:0:0:0:
168,232,74771,5,0,0:0:0:0:
128,213,74857,1,0,0:0:0:0:
112,172,74942,1,0,0:0:0:0:
128,132,75028,1,0,0:0:0:0:
160,101,75113,1,0,0:0:0:0:
204,98,75199,1,0,0:0:0:0:
238,126,75285,1,0,0:0:0:0:
246,169,75370,1,0,0:0:0:0:
120,232,75543,1,0,0:0:0:0:
120,232,75714,6,0,L|70:227,2,45,8|8|0,0:0|0:0|0:0,0:0:0:0:
152,152,76057,2,0,L|108:128,2,45,8|8|0,0:0|0:0|0:0,0:0:0:0:
224,96,76400,2,0,L|202:50,2,45,8|8|0,0:0|0:0|0:0,0:0:0:0:
320,88,76743,2,0,L|330:39,2,45,8|8|0,0:0|0:0|0:0,0:0:0:0:
432,184,77086,1,4,0:0:0:0:
240,72,78457,5,0,0:0:0:0:
195,77,78542,1,0,0:0:0:0:
156,99,78628,1,0,0:0:0:0:
129,134,78714,1,0,0:0:0:0:
118,177,78799,1,0,0:0:0:0:
124,222,78886,1,0,0:0:0:0:
147,260,78971,1,0,0:0:0:0:
181,289,79057,1,0,0:0:0:0:
222,307,79143,1,0,0:0:0:0:
267,312,79228,5,0,0:0:0:0:
311,303,79314,1,0,0:0:0:0:
350,281,79400,1,0,0:0:0:0:
377,245,79485,1,0,0:0:0:0:
392,203,79571,1,0,0:0:0:0:
393,158,79657,1,0,0:0:0:0:
376,112,79743,1,0,0:0:0:0:
351,75,79828,1,0,0:0:0:0:
309,62,79914,1,0,0:0:0:0:
268,78,80000,5,0,0:0:0:0:
245,116,80085,1,0,0:0:0:0:
252,160,80171,1,0,0:0:0:0:
276,197,80256,1,0,0:0:0:0:
274,241,80342,1,0,0:0:0:0:
247,276,80428,1,0,0:0:0:0:
205,289,80513,1,0,0:0:0:0:
163,275,80599,1,0,0:0:0:0:
137,239,80685,5,0,0:0:0:0:
136,194,80771,1,0,0:0:0:0:
144,152,80857,1,0,0:0:0:0:
174,113,80942,1,0,0:0:0:0:
212,91,81028,1,0,0:0:0:0:
257,90,81114,1,0,0:0:0:0:
296,111,81199,1,0,0:0:0:0:
360,200,81543,5,8,0:0:0:0:
360,200,81714,1,8,0:0:0:0:
128,232,82057,2,8,P|176:280|217:268,1,90
304,288,82571,5,0,0:0:0:0:
347,279,82656,1,0,0:0:0:0:
384,253,82742,1,0,0:0:0:0:
407,215,82828,1,0,0:0:0:0:
411,171,82913,1,0,0:0:0:0:
398,128,82999,1,0,0:0:0:0:
368,95,83086,1,0,0:0:0:0:
325,84,83171,1,0,0:0:0:0:
283,99,83257,1,0,0:0:0:0:
258,135,83343,5,0,0:0:0:0:
227,167,83428,1,0,0:0:0:0:
185,183,83514,1,0,0:0:0:0:
140,180,83600,1,0,0:0:0:0:
101,158,83685,1,0,0:0:0:0:
75,122,83771,1,0,0:0:0:0:
78,78,83856,1,0,0:0:0:0:
110,48,83942,1,0,0:0:0:0:
154,48,84028,1,0,0:0:0:0:
186,78,84113,5,0,0:0:0:0:
189,122,84200,1,0,0:0:0:0:
183,167,84285,1,0,0:0:0:0:
184,212,84371,1,0,0:0:0:0:
192,256,84457,1,0,0:0:0:0:
206,299,84543,1,0,0:0:0:0:
235,331,84628,1,0,0:0:0:0:
278,328,84714,1,0,0:0:0:0:
302,293,84800,1,0,0:0:0:0:
289,251,84886,5,0,0:0:0:0:
273,209,84971,1,0,0:0:0:0:
272,164,85057,1,0,0:0:0:0:
285,121,85143,1,0,0:0:0:0:
310,85,85228,1,0,0:0:0:0:
352,71,85313,1,0,0:0:0:0:
389,94,85399,1,0,0:0:0:0:
396,137,85486,1,0,0:0:0:0:
381,179,85571,1,0,0:0:0:0:
344,204,85657,5,0,0:0:0:0:
300,201,85743,1,0,0:0:0:0:
266,173,85828,1,0,0:0:0:0:
228,151,85913,1,0,0:0:0:0:
185,160,85999,1,0,0:0:0:0:
160,196,86085,1,0,0:0:0:0:
166,239,86171,1,0,0:0:0:0:
200,268,86256,1,0,0:0:0:0:
243,277,86343,1,0,0:0:0:0:
286,266,86428,1,0,0:0:0:0:
321,238,86514,1,0,0:0:0:0:
340,198,86600,1,0,0:0:0:0:
340,153,86685,1,0,0:0:0:0:
160,104,87029,5,8,0:0:0:0:
160,104,87200,1,8,0:0:0:0:
184,240,87543,2,8,P|232:289|273:277,1,90
344,80,88057,5,0,0:0:0:0:
385,95,88142,1,0,0:0:0:0:
409,132,88228,1,0,0:0:0:0:
405,176,88314,1,0,0:0:0:0:
376,210,88399,1,0,0:0:0:0:
333,219,88485,1,0,0:0:0:0:
293,200,88571,1,0,0:0:0:0:
272,161,88657,1,0,0:0:0:0:
258,118,88742,1,0,0:0:0:0:
224,91,88828,5,0,0:0:0:0:
179,87,88914,1,0,0:0:0:0:
141,109,88999,1,0,0:0:0:0:
121,149,89085,1,0,0:0:0:0:
127,193,89171,1,0,0:0:0:0:
154,228,89256,1,0,0:0:0:0:
196,244,89342,1,0,0:0:0:0:
239,236,89428,1,0,0:0:0:0:
269,204,89513,1,0,0:0:0:0:
264,161,89600,5,0,0:0:0:0:
260,118,89685,1,0,0:0:0:0:
295,94,89771,1,0,0:0:0:0:
337,105,89856,1,0,0:0:0:0:
353,145,89942,1,0,0:0:0:0:
330,182,90028,1,0,0:0:0:0:
305,218,90113,1,0,0:0:0:0:
313,261,90199,1,0,0:0:0:0:
349,286,90285,1,0,0:0:0:0:
392,277,90371,5,0,0:0:0:0:
422,245,90456,1,0,0:0:0:0:
420,201,90542,1,0,0:0:0:0:
388,171,90628,1,0,0:0:0:0:
346,187,90713,1,0,0:0:0:0:
302,193,90799,1,0,0:0:0:0:
257,189,90885,1,0,0:0:0:0:
214,176,90972,1,0,0:0:0:0:
192,138,91057,1,0,0:0:0:0:
204,97,91143,5,0,0:0:0:0:
243,79,91228,1,0,0:0:0:0:
283,97,91314,1,0,0:0:0:0:
296,144,91400,1,0,0:0:0:0:
310,185,91485,1,0,0:0:0:0:
348,207,91571,1,0,0:0:0:0:
391,198,91657,1,0,0:0:0:0:
417,163,91743,1,0,0:0:0:0:
424,119,91828,1,0,0:0:0:0:
409,77,91914,1,0,0:0:0:0:
375,48,92000,1,0,0:0:0:0:
332,40,92085,1,0,0:0:0:0:
290,55,92171,1,0,0:0:0:0:
176,168,92514,5,8,0:0:0:0:
176,168,92685,1,8,0:0:0:0:
336,216,93028,2,8,P|373:157|353:120,1,90
200,80,93543,5,0,0:0:0:0:
156,69,93628,1,0,0:0:0:0:
113,80,93714,1,0,0:0:0:0:
81,111,93800,1,0,0:0:0:0:
66,153,93885,1,0,0:0:0:0:
74,197,93971,1,0,0:0:0:0:
104,229,94056,1,0,0:0:0:0:
147,239,94142,1,0,0:0:0:0:
188,223,94228,1,0,0:0:0:0:
229,204,94313,5,0,0:0:0:0:
272,193,94399,1,0,0:0:0:0:
317,191,94485,1,0,0:0:0:0:
362,196,94570,1,0,0:0:0:0:
405,210,94657,1,0,0:0:0:0:
439,238,94742,1,0,0:0:0:0:
447,281,94828,1,0,0:0:0:0:
426,320,94914,1,0,0:0:0:0:
385,337,94999,1,0,0:0:0:0:
343,323,95086,5,0,0:0:0:0:
303,300,95171,1,0,0:0:0:0:
264,279,95257,1,0,0:0:0:0:
223,259,95343,1,0,0:0:0:0:
189,230,95428,1,0,0:0:0:0:
183,186,95514,1,0,0:0:0:0:
209,150,95600,1,0,0:0:0:0:
251,141,95686,1,0,0:0:0:0:
296,141,95771,1,0,0:0:0:0:
341,135,95857,5,0,0:0:0:0:
384,122,95943,1,0,0:0:0:0:
400,81,96028,1,0,0:0:0:0:
379,42,96114,1,0,0:0:0:0:
337,33,96200,1,0,0:0:0:0:
302,59,96286,1,0,0:0:0:0:
273,92,96371,1,0,0:0:0:0:
266,136,96457,1,0,0:0:0:0:
283,177,96543,1,0,0:0:0:0:
319,203,96628,5,0,0:0:0:0:
336,244,96713,1,0,0:0:0:0:
323,286,96799,1,0,0:0:0:0:
285,309,96885,1,0,0:0:0:0:
242,303,96970,1,0,0:0:0:0:
212,270,97057,1,0,0:0:0:0:
213,225,97142,1,0,0:0:0:0:
234,186,97228,1,0,0:0:0:0:
270,160,97314,1,0,0:0:0:0:
384,240,97657,6,0,L|434:235,2,45,8|8|0,0:0|0:0|0:0,0:0:0:0:
368,144,98000,2,0,L|412:120,2,45,8|8|0,0:0|0:0|0:0,0:0:0:0:
288,96,98343,2,0,L|310:50,2,45,8|8|0,0:0|0:0|0:0,0:0:0:0:
192,96,98686,2,0,L|182:47,2,45,8|8|0,0:0|0:0|0:0,0:0:0:0:
104,176,99028,1,4,0:0:0:0:
192,128,110000,5,0,0:0:0:0:
256,192,110686,1,0,0:0:0:0:
320,128,111371,1,0,0:0:0:0:
256,192,112057,1,0,0:0:0:0:
192,256,112743,5,0,0:0:0:0:
256,192,113428,1,0,0:0:0:0:
320,256,114114,1,0,0:0:0:0:
256,192,114800,1,0,0:0:0:0:
184,264,115486,5,0,0:0:0:0:
328,120,115828,1,0,0:0:0:0:
328,264,116171,5,0,0:0:0:0:
184,120,116514,1,0,0:0:0:0:
328,120,116857,5,0,0:0:0:0:
184,264,117200,1,0,0:0:0:0:
192,128,117543,5,0,0:0:0:0:
328,264,117886,1,0,0:0:0:0:
360,72,118228,6,0,L|246:103,1,107.999996704102
152,168,118571,2,0,L|265:199,1,107.999996704102
360,264,118914,2,0,L|246:295,1,107.999996704102
152,168,119257,5,0,0:0:0:0:
152,168,119428,1,0,0:0:0:0:
240,48,119600,1,0,0:0:0:0:
272,41,119685,1,0,0:0:0:0:
305,39,119771,1,0,0:0:0:0:
337,42,119857,1,0,0:0:0:0:
369,50,119942,1,0,0:0:0:0:
399,64,120028,1,0,0:0:0:0:
425,85,120114,1,0,0:0:0:0:
445,110,120200,5,0,0:0:0:0:
459,140,120285,1,0,0:0:0:0:
467,172,120371,1,0,0:0:0:0:
468,205,120457,1,0,0:0:0:0:
461,237,120542,1,0,0:0:0:0:
447,267,120628,1,0,0:0:0:0:
426,292,120714,1,0,0:0:0:0:
399,310,120800,1,0,0:0:0:0:
368,321,120885,1,0,0:0:0:0:
335,328,120971,5,0,0:0:0:0:
296,336,121057,1,0,0:0:0:0:
243,326,121142,1,0,0:0:0:0:
194,303,121228,1,0,0:0:0:0:
151,270,121314,1,0,0:0:0:0:
115,230,121399,1,0,0:0:0:0:
101,181,121485,1,0,0:0:0:0:
103,128,121571,1,0,0:0:0:0:
139,88,121657,1,0,0:0:0:0:
187,64,121742,5,0,0:0:0:0:
240,53,121828,1,0,0:0:0:0:
293,54,121914,1,0,0:0:0:0:
346,68,121999,1,0,0:0:0:0:
390,98,122085,1,0,0:0:0:0:
383,144,122171,1,0,0:0:0:0:
331,155,122257,1,0,0:0:0:0:
279,143,122342,1,0,0:0:0:0:
233,114,122428,1,0,0:0:0:0:
193,79,122514,5,0,0:0:0:0:
146,52,122599,1,0,0:0:0:0:
93,54,122685,1,0,0:0:0:0:
52,88,122771,1,0,0:0:0:0:
32,138,122857,1,0,0:0:0:0:
29,192,122942,1,0,0:0:0:0:
44,243,123028,1,0,0:0:0:0:
78,284,123114,2,0,L|118:229,1,53.9999983520508
190,292,123286,2,0,L|202:229,1,53.9999983520508
295,234,123457,2,0,L|289:163,1,53.9999983520508
372,121,123714,5,0,0:0:0:0:
417,91,123799,1,0,0:0:0:0:
468,97,123885,1,0,0:0:0:0:
495,143,123971,1,0,0:0:0:0:
482,194,124057,1,0,0:0:0:0:
440,227,124142,1,0,0:0:0:0:
387,235,124228,1,0,0:0:0:0:
337,217,124314,1,0,0:0:0:0:
297,181,124399,1,0,0:0:0:0:
257,145,124485,5,0,0:0:0:0:
210,119,124571,1,0,0:0:0:0:
157,110,124656,1,0,0:0:0:0:
106,125,124742,1,0,0:0:0:0:
75,168,124828,1,0,0:0:0:0:
78,221,124914,1,0,0:0:0:0:
238,276,125086,5,0,0:0:0:0:
385,220,125428,2,0,P|390:172|323:134,1,107.999996704102
253,215,125943,1,0,0:0:0:0:
253,215,126114,1,0,0:0:0:0:
105,265,126457,5,0,0:0:0:0:
83,216,126542,1,0,0:0:0:0:
79,163,126628,1,0,0:0:0:0:
92,111,126714,1,0,0:0:0:0:
133,76,126799,1,0,0:0:0:0:
183,58,126885,1,0,0:0:0:0:
237,59,126971,1,0,0:0:0:0:
288,74,127056,1,0,0:0:0:0:
329,109,127142,1,0,0:0:0:0:
350,158,127228,5,0,0:0:0:0:
349,212,127313,1,0,0:0:0:0:
326,260,127399,1,0,0:0:0:0:
284,294,127485,1,0,0:0:0:0:
232,307,127571,1,0,0:0:0:0:
180,297,127656,1,0,0:0:0:0:
136,266,127744,1,0,0:0:0:0:
121,216,127829,1,0,0:0:0:0:
149,173,127915,1,0,0:0:0:0:
201,167,128001,5,0,0:0:0:0:
238,204,128086,1,0,0:0:0:0:
263,251,128171,1,0,0:0:0:0:
312,272,128257,1,0,0:0:0:0:
363,258,128343,1,0,0:0:0:0:
395,216,128428,1,0,0:0:0:0:
394,163,128514,1,0,0:0:0:0:
361,122,128600,1,0,0:0:0:0:
309,111,128686,1,0,0:0:0:0:
255,111,128771,5,0,0:0:0:0:
211,140,128857,1,0,0:0:0:0:
189,189,128943,1,0,0:0:0:0:
196,241,129028,1,0,0:0:0:0:
228,284,129113,1,0,0:0:0:0:
278,305,129199,1,0,0:0:0:0:
331,297,129285,1,0,0:0:0:0:
372,264,129370,1,0,0:0:0:0:
392,215,129457,1,0,0:0:0:0:
385,161,129542,5,0,0:0:0:0:
356,117,129628,1,0,0:0:0:0:
306,100,129714,1,0,0:0:0:0:
256,88,129800,1,0,0:0:0:0:
202,86,129885,1,0,0:0:0:0:
155,110,129971,1,0,0:0:0:0:
125,155,130057,1,0,0:0:0:0:
120,208,130142,1,0,0:0:0:0:
141,257,130228,1,0,0:0:0:0:
184,289,130314,1,0,0:0:0:0:
251,190,130571,5,0,0:0:0:0:
349,291,130914,2,0,P|398:249|393:179,1,107.999996704102
387,128,131428,1,0,0:0:0:0:
387,128,131600,1,0,0:0:0:0:
338,109,131943,5,0,0:0:0:0:
290,130,132028,1,0,0:0:0:0:
271,181,132114,1,0,0:0:0:0:
255,231,132199,1,0,0:0:0:0:
213,264,132285,1,0,0:0:0:0:
160,268,132371,1,0,0:0:0:0:
114,242,132456,1,0,0:0:0:0:
92,193,132542,1,0,0:0:0:0:
100,141,132628,1,0,0:0:0:0:
137,102,132714,5,0,0:0:0:0:
187,84,132799,1,0,0:0:0:0:
241,83,132885,1,0,0:0:0:0:
293,98,132971,1,0,0:0:0:0:
344,136,133057,1,0,0:0:0:0:
376,178,133142,1,0,0:0:0:0:
374,231,133228,1,0,0:0:0:0:
341,271,133314,1,0,0:0:0:0:
289,282,133399,1,0,0:0:0:0:
241,258,133486,5,0,0:0:0:0:
220,210,133571,1,0,0:0:0:0:
198,161,133656,1,0,0:0:0:0:
152,134,133742,1,0,0:0:0:0:
100,137,133828,1,0,0:0:0:0:
60,172,133913,1,0,0:0:0:0:
47,224,133999,1,0,0:0:0:0:
63,275,134085,1,0,0:0:0:0:
105,308,134170,1,0,0:0:0:0:
157,314,134256,5,0,0:0:0:0:
208,304,134343,1,0,0:0:0:0:
256,272,134428,1,0,0:0:0:0:
296,232,134514,1,0,0:0:0:0:
320,184,134599,1,0,0:0:0:0:
320,136,134685,1,0,0:0:0:0:
303,90,134771,1,0,0:0:0:0:
253,75,134857,1,0,0:0:0:0:
199,78,134942,1,0,0:0:0:0:
154,106,135028,5,0,0:0:0:0:
128,153,135114,1,0,0:0:0:0:
127,206,135199,1,0,0:0:0:0:
152,248,135286,1,0,0:0:0:0:
190,285,135371,1,0,0:0:0:0:
241,301,135457,1,0,0:0:0:0:
294,293,135543,1,0,0:0:0:0:
338,262,135628,1,0,0:0:0:0:
368,208,135714,1,0,0:0:0:0:
366,155,135799,5,0,0:0:0:0:
328,118,135885,1,0,0:0:0:0:
280,120,135971,1,0,0:0:0:0:
256,160,136056,1,0,0:0:0:0:
248,208,136143,1,0,0:0:0:0:
235,252,136229,1,0,0:0:0:0:
193,286,136315,1,0,0:0:0:0:
140,291,136400,1,0,0:0:0:0:
93,266,136486,1,0,0:0:0:0:
68,219,136572,5,0,0:0:0:0:
72,166,136658,1,0,0:0:0:0:
96,120,136743,1,0,0:0:0:0:
147,110,136829,1,0,0:0:0:0:
187,144,136915,1,0,0:0:0:0:
184,196,137000,1,0,0:0:0:0:
184,240,137086,1,0,0:0:0:0:
223,272,137171,1,0,0:0:0:0:
271,254,137257,1,0,0:0:0:0:
391,144,137428,5,0,0:0:0:0:
96,94,137600,1,0,0:0:0:0:
77,144,137685,1,0,0:0:0:0:
85,196,137771,1,0,0:0:0:0:
119,237,137857,1,0,0:0:0:0:
169,256,137942,1,0,0:0:0:0:
222,246,138028,1,0,0:0:0:0:
262,212,138115,1,0,0:0:0:0:
305,182,138200,5,0,0:0:0:0:
357,193,138286,1,0,0:0:0:0:
383,238,138372,1,0,0:0:0:0:
368,288,138457,1,0,0:0:0:0:
321,312,138543,1,0,0:0:0:0:
270,321,138628,1,0,0:0:0:0:
142,285,138800,5,0,0:0:0:0:
136,157,138971,1,0,0:0:0:0:
139,104,139056,1,0,0:0:0:0:
180,71,139142,1,0,0:0:0:0:
232,79,139228,1,0,0:0:0:0:
261,122,139315,1,0,0:0:0:0:
290,167,139400,1,0,0:0:0:0:
338,190,139486,1,0,0:0:0:0:
391,184,139572,1,0,0:0:0:0:
427,148,139657,5,0,0:0:0:0:
408,100,139743,1,0,0:0:0:0:
357,98,139828,1,0,0:0:0:0:
314,68,139913,1,0,0:0:0:0:
262,77,139999,1,0,0:0:0:0:
230,118,140085,1,0,0:0:0:0:
236,171,140170,1,0,0:0:0:0:
276,205,140257,1,0,0:0:0:0:
326,220,140342,1,0,0:0:0:0:
348,268,140428,5,0,0:0:0:0:
326,315,140514,1,0,0:0:0:0:
276,334,140599,1,0,0:0:0:0:
223,327,140685,1,0,0:0:0:0:
178,297,140771,1,0,0:0:0:0:
152,251,140856,1,0,0:0:0:0:
150,197,140942,1,0,0:0:0:0:
173,149,141028,1,0,0:0:0:0:
215,116,141114,1,0,0:0:0:0:
267,105,141199,1,0,0:0:0:0:
384,120,141543,6,0,L|466:69,2,53.9999983520508
128,264,141886,2,0,L|46:315,2,53.9999983520508
384,264,142228,2,0,L|466:315,2,53.9999983520508
128,120,142571,2,0,L|46:69,2,53.9999983520508
256,192,142914,5,0,0:0:0:0:
265,243,142999,1,0,0:0:0:0:
307,276,143085,1,0,0:0:0:0:
360,273,143171,1,0,0:0:0:0:
400,232,143257,1,0,0:0:0:0:
416,181,143342,1,0,0:0:0:0:
406,128,143428,1,0,0:0:0:0:
372,88,143514,1,0,0:0:0:0:
322,69,143599,1,0,0:0:0:0:
269,77,143686,5,0,0:0:0:0:
229,109,143771,1,0,0:0:0:0:
237,160,143857,1,0,0:0:0:0:
286,178,143943,1,0,0:0:0:0:
338,177,144028,1,0,0:0:0:0:
380,210,144114,1,0,0:0:0:0:
393,262,144200,1,0,0:0:0:0:
371,310,144285,1,0,0:0:0:0:
323,334,144371,1,0,0:0:0:0:
271,323,144457,5,0,0:0:0:0:
237,283,144543,1,0,0:0:0:0:
218,233,144628,1,0,0:0:0:0:
241,186,144714,1,0,0:0:0:0:
280,160,144800,1,0,0:0:0:0:
336,160,144886,1,0,0:0:0:0:
416,224,144971,2,0,L|336:248,1,53.9999983520508
304,296,145143,2,0,L|208:272,1,53.9999983520508
168,296,145314,2,0,L|128:232,1,53.9999983520508
144,136,145657,5,0,0:0:0:0:
161,86,145742,1,0,0:0:0:0:
208,61,145828,1,0,0:0:0:0:
259,75,145914,1,0,0:0:0:0:
287,119,146000,1,0,0:0:0:0:
286,173,146085,1,0,0:0:0:0:
255,216,146171,1,0,0:0:0:0:
205,235,146257,1,0,0:0:0:0:
153,222,146343,1,0,0:0:0:0:
102,220,146428,5,0,0:0:0:0:
72,262,146514,1,0,0:0:0:0:
91,310,146600,1,0,0:0:0:0:
142,320,146685,1,0,0:0:0:0:
344,248,147028,5,0,0:0:0:0:
216,96,147371,2,0,P|152:112|144:152,1,107.999996704102
192,256,147886,1,0,0:0:0:0:
312,264,148057,1,0,0:0:0:0:
344,224,148143,1,0,0:0:0:0:
328,176,148228,1,0,0:0:0:0:
168,56,148400,5,0,0:0:0:0:
115,50,148485,1,0,0:0:0:0:
77,86,148571,1,0,0:0:0:0:
77,138,148657,1,0,0:0:0:0:
116,173,148742,1,0,0:0:0:0:
168,167,148828,1,0,0:0:0:0:
220,167,148913,1,0,0:0:0:0:
259,203,148999,1,0,0:0:0:0:
262,255,149086,1,0,0:0:0:0:
229,296,149170,5,0,0:0:0:0:
177,303,149256,1,0,0:0:0:0:
133,273,149343,1,0,0:0:0:0:
117,221,149428,1,0,0:0:0:0:
133,171,149514,1,0,0:0:0:0:
176,136,149600,1,0,0:0:0:0:
288,128,149771,5,0,0:0:0:0:
392,192,149943,2,0,P|395:220|354:234,1,53.9999983520508
344,256,150114,1,0,0:0:0:0:
290,260,150199,1,0,0:0:0:0:
243,236,150285,1,0,0:0:0:0:
217,189,150372,1,0,0:0:0:0:
209,137,150457,1,0,0:0:0:0:
238,93,150543,1,0,0:0:0:0:
289,79,150629,1,0,0:0:0:0:
336,103,150714,5,0,0:0:0:0:
355,153,150800,1,0,0:0:0:0:
368,204,150885,1,0,0:0:0:0:
351,255,150971,1,0,0:0:0:0:
309,287,151057,1,0,0:0:0:0:
255,292,151142,1,0,0:0:0:0:
209,266,151228,1,0,0:0:0:0:
162,240,151313,1,0,0:0:0:0:
112,240,151400,1,0,0:0:0:0:
61,224,151486,5,0,0:0:0:0:
38,177,151571,1,0,0:0:0:0:
54,127,151657,1,0,0:0:0:0:
101,104,151742,1,0,0:0:0:0:
152,128,151828,1,0,0:0:0:0:
186,167,151913,1,0,0:0:0:0:
191,220,152000,1,0,0:0:0:0:
179,270,152085,1,0,0:0:0:0:
216,306,152171,1,0,0:0:0:0:
265,292,152257,1,0,0:0:0:0:
304,264,152343,1,0,0:0:0:0:
400,168,152514,5,0,0:0:0:0:
240,184,152686,2,0,P|236:155|277:141,1,53.9999983520508
288,120,152857,1,0,0:0:0:0:
340,109,152942,1,0,0:0:0:0:
388,131,153028,1,0,0:0:0:0:
416,176,153114,1,0,0:0:0:0:
414,229,153199,1,0,0:0:0:0:
376,272,153286,1,0,0:0:0:0:
323,279,153371,1,0,0:0:0:0:
280,248,153457,5,0,0:0:0:0:
246,206,153543,1,0,0:0:0:0:
200,180,153628,1,0,0:0:0:0:
147,187,153714,1,0,0:0:0:0:
113,226,153799,1,0,0:0:0:0:
122,278,153885,1,0,0:0:0:0:
168,303,153971,1,0,0:0:0:0:
216,282,154057,1,0,0:0:0:0:
250,242,154142,1,0,0:0:0:0:
251,189,154228,5,0,0:0:0:0:
218,149,154314,1,0,0:0:0:0:
189,105,154399,1,0,0:0:0:0:
209,58,154485,1,0,0:0:0:0:
260,49,154572,1,0,0:0:0:0:
313,41,154657,1,0,0:0:0:0:
361,65,154743,1,0,0:0:0:0:
387,111,154829,1,0,0:0:0:0:
383,164,154914,1,0,0:0:0:0:
349,205,155000,5,0,0:0:0:0:
298,220,155086,1,0,0:0:0:0:
244,226,155171,1,0,0:0:0:0:
194,244,155257,1,0,0:0:0:0:
149,274,155343,1,0,0:0:0:0:
104,264,155428,1,0,0:0:0:0:
73,226,155514,1,0,0:0:0:0:
80,176,155600,1,0,0:0:0:0:
112,136,155686,1,0,0:0:0:0:
240,112,155943,5,0,0:0:0:0:
240,112,156114,1,0,0:0:0:0:
368,168,156286,2,0,P|360:200|320:216,1,53.9999983520508
232,256,156628,5,0,0:0:0:0:
180,268,156713,1,0,0:0:0:0:
131,247,156799,1,0,0:0:0:0:
96,216,156885,1,0,0:0:0:0:
88,168,156971,1,0,0:0:0:0:
104,120,157056,1,0,0:0:0:0:
144,88,157142,1,0,0:0:0:0:
192,80,157228,1,0,0:0:0:0:
240,96,157313,1,0,0:0:0:0:
264,136,157399,5,0,0:0:0:0:
264,184,157486,1,0,0:0:0:0:
285,231,157571,1,0,0:0:0:0:
334,248,157657,1,0,0:0:0:0:
380,223,157743,1,0,0:0:0:0:
352,88,158000,1,0,0:0:0:0:
184,128,158343,1,0,0:0:0:0:
184,128,158514,1,0,0:0:0:0:
168,256,158857,2,0,P|208:304|256:288,1,107.999996704102
352,152,159371,5,0,0:0:0:0:
240,80,159543,1,0,0:0:0:0:
189,63,159628,1,0,0:0:0:0:
137,75,159714,1,0,0:0:0:0:
98,112,159800,1,0,0:0:0:0:
84,164,159885,1,0,0:0:0:0:
98,215,159971,1,0,0:0:0:0:
136,252,160057,1,0,0:0:0:0:
178,286,160142,1,0,0:0:0:0:
230,293,160228,5,0,0:0:0:0:
279,271,160314,1,0,0:0:0:0:
309,227,160401,1,0,0:0:0:0:
294,176,160486,1,0,0:0:0:0:
247,153,160571,1,0,0:0:0:0:
196,164,160656,1,0,0:0:0:0:
174,211,160742,1,0,0:0:0:0:
199,257,160828,1,0,0:0:0:0:
248,276,160913,1,0,0:0:0:0:
298,260,161000,5,0,0:0:0:0:
331,219,161085,1,0,0:0:0:0:
331,166,161171,1,0,0:0:0:0:
295,127,161257,1,0,0:0:0:0:
243,120,161343,1,0,0:0:0:0:
192,135,161428,1,0,0:0:0:0:
165,180,161514,1,0,0:0:0:0:
176,232,161600,1,0,0:0:0:0:
218,263,161685,1,0,0:0:0:0:
270,253,161771,5,0,0:0:0:0:
317,227,161857,1,0,0:0:0:0:
365,202,161942,1,0,0:0:0:0:
418,200,162028,1,0,0:0:0:0:
450,241,162114,1,0,0:0:0:0:
434,291,162200,1,0,0:0:0:0:
388,318,162285,1,0,0:0:0:0:
335,328,162371,1,0,0:0:0:0:
284,315,162456,1,0,0:0:0:0:
246,277,162542,5,0,0:0:0:0:
235,225,162628,1,0,0:0:0:0:
254,175,162714,1,0,0:0:0:0:
259,125,162799,1,0,0:0:0:0:
213,103,162885,1,0,0:0:0:0:
176,137,162972,1,0,0:0:0:0:
173,190,163057,1,0,0:0:0:0:
209,229,163143,1,0,0:0:0:0:
392,240,163486,6,0,L|442:235,2,45,0|0|8,0:0|0:0|0:0,0:0:0:0:
360,160,163829,2,0,L|404:136,2,45,0|0|8,0:0|0:0|0:0,0:0:0:0:
288,104,164172,2,0,L|310:58,2,45,0|0|8,0:0|0:0|0:0,0:0:0:0:
192,96,164514,2,0,L|182:47,2,45,0|0|8,0:0|0:0|0:0,0:0:0:0:
80,192,164858,1,4,0:0:0:0:
