osu file format v14

[General]
AudioFilename: audio.mp3
AudioLeadIn: 0
PreviewTime: -1
Countdown: 0
SampleSet: Soft
StackLeniency: 0.7
Mode: 0
LetterboxInBreaks: 0
WidescreenStoryboard: 1

[Editor]
Bookmarks: 55143,71600,77086,93543,99028,115486,120971,137428,159371,164857
DistanceSpacing: 0.6
BeatDivisor: 4
GridSize: 32
TimelineZoom: 1.2

[Metadata]
Title:Tower Of Heaven (You Are Slaves)
TitleUnicode:Tower Of Heaven (You Are Slaves)
Artist:Feint
ArtistUnicode:Feint
Creator:SunBla
Version:Insane
Source:
Tags:
BeatmapID:1877569
BeatmapSetID:892850

[Difficulty]
HPDrainRate:5
CircleSize:3.7
OverallDifficulty:8.5
ApproachRate:8.3
SliderMultiplier:2
SliderTickRate:1

[Events]
//Background and Video events
0,0,"DSC100800131.jpg",0,0
//Break Periods
//Storyboard Layer 0 (Background)
//Storyboard Layer 1 (Fail)
//Storyboard Layer 2 (Pass)
//Storyboard Layer 3 (Foreground)
//Storyboard Sound Samples

[TimingPoints]
286,342.857142857143,4,2,0,55,1,0
286,-166.666666666667,4,2,0,55,0,0
9543,-500,4,2,0,55,0,0
10228,-166.666666666667,4,2,0,55,0,0
16743,-212.765957446809,4,2,0,55,0,0
19143,-250,4,2,0,55,0,0
22228,-166.666666666667,4,2,0,55,0,0
55143,-125,4,2,0,55,0,0

[Colours]
Combo1 : 128,128,64
Combo2 : 128,64,64
Combo3 : 64,128,128

[HitObjects]
0,89,286,6,0,L|2:153,1,59.9999981689454
95,160,628,2,0,L|93:224,1,59.9999981689454
59,338,971,2,0,L|0:330,2,59.9999981689454
184,353,1486,1,0,0:0:0:0:
379,158,1828,5,0,0:0:0:0:
379,158,2000,2,0,L|368:232,1,59.9999981689454
435,327,2343,2,0,L|376:280,1,59.9999981689454
261,292,2686,2,0,L|330:264,1,59.9999981689454
512,193,3028,5,0,0:0:0:0:
268,52,3371,2,0,P|290:25|301:-2,1,59.9999981689454
512,64,3714,2,0,B|398:118|398:22|274:85,1,239.999992675781
185,71,4743,6,0,L|189:140,1,59.9999981689454
101,0,5086,2,0,B|88:68|88:68|104:128|104:128|95:175,1,179.999994506836
177,273,5771,6,0,L|186:195,1,59.9999981689454
295,118,6114,1,0,0:0:0:0:
260,216,6286,1,0,0:0:0:0:
391,136,6457,2,0,L|381:57,2,59.9999981689454
455,253,6971,1,0,0:0:0:0:
299,339,7314,5,0,0:0:0:0:
430,384,7486,1,0,0:0:0:0:
201,306,7828,2,0,L|276:296,1,59.9999981689454
94,282,8171,2,0,L|19:272,1,59.9999981689454
161,207,8514,1,0,0:0:0:0:
85,103,8857,6,0,L|77:162,1,59.9999981689454
171,0,9200,2,0,L|163:59,1,59.9999981689454
190,183,9543,6,0,L|217:181,1,20
298,122,9886,2,0,L|271:120,1,20
326,241,10228,6,0,L|348:168,1,59.9999981689454
298,14,10571,2,0,L|349:69,1,59.9999981689454
508,101,10914,2,0,L|434:117,1,59.9999981689454
427,29,11257,5,0,0:0:0:0:
469,14,11771,1,0,0:0:0:0:
512,0,12286,1,0,0:0:0:0:
467,198,12628,1,0,0:0:0:0:
510,363,13657,5,0,0:0:0:0:
490,356,13742,1,0,0:0:0:0:
469,351,13828,1,0,0:0:0:0:
448,349,13914,1,0,0:0:0:0:
427,349,14000,2,0,P|386:355|349:352,1,59.9999981689454
204,384,14343,6,0,P|252:344|276:272,1,119.999996337891
449,113,14857,2,0,P|401:153|377:225,1,119.999996337891
253,247,15371,1,0,0:0:0:0:
101,213,16057,6,0,P|137:199|162:180,1,59.9999981689454
249,96,16400,1,0,0:0:0:0:
262,83,16485,1,0,0:0:0:0:
276,72,16571,1,0,0:0:0:0:
292,63,16657,1,0,0:0:0:0:
311,56,16743,6,0,P|340:99|352:138,1,93.9999985656739
512,167,17257,2,0,P|459:170|419:161,1,93.9999985656739
313,287,17771,2,0,P|335:239|363:209,1,93.9999985656739
436,110,18457,1,0,0:0:0:0:
394,0,18800,1,0,0:0:0:0:
185,88,19143,5,0,0:0:0:0:
170,98,19228,1,0,0:0:0:0:
156,109,19314,1,0,0:0:0:0:
144,122,19400,1,0,0:0:0:0:
133,137,19485,1,0,0:0:0:0:
2,158,19828,6,0,L|6:243,1,80
97,45,20343,2,0,L|93:130,1,80
0,0,20857,1,0,0:0:0:0:
128,298,21543,5,0,0:0:0:0:
146,312,21628,1,0,0:0:0:0:
167,324,21714,1,0,0:0:0:0:
190,331,21800,1,0,0:0:0:0:
214,333,21885,1,0,0:0:0:0:
238,335,21971,1,0,0:0:0:0:
261,340,22057,1,0,0:0:0:0:
283,351,22143,1,0,0:0:0:0:
302,365,22228,6,0,P|350:384|428:368,1,119.999996337891
512,294,22743,2,0,L|393:264,1,119.999996337891
253,226,23257,1,0,0:0:0:0:
298,158,23600,1,0,0:0:0:0:
173,177,23943,6,0,L|97:198,1,59.9999981689454
1,217,24286,1,0,0:0:0:0:
93,109,24457,1,0,0:0:0:0:
18,60,24628,5,0,0:0:0:0:
28,45,24713,1,0,0:0:0:0:
40,31,24799,1,0,0:0:0:0:
53,19,24885,1,0,0:0:0:0:
67,8,24970,1,0,0:0:0:0:
215,0,25314,6,0,P|271:25|313:75,1,119.999996337891
484,145,25828,2,0,P|443:98|426:35,1,119.999996337891
308,123,26343,1,0,0:0:0:0:
147,159,26686,1,0,0:0:0:0:
154,190,27028,6,0,L|229:224,1,59.9999981689454
327,258,27371,1,0,0:0:0:0:
346,265,27456,1,0,0:0:0:0:
365,275,27542,1,0,0:0:0:0:
382,286,27628,1,0,0:0:0:0:
400,299,27714,6,0,P|455:345|485:383,1,119.999996337891
494,262,28228,1,0,0:0:0:0:
381,239,28400,1,0,0:0:0:0:
467,159,28571,2,0,P|470:122|482:90,1,59.9999981689454
309,203,29086,1,0,0:0:0:0:
175,103,29428,6,0,L|172:174,1,59.9999981689454
57,184,29771,2,0,L|60:255,1,59.9999981689454
110,353,30114,1,0,0:0:0:0:
126,365,30199,1,0,0:0:0:0:
145,375,30285,1,0,0:0:0:0:
165,381,30371,1,0,0:0:0:0:
186,383,30456,1,0,0:0:0:0:
387,317,30800,6,0,L|313:300,1,59.9999981689454
208,269,31143,1,0,0:0:0:0:
326,214,31314,1,0,0:0:0:0:
223,85,31486,2,0,L|227:152,1,59.9999981689454
246,28,31828,1,0,0:0:0:0:
96,175,32171,6,0,L|81:103,1,59.9999981689454
38,16,32514,1,0,0:0:0:0:
58,10,32599,1,0,0:0:0:0:
79,8,32685,1,0,0:0:0:0:
100,10,32771,1,0,0:0:0:0:
120,15,32856,1,0,0:0:0:0:
140,21,32942,1,0,0:0:0:0:
161,24,33028,1,0,0:0:0:0:
182,23,33113,1,0,0:0:0:0:
203,20,33199,1,0,0:0:0:0:
339,4,33371,5,0,0:0:0:0:
275,103,33543,1,0,0:0:0:0:
410,107,33714,2,0,L|394:181,1,59.9999981689454
451,297,34057,2,0,L|463:238,1,59.9999981689454
447,62,34571,1,0,0:0:0:0:
217,225,34914,5,0,0:0:0:0:
317,188,35257,1,0,0:0:0:0:
175,180,35600,1,0,0:0:0:0:
154,177,35685,1,0,0:0:0:0:
133,178,35771,1,0,0:0:0:0:
112,180,35857,1,0,0:0:0:0:
91,184,35943,6,0,P|50:196|11:220,1,59.9999981689454
0,62,36286,2,0,L|11:189,1,119.999996337891
141,265,36800,2,0,L|130:392,1,119.999996337891
0,354,37314,6,0,B|101:393|101:309|216:363,1,209.999993591309
236,332,38000,2,0,P|277:320|307:300,1,59.9999981689454
394,186,38343,1,0,0:0:0:0:
405,172,38428,1,0,0:0:0:0:
417,159,38514,1,0,0:0:0:0:
431,147,38600,1,0,0:0:0:0:
446,136,38685,1,0,0:0:0:0:
499,40,38857,5,0,0:0:0:0:
475,186,39028,1,0,0:0:0:0:
373,0,39200,2,0,L|391:57,1,59.9999981689454
340,175,39543,2,0,L|321:117,1,59.9999981689454
255,0,40057,1,0,0:0:0:0:
82,138,40400,6,0,P|128:120|195:121,1,89.9999972534181
198,150,40743,2,0,P|233:161|264:164,1,59.9999981689454
419,194,41086,1,0,0:0:0:0:
436,199,41171,1,0,0:0:0:0:
453,205,41257,1,0,0:0:0:0:
469,212,41343,1,0,0:0:0:0:
485,220,41428,1,0,0:0:0:0:
430,319,41771,6,0,P|361:336|320:369,1,119.999996337891
132,344,42286,2,0,P|201:327|242:294,1,119.999996337891
93,383,42800,1,0,0:0:0:0:
0,384,43143,1,0,0:0:0:0:
21,285,43486,5,0,0:0:0:0:
24,267,43571,1,0,0:0:0:0:
30,250,43657,1,0,0:0:0:0:
39,234,43743,1,0,0:0:0:0:
51,221,43828,1,0,0:0:0:0:
64,208,43914,1,0,0:0:0:0:
77,196,44000,1,0,0:0:0:0:
87,181,44085,1,0,0:0:0:0:
95,165,44171,1,0,0:0:0:0:
102,60,44343,5,0,0:0:0:0:
186,138,44514,1,0,0:0:0:0:
198,0,44686,2,0,L|319:18,1,119.999996337891
443,86,45200,2,0,L|374:91,1,59.9999981689454
493,0,45543,2,0,L|424:5,1,59.9999981689454
293,104,45886,1,0,0:0:0:0:
356,253,46228,1,0,0:0:0:0:
200,193,46571,5,0,0:0:0:0:
182,187,46656,1,0,0:0:0:0:
166,180,46742,1,0,0:0:0:0:
151,170,46828,1,0,0:0:0:0:
137,158,46913,1,0,0:0:0:0:
122,24,47257,2,0,P|111:91|125:154,1,119.999996337891
1,179,47771,2,0,P|12:246|-2:309,1,119.999996337891
102,239,48286,1,0,0:0:0:0:
258,368,48971,6,0,P|267:321|286:286,1,59.9999981689454
336,197,49314,1,0,0:0:0:0:
346,182,49399,1,0,0:0:0:0:
354,166,49485,1,0,0:0:0:0:
360,149,49571,1,0,0:0:0:0:
365,131,49656,1,0,0:0:0:0:
411,9,50000,5,0,0:0:0:0:
457,164,50171,1,0,0:0:0:0:
287,50,50514,5,0,0:0:0:0:
241,205,50685,1,0,0:0:0:0:
0,116,51028,6,0,B|108:80|108:149|214:108|214:108|163:137|163:195,1,299.999990844727
145,288,52057,1,0,0:0:0:0:
141,304,52142,1,0,0:0:0:0:
136,322,52228,1,0,0:0:0:0:
129,338,52314,1,0,0:0:0:0:
120,354,52399,1,0,0:0:0:0:
30,265,52571,5,0,0:0:0:0:
66,375,52743,1,0,0:0:0:0:
117,229,52914,2,0,L|123:153,1,59.9999981689454
205,50,53257,2,0,L|200:109,1,59.9999981689454
220,280,53600,2,0,L|226:204,1,59.9999981689454
308,101,53943,2,0,L|303:160,1,59.9999981689454
370,332,54457,5,0,0:0:0:0:
371,311,54542,1,0,0:0:0:0:
375,290,54628,1,0,0:0:0:0:
383,271,54714,1,0,0:0:0:0:
395,253,54799,1,0,0:0:0:0:
409,238,54885,1,0,0:0:0:0:
424,223,54971,1,0,0:0:0:0:
437,206,55056,1,0,0:0:0:0:
447,185,55143,6,0,P|458:151|462:137,3,40
362,150,55486,2,0,P|351:116|347:101,3,40
421,77,55828,1,0,0:0:0:0:
426,59,55913,1,0,0:0:0:0:
435,44,55999,1,0,0:0:0:0:
447,31,56085,1,0,0:0:0:0:
465,15,56171,2,0,L|520:23,3,40
337,29,56514,6,0,L|280:34,1,40
210,104,56686,2,0,L|259:108,2,40
124,57,56943,2,0,L|84:53,2,40
196,158,57200,1,0,0:0:0:0:
199,173,57285,1,0,0:0:0:0:
201,189,57371,1,0,0:0:0:0:
202,205,57457,1,0,0:0:0:0:
203,222,57543,2,0,P|204:269|201:290,3,40
140,300,57886,6,0,P|91:294|50:269,1,80
229,365,58228,2,0,P|278:371|319:396,1,80
362,301,58571,1,0,0:0:0:0:
380,293,58656,1,0,0:0:0:0:
398,284,58742,1,0,0:0:0:0:
415,273,58828,1,0,0:0:0:0:
432,261,58914,2,0,P|469:237|493:225,3,40
512,169,59257,6,0,P|473:155|434:127,1,80
279,89,59600,2,0,P|308:118|331:160,1,80
328,232,59943,2,0,L|269:240,3,40
215,179,60286,2,0,L|175:173,3,40
229,265,60628,6,0,P|188:280|157:311,1,80
0,293,60971,2,0,P|41:278|72:247,1,80
135,138,61314,1,0,0:0:0:0:
143,120,61399,1,0,0:0:0:0:
154,103,61485,1,0,0:0:0:0:
167,88,61571,1,0,0:0:0:0:
183,75,61657,2,0,P|211:52|220:42,3,40
89,107,62000,6,0,L|40:115,3,40
39,29,62343,2,0,L|0:22,3,40
145,40,62686,1,0,0:0:0:0:
164,43,62771,1,0,0:0:0:0:
184,43,62857,1,0,0:0:0:0:
204,41,62943,1,0,0:0:0:0:
225,37,63028,2,0,P|253:32|272:32,3,40
362,18,63371,6,0,P|349:73|324:110,1,80
390,224,63714,2,0,P|396:184|414:148,1,80
481,8,64057,1,0,0:0:0:0:
481,27,64142,1,0,0:0:0:0:
483,47,64228,1,0,0:0:0:0:
486,67,64314,1,0,0:0:0:0:
490,87,64400,2,0,P|496:122|497:152,3,40
414,113,64743,6,0,P|358:119|317:108,1,80
176,185,65086,2,0,P|232:179|273:190,1,80
390,224,65428,1,0,0:0:0:0:
408,232,65513,1,0,0:0:0:0:
427,238,65599,1,0,0:0:0:0:
447,241,65685,1,0,0:0:0:0:
465,243,65771,2,0,P|508:255|522:264,3,40
404,311,66114,6,0,L|358:318,3,40
468,378,66457,2,0,L|507:384,3,40
366,384,66800,1,0,0:0:0:0:
346,385,66885,1,0,0:0:0:0:
326,384,66971,1,0,0:0:0:0:
306,381,67057,1,0,0:0:0:0:
287,376,67143,2,0,P|254:367|230:362,3,40
196,301,67486,6,0,P|142:316|108:342,1,80
0,331,67828,2,0,P|42:294|62:256,1,80
91,172,68171,1,0,0:0:0:0:
96,152,68256,1,0,0:0:0:0:
102,133,68342,1,0,0:0:0:0:
110,115,68428,1,0,0:0:0:0:
120,99,68514,2,0,P|140:68|144:56,3,40
64,44,68857,6,0,P|22:27|-4:-4,1,80
221,64,69200,2,0,P|263:81|289:112,1,80
334,235,69543,2,0,L|329:288,3,40
443,171,69886,2,0,L|448:224,3,40
353,64,70228,6,0,L|369:155,1,80
414,0,70571,2,0,L|405:92,1,80
370,219,70914,2,0,L|322:239,3,40
439,286,71257,2,0,L|478:280,3,40
329,324,71600,5,0,0:0:0:0:
304,337,71685,1,0,0:0:0:0:
277,344,71771,1,0,0:0:0:0:
249,342,71857,1,0,0:0:0:0:
222,335,71942,1,0,0:0:0:0:
194,331,72028,1,0,0:0:0:0:
167,338,72114,1,0,0:0:0:0:
143,352,72200,1,0,0:0:0:0:
124,373,72286,2,0,L|83:382,3,40
39,303,72628,2,0,L|0:294,3,40
133,177,72971,5,0,0:0:0:0:
116,273,73143,1,0,0:0:0:0:
222,144,73314,1,0,0:0:0:0:
205,240,73486,1,0,0:0:0:0:
311,154,73657,5,0,0:0:0:0:
325,130,73742,1,0,0:0:0:0:
343,108,73828,1,0,0:0:0:0:
363,88,73914,1,0,0:0:0:0:
386,70,74000,2,0,L|396:8,3,40
471,44,74343,6,0,L|478:5,3,40
449,130,74686,2,0,L|460:185,3,40
355,50,75028,1,0,0:0:0:0:
326,35,75113,1,0,0:0:0:0:
295,28,75199,1,0,0:0:0:0:
263,29,75285,1,0,0:0:0:0:
232,37,75371,2,0,P|199:49|179:65,3,40
122,140,75714,6,0,L|125:207,1,40
87,46,75886,2,0,L|85:6,1,40
110,133,76057,2,0,L|113:200,1,40
75,39,76229,2,0,L|73:0,1,40
11,117,76400,5,0,0:0:0:0:
17,144,76485,1,0,0:0:0:0:
22,171,76571,1,0,0:0:0:0:
25,199,76657,1,0,0:0:0:0:
26,227,76742,1,0,0:0:0:0:
25,255,76828,1,0,0:0:0:0:
22,283,76914,1,0,0:0:0:0:
17,311,77000,1,0,0:0:0:0:
11,338,77086,6,0,P|62:325|112:328,1,80
258,294,77428,2,0,P|206:284|162:260,1,80
112,180,77771,2,0,L|90:137,3,40
165,106,78114,2,0,L|143:63,3,40
202,189,78457,6,0,P|268:172|300:146,1,80
447,173,78800,2,0,P|381:190|349:216,1,80
291,264,79143,1,0,0:0:0:0:
287,291,79228,1,0,0:0:0:0:
284,319,79314,1,0,0:0:0:0:
281,347,79400,1,0,0:0:0:0:
278,375,79486,2,0,L|329:366,3,40
201,342,79828,6,0,L|153:316,3,40
211,257,80171,2,0,L|195:204,3,40
291,264,80514,1,0,0:0:0:0:
318,263,80599,1,0,0:0:0:0:
346,256,80685,1,0,0:0:0:0:
371,244,80771,1,0,0:0:0:0:
393,227,80857,2,0,P|436:198|449:195,3,40
308,174,81200,6,0,P|268:150|210:146,1,80
440,129,81543,2,0,P|480:105|538:101,1,80
371,59,81886,1,0,0:0:0:0:
343,55,81971,1,0,0:0:0:0:
316,47,82057,1,0,0:0:0:0:
291,35,82143,1,0,0:0:0:0:
268,18,82228,2,0,L|220:25,3,40
133,53,82571,6,0,P|94:28|74:-12,1,80
135,142,82914,2,0,P|180:148|215:175,1,80
48,100,83257,1,0,0:0:0:0:
50,127,83342,1,0,0:0:0:0:
52,155,83428,1,0,0:0:0:0:
54,183,83514,1,0,0:0:0:0:
58,212,83600,2,0,L|46:268,3,40
143,243,83943,6,0,L|218:274,1,80
294,384,84286,2,0,L|220:353,1,80
124,319,84628,1,0,0:0:0:0:
96,319,84713,1,0,0:0:0:0:
68,325,84799,1,0,0:0:0:0:
43,336,84885,1,0,0:0:0:0:
20,352,84971,2,0,L|50:385,3,40
5,269,85314,6,0,L|38:166,1,80
82,50,85657,2,0,L|115:153,1,80
208,166,86000,1,0,0:0:0:0:
232,152,86085,1,0,0:0:0:0:
258,142,86171,1,0,0:0:0:0:
285,135,86257,1,0,0:0:0:0:
314,132,86343,2,0,L|358:97,3,40
272,58,86686,6,0,P|234:34|211:1,1,80
345,209,87028,2,0,P|383:233|406:266,1,80
449,158,87371,1,0,0:0:0:0:
448,130,87456,1,0,0:0:0:0:
453,102,87542,1,0,0:0:0:0:
464,76,87628,1,0,0:0:0:0:
480,53,87714,2,0,L|476:2,3,40
386,65,88057,6,0,P|368:114|320:141,1,80
474,185,88400,2,0,P|492:234|540:261,1,80
495,354,88743,1,0,0:0:0:0:
469,342,88828,1,0,0:0:0:0:
443,333,88914,1,0,0:0:0:0:
415,327,89000,1,0,0:0:0:0:
387,325,89086,2,0,L|333:356,3,40
328,266,89428,6,0,P|279:258|232:237,1,80
236,366,89771,2,0,P|187:374|140:395,1,80
87,317,90114,1,0,0:0:0:0:
89,289,90199,1,0,0:0:0:0:
88,261,90285,1,0,0:0:0:0:
83,233,90371,1,0,0:0:0:0:
76,206,90457,2,0,L|44:168,3,40
112,124,90800,6,0,P|162:111|196:115,1,80
306,0,91143,2,0,P|266:32|233:43,1,80
142,20,91486,1,0,0:0:0:0:
114,15,91571,1,0,0:0:0:0:
86,14,91657,1,0,0:0:0:0:
58,16,91743,1,0,0:0:0:0:
31,22,91828,2,0,L|-1:48,3,40
64,94,92171,6,0,P|73:141|56:192,1,80
180,191,92514,2,0,P|200:224|233:247,1,80
331,319,92857,2,0,L|357:362,3,40
383,252,93200,2,0,L|409:295,3,40
311,197,93543,5,0,0:0:0:0:
291,176,93628,1,0,0:0:0:0:
277,152,93714,1,0,0:0:0:0:
270,125,93800,1,0,0:0:0:0:
266,98,93885,1,0,0:0:0:0:
257,71,93971,1,0,0:0:0:0:
240,49,94057,1,0,0:0:0:0:
219,30,94143,1,0,0:0:0:0:
194,19,94228,2,0,L|150:1,3,40
305,15,94571,2,0,L|349:-3,3,40
346,93,94914,6,0,P|383:130|426:144,1,80
310,230,95257,2,0,P|310:282|289:322,1,80
217,362,95600,1,0,0:0:0:0:
190,352,95685,1,0,0:0:0:0:
163,346,95771,1,0,0:0:0:0:
135,344,95857,1,0,0:0:0:0:
107,345,95943,2,0,L|70:378,3,40
140,243,96286,6,0,P|150:193|141:148,1,80
256,181,96628,2,0,P|284:138|322:113,1,80
407,95,96971,2,0,L|461:103,3,40
473,26,97314,2,0,L|512:20,3,40
391,17,97657,5,0,0:0:0:0:
367,15,97742,1,0,0:0:0:0:
343,16,97828,1,0,0:0:0:0:
319,20,97914,1,0,0:0:0:0:
296,28,97999,1,0,0:0:0:0:
275,39,98085,1,0,0:0:0:0:
253,49,98171,1,0,0:0:0:0:
231,58,98257,1,0,0:0:0:0:
207,62,98342,1,0,0:0:0:0:
183,62,98428,1,0,0:0:0:0:
160,59,98514,1,0,0:0:0:0:
136,53,98599,1,0,0:0:0:0:
113,46,98686,2,0,L|52:36,4,40
