osu file format v14

[General]
AudioFilename: audio.mp3
AudioLeadIn: 0
PreviewTime: 54175
Countdown: 0
SampleSet: Normal
StackLeniency: 0.7
Mode: 1
LetterboxInBreaks: 0
WidescreenStoryboard: 1

[Editor]
DistanceSpacing: 1.2
BeatDivisor: 4
GridSize: 32
TimelineZoom: 2.2

[Metadata]
Title:Tower Of Heaven (You Are Slaves)
TitleUnicode:Tower Of Heaven (You Are Slaves)
Artist:Feint
ArtistUnicode:Feint
Creator:Greenshell
Version:Kantan
Source:
Tags:featured artist fa dnb d'n'b drum and bass electronic instrumental
BeatmapID:4040940
BeatmapSetID:1951495

[Difficulty]
HPDrainRate:8
CircleSize:3
OverallDifficulty:4
ApproachRate:10
SliderMultiplier:1.4
SliderTickRate:1

[Events]
//Background and Video events
0,0,"BG.jpg",0,0
//Break Periods
2,99035,109357
//Storyboard Layer 0 (Background)
//Storyboard Layer 1 (Fail)
//Storyboard Layer 2 (Pass)
//Storyboard Layer 3 (Foreground)
//Storyboard Layer 4 (Overlay)
//Storyboard Sound Samples

[TimingPoints]
93,342.857142857143,4,1,0,50,1,0
93,-100,4,1,0,50,0,0
10721,-100,4,1,0,75,0,0
21950,-100,4,1,0,90,0,0
44321,-100,4,1,0,90,0,0
54178,-100,4,1,0,90,0,0
54950,-100,4,1,0,100,0,1
76893,-100,4,1,0,90,0,0
78264,-100,4,1,0,100,0,1
98835,-100,4,1,0,100,0,0
99007,-100,4,1,0,50,0,0
109464,-100,4,1,0,75,0,0
115207,-100,4,1,0,75,0,0
117950,-100,4,1,0,90,0,0
119321,-100,4,1,0,90,0,0
120778,-100,4,1,0,100,0,1
164664,-100,4,1,0,90,0,0

[HitObjects]
224,224,11064,5,4,0:0:0:0:
288,160,12435,1,8,0:0:0:0:
288,160,13464,1,8,0:0:0:0:
288,160,13807,1,8,0:0:0:0:
288,160,15178,1,8,0:0:0:0:
288,160,15864,1,8,0:0:0:0:
288,160,16207,1,8,0:0:0:0:
224,160,16550,1,0,0:0:0:0:
224,160,17921,1,0,0:0:0:0:
224,160,18950,1,0,0:0:0:0:
224,160,19293,1,0,0:0:0:0:
224,160,20664,1,0,0:0:0:0:
224,160,21350,1,0,0:0:0:0:
224,160,21693,1,0,0:0:0:0:
224,224,22035,1,4,0:0:0:0:
288,160,23064,1,8,0:0:0:0:
288,160,23407,1,8,0:0:0:0:
224,160,24435,1,0,0:0:0:0:
224,160,24778,1,0,0:0:0:0:
288,160,25121,1,8,0:0:0:0:
288,160,25635,1,8,0:0:0:0:
224,160,26150,1,0,0:0:0:0:
288,160,26835,1,8,0:0:0:0:
288,160,27178,1,8,0:0:0:0:
288,160,27521,1,8,0:0:0:0:
224,160,28550,1,0,0:0:0:0:
224,160,28893,1,0,0:0:0:0:
224,160,29921,1,0,0:0:0:0:
224,160,30264,1,0,0:0:0:0:
288,160,30607,1,8,0:0:0:0:
288,160,31121,1,8,0:0:0:0:
224,160,31635,1,0,0:0:0:0:
288,160,32321,1,8,0:0:0:0:
288,160,32664,1,8,0:0:0:0:
224,160,33007,1,0,0:0:0:0:
288,160,34035,1,8,0:0:0:0:
288,160,34378,1,8,0:0:0:0:
224,160,35407,1,0,0:0:0:0:
224,160,35750,1,0,0:0:0:0:
288,160,36093,1,8,0:0:0:0:
288,160,36607,1,8,0:0:0:0:
224,160,37121,1,0,0:0:0:0:
288,160,37807,1,8,0:0:0:0:
288,160,38150,1,8,0:0:0:0:
288,160,38493,1,8,0:0:0:0:
224,160,39521,1,0,0:0:0:0:
224,160,39864,1,0,0:0:0:0:
224,160,40893,1,0,0:0:0:0:
224,160,41235,1,0,0:0:0:0:
288,160,41578,1,8,0:0:0:0:
288,160,42093,1,8,0:0:0:0:
224,160,42607,1,0,0:0:0:0:
288,160,43293,1,8,0:0:0:0:
288,160,43635,1,8,0:0:0:0:
224,160,43978,1,0,0:0:0:0:
224,160,45350,1,0,0:0:0:0:
288,160,46721,1,8,0:0:0:0:
288,160,48093,1,8,0:0:0:0:
224,160,49464,1,0,0:0:0:0:
224,160,50835,1,0,0:0:0:0:
288,160,52207,1,8,0:0:0:0:
288,160,54264,1,8,0:0:0:0:
288,160,54607,1,8,0:0:0:0:
224,224,54950,1,4,0:0:0:0:
224,160,55635,1,0,0:0:0:0:
224,160,55978,1,0,0:0:0:0:
288,160,56321,1,8,0:0:0:0:
224,160,57007,1,0,0:0:0:0:
288,160,57693,1,8,0:0:0:0:
224,160,58378,1,0,0:0:0:0:
224,160,58721,1,0,0:0:0:0:
288,160,59064,1,8,0:0:0:0:
224,160,60435,1,0,0:0:0:0:
224,160,61121,1,0,0:0:0:0:
288,160,61464,1,8,0:0:0:0:
288,160,61807,1,8,0:0:0:0:
224,160,62493,1,0,0:0:0:0:
288,160,63178,1,8,0:0:0:0:
224,160,63864,1,0,0:0:0:0:
288,160,64207,1,8,0:0:0:0:
288,160,64550,1,8,0:0:0:0:
224,160,65921,1,0,0:0:0:0:
224,160,66607,1,0,0:0:0:0:
288,160,66950,1,8,0:0:0:0:
224,160,67293,1,0,0:0:0:0:
224,160,67978,1,0,0:0:0:0:
288,160,68664,1,8,0:0:0:0:
224,160,69350,1,0,0:0:0:0:
288,160,69693,1,8,0:0:0:0:
224,160,70035,1,0,0:0:0:0:
224,160,71407,1,0,0:0:0:0:
288,160,72093,1,8,0:0:0:0:
224,160,72435,1,0,0:0:0:0:
288,160,72778,1,8,0:0:0:0:
224,160,73464,1,0,0:0:0:0:
288,160,74150,1,8,0:0:0:0:
288,160,74835,1,8,0:0:0:0:
224,160,75178,1,0,0:0:0:0:
288,160,75521,1,8,0:0:0:0:
288,160,75864,1,8,0:0:0:0:
224,160,76207,1,0,0:0:0:0:
288,160,76550,1,8,0:0:0:0:
224,224,76893,1,4,0:0:0:0:
288,160,78264,1,8,0:0:0:0:
224,160,78950,1,0,0:0:0:0:
288,160,79635,1,8,0:0:0:0:
224,160,80321,1,0,0:0:0:0:
224,160,80664,1,0,0:0:0:0:
288,160,81007,1,8,0:0:0:0:
224,160,82378,1,0,0:0:0:0:
224,160,83064,1,0,0:0:0:0:
288,160,83407,1,8,0:0:0:0:
288,160,83750,1,8,0:0:0:0:
224,160,84435,1,0,0:0:0:0:
288,160,85121,1,8,0:0:0:0:
224,160,85807,1,0,0:0:0:0:
288,160,86150,1,8,0:0:0:0:
288,160,86493,1,8,0:0:0:0:
224,160,87864,1,0,0:0:0:0:
224,160,88550,1,0,0:0:0:0:
288,160,88893,1,8,0:0:0:0:
224,160,89235,1,0,0:0:0:0:
224,160,89921,1,0,0:0:0:0:
288,160,90607,1,8,0:0:0:0:
224,160,91293,1,0,0:0:0:0:
288,160,91635,1,8,0:0:0:0:
224,160,91978,1,0,0:0:0:0:
224,160,93350,1,0,0:0:0:0:
288,160,94035,1,8,0:0:0:0:
224,160,94378,1,0,0:0:0:0:
288,160,94721,1,8,0:0:0:0:
224,160,95407,1,0,0:0:0:0:
288,160,96093,1,8,0:0:0:0:
288,160,96778,1,8,0:0:0:0:
224,160,97121,1,0,0:0:0:0:
288,160,97464,1,8,0:0:0:0:
288,160,97807,1,8,0:0:0:0:
224,160,98150,1,0,0:0:0:0:
288,160,98493,1,8,0:0:0:0:
224,224,98835,1,4,0:0:0:0:
288,160,109807,5,8,0:0:0:0:
288,160,111178,1,8,0:0:0:0:
288,160,112550,1,8,0:0:0:0:
288,160,113921,1,8,0:0:0:0:
288,160,115293,1,8,0:0:0:0:
288,160,115978,1,8,0:0:0:0:
288,160,116664,1,8,0:0:0:0:
288,160,117350,1,8,0:0:0:0:
288,160,118035,1,8,0:0:0:0:
288,160,118378,1,8,0:0:0:0:
288,160,118721,1,8,0:0:0:0:
288,160,119064,1,8,0:0:0:0:
64,64,119407,2,0,L|128:64,12,35
224,224,120778,5,4,0:0:0:0:
224,160,121464,1,0,0:0:0:0:
224,160,121807,1,0,0:0:0:0:
288,160,122150,1,8,0:0:0:0:
224,160,122835,1,0,0:0:0:0:
288,160,123521,1,8,0:0:0:0:
224,160,124207,1,0,0:0:0:0:
224,160,124550,1,0,0:0:0:0:
288,160,124893,1,8,0:0:0:0:
224,160,126264,1,0,0:0:0:0:
224,160,126950,1,0,0:0:0:0:
288,160,127293,1,8,0:0:0:0:
288,160,127635,1,8,0:0:0:0:
224,160,128321,1,0,0:0:0:0:
288,160,129007,1,8,0:0:0:0:
224,160,129693,1,0,0:0:0:0:
288,160,130035,1,8,0:0:0:0:
288,160,130378,1,8,0:0:0:0:
224,224,131750,1,4,0:0:0:0:
224,160,132435,1,0,0:0:0:0:
288,160,132778,1,8,0:0:0:0:
224,160,133121,1,0,0:0:0:0:
224,160,133807,1,0,0:0:0:0:
288,160,134493,1,8,0:0:0:0:
224,160,135178,1,0,0:0:0:0:
288,160,135521,1,8,0:0:0:0:
224,160,135864,1,0,0:0:0:0:
224,160,137235,1,0,0:0:0:0:
288,160,137921,1,8,0:0:0:0:
224,160,138264,1,0,0:0:0:0:
288,160,138607,1,8,0:0:0:0:
224,160,139293,1,0,0:0:0:0:
288,160,139978,1,8,0:0:0:0:
288,160,140664,1,8,0:0:0:0:
224,160,141007,1,0,0:0:0:0:
288,160,141350,1,8,0:0:0:0:
224,160,141693,1,0,0:0:0:0:
288,160,142035,1,8,0:0:0:0:
288,160,142378,1,8,0:0:0:0:
224,224,142721,1,4,0:0:0:0:
224,160,143750,1,0,0:0:0:0:
288,160,144093,1,8,0:0:0:0:
224,160,144778,1,0,0:0:0:0:
288,160,145464,1,8,0:0:0:0:
224,160,146150,1,0,0:0:0:0:
224,160,146493,1,0,0:0:0:0:
288,160,146835,1,8,0:0:0:0:
224,160,148207,1,0,0:0:0:0:
224,160,148893,1,0,0:0:0:0:
288,160,149235,1,8,0:0:0:0:
288,160,149578,1,8,0:0:0:0:
224,160,150264,1,0,0:0:0:0:
288,160,150950,1,8,0:0:0:0:
224,160,151635,1,0,0:0:0:0:
288,160,151978,1,8,0:0:0:0:
288,160,152321,1,8,0:0:0:0:
224,224,153693,1,4,0:0:0:0:
224,160,154378,1,0,0:0:0:0:
288,160,154721,1,8,0:0:0:0:
224,160,155064,1,0,0:0:0:0:
224,160,155750,1,0,0:0:0:0:
288,160,156435,1,8,0:0:0:0:
224,160,157121,1,0,0:0:0:0:
288,160,157464,1,8,0:0:0:0:
224,160,157807,1,0,0:0:0:0:
224,160,159178,1,0,0:0:0:0:
288,160,159864,1,8,0:0:0:0:
224,160,160207,1,0,0:0:0:0:
288,160,160550,1,8,0:0:0:0:
224,160,161235,1,0,0:0:0:0:
288,160,161921,1,8,0:0:0:0:
288,160,162607,1,8,0:0:0:0:
224,160,162950,1,0,0:0:0:0:
288,160,163293,1,8,0:0:0:0:
288,160,163635,1,8,0:0:0:0:
224,160,163978,1,0,0:0:0:0:
288,160,164321,1,8,0:0:0:0:
224,224,164664,1,4,0:0:0:0:
