osu file format v14

[General]
AudioFilename: audio.mp3
AudioLeadIn: 0
PreviewTime: 54175
Countdown: 0
SampleSet: Normal
StackLeniency: 0.7
Mode: 1
LetterboxInBreaks: 0
WidescreenStoryboard: 1

[Editor]
DistanceSpacing: 1
BeatDivisor: 4
GridSize: 32
TimelineZoom: 2.2

[Metadata]
Title:Tower Of Heaven (You Are Slaves)
TitleUnicode:Tower Of Heaven (You Are Slaves)
Artist:Feint
ArtistUnicode:Feint
Creator:Greenshell
Version:Futsuu
Source:
Tags:featured artist fa dnb d'n'b drum and bass electronic instrumental
BeatmapID:4040938
BeatmapSetID:1951495

[Difficulty]
HPDrainRate:7
CircleSize:3
OverallDifficulty:4.5
ApproachRate:10
SliderMultiplier:1.4
SliderTickRate:1

[Events]
//Background and Video events
0,0,"BG.jpg",0,0
//Break Periods
2,99035,109357
//Storyboard Layer 0 (Background)
//Storyboard Layer 1 (Fail)
//Storyboard Layer 2 (Pass)
//Storyboard Layer 3 (Foreground)
//Storyboard Layer 4 (Overlay)
//Storyboard Sound Samples

[TimingPoints]
93,342.857142857143,4,1,0,50,1,0
93,-100,4,1,0,50,0,0
10721,-100,4,1,0,75,0,0
21950,-100,4,1,0,90,0,0
44321,-100,4,1,0,90,0,0
54178,-100,4,1,0,90,0,0
54950,-100,4,1,0,100,0,1
76893,-100,4,1,0,90,0,0
78264,-100,4,1,0,100,0,1
98835,-100,4,1,0,100,0,0
99007,-100,4,1,0,50,0,0
109464,-100,4,1,0,75,0,0
115207,-100,4,1,0,75,0,0
117950,-100,4,1,0,90,0,0
119321,-100,4,1,0,90,0,0
120778,-100,4,1,0,100,0,1
164664,-100,4,1,0,90,0,0

[HitObjects]
224,224,11064,5,4,0:0:0:0:
288,160,11578,1,8,0:0:0:0:
288,160,12093,1,8,0:0:0:0:
288,160,12435,1,8,0:0:0:0:
288,160,13464,1,8,0:0:0:0:
288,160,13807,1,8,0:0:0:0:
288,160,14150,1,8,0:0:0:0:
288,160,14664,1,8,0:0:0:0:
288,160,15178,1,8,0:0:0:0:
288,160,15864,1,8,0:0:0:0:
288,160,16207,1,8,0:0:0:0:
224,160,16550,1,0,0:0:0:0:
224,160,17064,1,0,0:0:0:0:
224,160,17578,1,0,0:0:0:0:
224,160,17921,1,0,0:0:0:0:
224,160,18950,1,0,0:0:0:0:
224,160,19293,1,0,0:0:0:0:
224,160,19635,1,0,0:0:0:0:
224,160,20150,1,0,0:0:0:0:
224,160,20664,1,0,0:0:0:0:
224,160,21350,1,0,0:0:0:0:
224,160,21693,1,0,0:0:0:0:
224,224,22035,1,4,0:0:0:0:
224,160,22550,1,0,0:0:0:0:
288,160,23064,1,8,0:0:0:0:
288,160,23407,1,8,0:0:0:0:
288,160,24093,1,8,0:0:0:0:
224,160,24435,1,0,0:0:0:0:
224,160,24607,1,0,0:0:0:0:
224,160,24778,1,0,0:0:0:0:
288,160,25121,1,8,0:0:0:0:
288,160,25635,1,8,0:0:0:0:
224,160,26150,1,0,0:0:0:0:
288,160,26835,1,8,0:0:0:0:
288,160,27178,1,8,0:0:0:0:
288,160,27350,1,8,0:0:0:0:
288,160,27521,1,8,0:0:0:0:
288,160,28035,1,8,0:0:0:0:
224,160,28550,1,0,0:0:0:0:
224,160,28893,1,0,0:0:0:0:
224,160,29578,1,0,0:0:0:0:
288,160,29921,1,8,0:0:0:0:
288,160,30093,1,8,0:0:0:0:
224,160,30264,1,0,0:0:0:0:
288,160,30607,1,8,0:0:0:0:
288,160,31121,1,8,0:0:0:0:
224,160,31635,1,0,0:0:0:0:
288,160,32321,1,8,0:0:0:0:
288,160,32493,1,8,0:0:0:0:
224,160,32664,1,0,0:0:0:0:
224,160,32835,1,0,0:0:0:0:
224,160,33007,1,0,0:0:0:0:
224,160,33521,1,0,0:0:0:0:
288,160,34035,1,8,0:0:0:0:
288,160,34378,1,8,0:0:0:0:
288,160,35064,1,8,0:0:0:0:
224,160,35407,1,0,0:0:0:0:
224,160,35578,1,0,0:0:0:0:
224,160,35750,1,0,0:0:0:0:
288,160,36093,1,8,0:0:0:0:
288,160,36607,1,8,0:0:0:0:
224,160,37121,1,0,0:0:0:0:
288,160,37807,1,8,0:0:0:0:
288,160,38150,1,8,0:0:0:0:
288,160,38321,1,8,0:0:0:0:
288,160,38493,1,8,0:0:0:0:
288,160,39007,1,8,0:0:0:0:
224,160,39521,1,0,0:0:0:0:
224,160,39864,1,0,0:0:0:0:
224,160,40550,1,0,0:0:0:0:
288,160,40893,1,8,0:0:0:0:
288,160,41064,1,8,0:0:0:0:
224,160,41235,1,0,0:0:0:0:
288,160,41578,1,8,0:0:0:0:
288,160,42093,1,8,0:0:0:0:
224,160,42607,1,0,0:0:0:0:
288,160,43293,1,8,0:0:0:0:
288,160,43464,1,8,0:0:0:0:
224,160,43635,1,0,0:0:0:0:
224,160,43807,1,0,0:0:0:0:
224,160,43978,1,0,0:0:0:0:
224,160,45007,1,0,0:0:0:0:
224,160,45350,1,0,0:0:0:0:
224,160,46378,1,0,0:0:0:0:
288,160,46721,1,8,0:0:0:0:
288,160,47750,1,8,0:0:0:0:
224,160,48093,1,0,0:0:0:0:
224,160,49121,1,0,0:0:0:0:
224,160,49464,1,0,0:0:0:0:
224,160,50493,1,0,0:0:0:0:
224,160,50835,1,0,0:0:0:0:
224,160,51864,1,0,0:0:0:0:
288,160,52207,1,8,0:0:0:0:
288,160,53235,1,8,0:0:0:0:
224,160,53578,1,0,0:0:0:0:
288,160,54264,1,8,0:0:0:0:
288,160,54435,1,8,0:0:0:0:
224,160,54607,1,0,0:0:0:0:
288,160,54778,1,8,0:0:0:0:
224,224,54950,1,4,0:0:0:0:
288,160,55293,1,8,0:0:0:0:
224,160,55635,1,0,0:0:0:0:
224,160,55807,1,0,0:0:0:0:
288,160,56150,1,8,0:0:0:0:
224,160,56321,1,0,0:0:0:0:
288,160,56664,1,8,0:0:0:0:
224,160,57007,1,0,0:0:0:0:
224,160,57178,1,0,0:0:0:0:
224,160,57521,1,0,0:0:0:0:
288,160,57693,1,8,0:0:0:0:
288,160,58035,1,8,0:0:0:0:
224,160,58378,1,0,0:0:0:0:
224,160,58550,1,0,0:0:0:0:
288,160,58893,1,8,0:0:0:0:
288,160,59064,1,8,0:0:0:0:
288,160,59407,1,8,0:0:0:0:
288,160,60093,1,8,0:0:0:0:
224,160,60435,1,0,0:0:0:0:
288,160,60778,1,8,0:0:0:0:
224,160,61121,1,0,0:0:0:0:
288,160,61293,1,8,0:0:0:0:
288,160,61635,1,8,0:0:0:0:
224,160,61807,1,0,0:0:0:0:
288,160,62150,1,8,0:0:0:0:
224,160,62493,1,0,0:0:0:0:
288,160,62664,1,8,0:0:0:0:
224,160,63007,1,0,0:0:0:0:
288,160,63178,1,8,0:0:0:0:
288,160,63521,1,8,0:0:0:0:
224,160,63864,1,0,0:0:0:0:
288,160,64035,1,8,0:0:0:0:
288,160,64378,1,8,0:0:0:0:
288,160,64550,1,8,0:0:0:0:
288,160,64893,1,8,0:0:0:0:
288,160,65578,1,8,0:0:0:0:
224,160,65921,1,0,0:0:0:0:
288,160,66264,1,8,0:0:0:0:
288,160,66607,1,8,0:0:0:0:
224,160,66778,1,0,0:0:0:0:
288,160,67121,1,8,0:0:0:0:
224,160,67293,1,0,0:0:0:0:
288,160,67635,1,8,0:0:0:0:
288,160,67978,1,8,0:0:0:0:
224,160,68150,1,0,0:0:0:0:
224,160,68493,1,0,0:0:0:0:
288,160,68664,1,8,0:0:0:0:
288,160,69007,1,8,0:0:0:0:
288,160,69350,1,8,0:0:0:0:
224,160,69521,1,0,0:0:0:0:
288,160,69864,1,8,0:0:0:0:
288,160,70035,1,8,0:0:0:0:
288,160,70378,1,8,0:0:0:0:
288,160,71064,1,8,0:0:0:0:
224,160,71407,1,0,0:0:0:0:
288,160,71750,1,8,0:0:0:0:
288,160,72093,1,8,0:0:0:0:
288,160,72264,1,8,0:0:0:0:
288,160,72607,1,8,0:0:0:0:
224,160,72778,1,0,0:0:0:0:
288,160,73121,1,8,0:0:0:0:
288,160,73464,1,8,0:0:0:0:
288,160,73635,1,8,0:0:0:0:
224,160,73978,1,0,0:0:0:0:
288,160,74150,1,8,0:0:0:0:
288,160,74493,1,8,0:0:0:0:
288,160,74835,1,8,0:0:0:0:
288,160,75007,1,8,0:0:0:0:
224,160,75350,1,0,0:0:0:0:
288,160,75521,1,8,0:0:0:0:
288,160,75864,1,8,0:0:0:0:
224,160,76035,1,0,0:0:0:0:
288,160,76207,1,8,0:0:0:0:
224,160,76378,1,0,0:0:0:0:
288,160,76550,1,8,0:0:0:0:
224,224,76893,1,4,0:0:0:0:
224,160,78264,1,0,0:0:0:0:
288,160,78607,1,8,0:0:0:0:
224,160,78950,1,0,0:0:0:0:
224,160,79121,1,0,0:0:0:0:
224,160,79464,1,0,0:0:0:0:
288,160,79635,1,8,0:0:0:0:
288,160,79978,1,8,0:0:0:0:
224,160,80321,1,0,0:0:0:0:
224,160,80493,1,0,0:0:0:0:
288,160,80835,1,8,0:0:0:0:
288,160,81007,1,8,0:0:0:0:
288,160,81350,1,8,0:0:0:0:
288,160,82035,1,8,0:0:0:0:
224,160,82378,1,0,0:0:0:0:
288,160,82721,1,8,0:0:0:0:
224,160,83064,1,0,0:0:0:0:
288,160,83235,1,8,0:0:0:0:
288,160,83578,1,8,0:0:0:0:
224,160,83750,1,0,0:0:0:0:
288,160,84093,1,8,0:0:0:0:
224,160,84435,1,0,0:0:0:0:
288,160,84607,1,8,0:0:0:0:
224,160,84950,1,0,0:0:0:0:
288,160,85121,1,8,0:0:0:0:
288,160,85464,1,8,0:0:0:0:
224,160,85807,1,0,0:0:0:0:
288,160,85978,1,8,0:0:0:0:
288,160,86321,1,8,0:0:0:0:
288,160,86493,1,8,0:0:0:0:
288,160,86835,1,8,0:0:0:0:
288,160,87521,1,8,0:0:0:0:
224,160,87864,1,0,0:0:0:0:
288,160,88207,1,8,0:0:0:0:
288,160,88550,1,8,0:0:0:0:
224,160,88721,1,0,0:0:0:0:
288,160,89064,1,8,0:0:0:0:
224,160,89235,1,0,0:0:0:0:
288,160,89578,1,8,0:0:0:0:
288,160,89921,1,8,0:0:0:0:
224,160,90093,1,0,0:0:0:0:
224,160,90435,1,0,0:0:0:0:
288,160,90607,1,8,0:0:0:0:
288,160,90950,1,8,0:0:0:0:
288,160,91293,1,8,0:0:0:0:
224,160,91464,1,0,0:0:0:0:
288,160,91807,1,8,0:0:0:0:
288,160,91978,1,8,0:0:0:0:
288,160,92321,1,8,0:0:0:0:
288,160,93007,1,8,0:0:0:0:
224,160,93350,1,0,0:0:0:0:
288,160,93693,1,8,0:0:0:0:
288,160,94035,1,8,0:0:0:0:
288,160,94207,1,8,0:0:0:0:
288,160,94550,1,8,0:0:0:0:
224,160,94721,1,0,0:0:0:0:
288,160,95064,1,8,0:0:0:0:
288,160,95407,1,8,0:0:0:0:
288,160,95578,1,8,0:0:0:0:
224,160,95921,1,0,0:0:0:0:
288,160,96093,1,8,0:0:0:0:
288,160,96435,1,8,0:0:0:0:
288,160,96778,1,8,0:0:0:0:
288,160,96950,1,8,0:0:0:0:
224,160,97293,1,0,0:0:0:0:
288,160,97464,1,8,0:0:0:0:
288,160,97807,1,8,0:0:0:0:
224,160,97978,1,0,0:0:0:0:
288,160,98150,1,8,0:0:0:0:
224,160,98321,1,0,0:0:0:0:
288,160,98493,1,8,0:0:0:0:
224,224,98835,1,4,0:0:0:0:
288,160,109807,5,8,0:0:0:0:
288,160,110493,1,8,0:0:0:0:
288,160,111178,1,8,0:0:0:0:
288,160,111864,1,8,0:0:0:0:
288,160,112550,1,8,0:0:0:0:
288,160,113235,1,8,0:0:0:0:
288,160,113921,1,8,0:0:0:0:
288,160,114607,1,8,0:0:0:0:
288,160,115293,1,8,0:0:0:0:
288,160,115635,1,8,0:0:0:0:
288,160,115978,1,8,0:0:0:0:
288,160,116321,1,8,0:0:0:0:
288,160,116664,1,8,0:0:0:0:
288,160,117007,1,8,0:0:0:0:
288,160,117350,1,8,0:0:0:0:
288,160,118035,1,8,0:0:0:0:
288,160,118207,1,8,0:0:0:0:
288,160,118378,1,8,0:0:0:0:
288,160,118721,1,8,0:0:0:0:
288,160,118893,1,8,0:0:0:0:
288,160,119064,1,8,0:0:0:0:
160,64,119407,2,0,L|224:64,12,35
224,224,120778,5,4,0:0:0:0:
288,160,121121,1,8,0:0:0:0:
224,160,121464,1,0,0:0:0:0:
224,160,121635,1,0,0:0:0:0:
288,160,121978,1,8,0:0:0:0:
224,160,122150,1,0,0:0:0:0:
288,160,122493,1,8,0:0:0:0:
224,160,122835,1,0,0:0:0:0:
224,160,123007,1,0,0:0:0:0:
224,160,123350,1,0,0:0:0:0:
288,160,123521,1,8,0:0:0:0:
288,160,123864,1,8,0:0:0:0:
224,160,124207,1,0,0:0:0:0:
224,160,124378,1,0,0:0:0:0:
288,160,124721,1,8,0:0:0:0:
288,160,124893,1,8,0:0:0:0:
288,160,125235,1,8,0:0:0:0:
288,160,125921,1,8,0:0:0:0:
224,160,126264,1,0,0:0:0:0:
288,160,126607,1,8,0:0:0:0:
224,160,126950,1,0,0:0:0:0:
288,160,127121,1,8,0:0:0:0:
288,160,127464,1,8,0:0:0:0:
224,160,127635,1,0,0:0:0:0:
288,160,127978,1,8,0:0:0:0:
224,160,128321,1,0,0:0:0:0:
288,160,128493,1,8,0:0:0:0:
224,160,128835,1,0,0:0:0:0:
288,160,129007,1,8,0:0:0:0:
288,160,129350,1,8,0:0:0:0:
224,160,129693,1,0,0:0:0:0:
288,160,129864,1,8,0:0:0:0:
288,160,130207,1,8,0:0:0:0:
288,160,130378,1,8,0:0:0:0:
288,160,130721,1,8,0:0:0:0:
288,160,131407,1,8,0:0:0:0:
224,224,131750,1,4,0:0:0:0:
288,160,132093,1,8,0:0:0:0:
288,160,132435,1,8,0:0:0:0:
224,160,132607,1,0,0:0:0:0:
288,160,132950,1,8,0:0:0:0:
224,160,133121,1,0,0:0:0:0:
288,160,133464,1,8,0:0:0:0:
288,160,133807,1,8,0:0:0:0:
224,160,133978,1,0,0:0:0:0:
224,160,134321,1,0,0:0:0:0:
288,160,134493,1,8,0:0:0:0:
288,160,134835,1,8,0:0:0:0:
288,160,135178,1,8,0:0:0:0:
224,160,135350,1,0,0:0:0:0:
288,160,135693,1,8,0:0:0:0:
288,160,135864,1,8,0:0:0:0:
288,160,136207,1,8,0:0:0:0:
288,160,136893,1,8,0:0:0:0:
224,160,137235,1,0,0:0:0:0:
288,160,137578,1,8,0:0:0:0:
288,160,137921,1,8,0:0:0:0:
288,160,138093,1,8,0:0:0:0:
288,160,138435,1,8,0:0:0:0:
224,160,138607,1,0,0:0:0:0:
288,160,138950,1,8,0:0:0:0:
288,160,139293,1,8,0:0:0:0:
288,160,139464,1,8,0:0:0:0:
224,160,139807,1,0,0:0:0:0:
288,160,139978,1,8,0:0:0:0:
288,160,140321,1,8,0:0:0:0:
288,160,140664,1,8,0:0:0:0:
288,160,140835,1,8,0:0:0:0:
224,160,141178,1,0,0:0:0:0:
288,160,141350,1,8,0:0:0:0:
288,160,141693,1,8,0:0:0:0:
224,160,141864,1,0,0:0:0:0:
288,160,142035,1,8,0:0:0:0:
224,160,142207,1,0,0:0:0:0:
288,160,142378,1,8,0:0:0:0:
224,224,142721,1,4,0:0:0:0:
224,160,143407,1,0,0:0:0:0:
224,160,143578,1,0,0:0:0:0:
288,160,143921,1,8,0:0:0:0:
224,160,144093,1,0,0:0:0:0:
288,160,144435,1,8,0:0:0:0:
224,160,144778,1,0,0:0:0:0:
224,160,144950,1,0,0:0:0:0:
224,160,145293,1,0,0:0:0:0:
288,160,145464,1,8,0:0:0:0:
288,160,145807,1,8,0:0:0:0:
224,160,146150,1,0,0:0:0:0:
224,160,146321,1,0,0:0:0:0:
288,160,146664,1,8,0:0:0:0:
288,160,146835,1,8,0:0:0:0:
288,160,147178,1,8,0:0:0:0:
288,160,147864,1,8,0:0:0:0:
224,160,148207,1,0,0:0:0:0:
288,160,148550,1,8,0:0:0:0:
224,160,148893,1,0,0:0:0:0:
288,160,149064,1,8,0:0:0:0:
288,160,149407,1,8,0:0:0:0:
224,160,149578,1,0,0:0:0:0:
288,160,149921,1,8,0:0:0:0:
224,160,150264,1,0,0:0:0:0:
288,160,150435,1,8,0:0:0:0:
224,160,150778,1,0,0:0:0:0:
288,160,150950,1,8,0:0:0:0:
288,160,151293,1,8,0:0:0:0:
224,160,151635,1,0,0:0:0:0:
288,160,151807,1,8,0:0:0:0:
288,160,152150,1,8,0:0:0:0:
288,160,152321,1,8,0:0:0:0:
288,160,152664,1,8,0:0:0:0:
288,160,153350,1,8,0:0:0:0:
224,224,153693,1,4,0:0:0:0:
288,160,154035,1,8,0:0:0:0:
288,160,154378,1,8,0:0:0:0:
224,160,154550,1,0,0:0:0:0:
288,160,154893,1,8,0:0:0:0:
224,160,155064,1,0,0:0:0:0:
288,160,155407,1,8,0:0:0:0:
288,160,155750,1,8,0:0:0:0:
224,160,155921,1,0,0:0:0:0:
224,160,156264,1,0,0:0:0:0:
288,160,156435,1,8,0:0:0:0:
288,160,156778,1,8,0:0:0:0:
288,160,157121,1,8,0:0:0:0:
224,160,157293,1,0,0:0:0:0:
288,160,157635,1,8,0:0:0:0:
288,160,157807,1,8,0:0:0:0:
288,160,158150,1,8,0:0:0:0:
288,160,158835,1,8,0:0:0:0:
224,160,159178,1,0,0:0:0:0:
288,160,159521,1,8,0:0:0:0:
288,160,159864,1,8,0:0:0:0:
288,160,160035,1,8,0:0:0:0:
288,160,160378,1,8,0:0:0:0:
224,160,160550,1,0,0:0:0:0:
288,160,160893,1,8,0:0:0:0:
288,160,161235,1,8,0:0:0:0:
288,160,161407,1,8,0:0:0:0:
224,160,161750,1,0,0:0:0:0:
288,160,161921,1,8,0:0:0:0:
288,160,162264,1,8,0:0:0:0:
288,160,162607,1,8,0:0:0:0:
288,160,162778,1,8,0:0:0:0:
224,160,163121,1,0,0:0:0:0:
288,160,163293,1,8,0:0:0:0:
288,160,163635,1,8,0:0:0:0:
224,160,163807,1,0,0:0:0:0:
288,160,163978,1,8,0:0:0:0:
224,160,164150,1,0,0:0:0:0:
288,160,164321,1,8,0:0:0:0:
224,224,164664,1,4,0:0:0:0:
