osu file format v14

[General]
AudioFilename: audio.mp3
AudioLeadIn: 0
PreviewTime: 54229
Countdown: 0
SampleSet: Soft
StackLeniency: 0.4
Mode: 0
LetterboxInBreaks: 0
WidescreenStoryboard: 1

[Editor]
Bookmarks: 11115,22086,33058,44029,55001,60486,65972,71458,76944,82429,87915,93401,98886
DistanceSpacing: 1.1
BeatDivisor: 4
GridSize: 32
TimelineZoom: 3.099999

[Metadata]
Title:Tower Of Heaven (You Are Slaves) (Cut Ver.)
TitleUnicode:Tower Of Heaven (You Are Slaves) (Cut Ver.)
Artist:Feint
ArtistUnicode:Feint
Creator:Strategas
Version:tutis' Expert
Source:
Tags:dnb drum and & bass electronic instrumental edm 8bit fa featured artist simple streams 3 vanila longstream deathstream kisaragi 如月 228 evth aye1337 dixaway tutis cbh Come[Back]Home mpg mappers' guild
BeatmapID:4142871
BeatmapSetID:1991315

[Difficulty]
HPDrainRate:5
CircleSize:4.3
OverallDifficulty:8.8
ApproachRate:9.2
SliderMultiplier:1.4
SliderTickRate:0.5

[Events]
//Background and Video events
0,0,"00061.png",0,0
//Break Periods
//Storyboard Layer 0 (Background)
//Storyboard Layer 1 (Fail)
//Storyboard Layer 2 (Pass)
//Storyboard Layer 3 (Foreground)
//Storyboard Layer 4 (Overlay)
//Storyboard Sound Samples

[TimingPoints]
144,342.857142857143,4,2,0,100,1,0
11115,-142.857142857143,4,2,25,65,0,0
14115,-142.857142857143,4,2,25,5,0,0
14201,-142.857142857143,4,2,25,65,0,0
16601,-133.333333333333,4,2,25,65,0,0
19601,-133.333333333333,4,2,25,5,0,0
19686,-133.333333333333,4,2,25,65,0,0
22086,-95.2380952380952,4,2,25,70,0,0
27572,-90.9090909090909,4,2,25,70,0,0
33058,-86.9565217391304,4,2,25,70,0,0
38544,-83.3333333333333,4,2,25,70,0,0
44029,-83.3333333333333,4,2,25,60,0,0
44115,-111.111111111111,4,2,25,60,0,0
55001,-76.9230769230769,4,2,25,75,0,0
71458,-66.6666666666667,4,2,25,80,0,1
75572,-62.5,4,2,25,85,0,1
76944,-62.5,4,2,25,70,0,0
78315,-71.4285714285714,4,2,25,75,0,0
93401,-62.5,4,2,25,80,0,1
97515,-50,4,2,25,85,0,1
98886,-50,4,2,25,85,0,0

[Colours]
Combo1 : 79,141,171
Combo2 : 209,230,244

[HitObjects]
156,160,11115,6,0,P|183:177|199:212,2,48.9999985046387,4|0|0,0:1|0:0|0:0,0:0:0:0:
50,170,11629,2,0,P|4:130|3:83,1,97.9999970092774,2|0,0:0|0:0,0:0:0:0:
152,176,12144,6,0,L|216:161,1,48.9999985046387,2|0,0:0|0:0,0:0:0:0:
299,114,12486,2,0,L|411:145,2,97.9999970092774,2|0|0,0:0|0:0|0:0,0:0:0:0:
207,240,13515,5,2,0:0:0:0:
199,241,13601,1,2,0:0:0:0:
194,237,13686,1,2,0:0:0:0:
194,229,13772,1,2,0:0:0:0:
199,225,13858,6,0,P|250:231|280:257,1,73.4999977569581,2|0,0:0|0:0,0:0:0:0:
280,239,14201,2,0,P|297:268|301:294,1,48.9999985046387,2|0,0:0|0:0,0:0:0:0:
375,292,14715,2,0,P|390:311|419:327,1,48.9999985046387,2|0,0:0|0:0,0:0:0:0:
472,279,15229,2,0,P|495:269|512:252,1,48.9999985046387,2|0,0:0|0:0,0:0:0:0:
348,164,15915,6,0,P|318:164|291:152,1,48.9999985046387,2|0,0:0|0:0,0:0:0:0:
325,31,16257,1,2,0:0:0:0:
334,35,16343,1,2,0:0:0:0:
336,45,16428,1,2,0:0:0:0:
330,53,16514,1,2,0:0:0:0:
320,53,16601,6,0,P|291:28|283:0,2,52.5000020027161,2|0|0,0:0|0:0|0:0,0:0:0:0:
412,122,17115,2,0,P|462:114|528:144,1,105.000004005432,2|0,0:0|0:0,0:0:0:0:
331,202,17629,6,0,L|269:185,1,52.5000020027161,2|0,0:0|0:0,0:0:0:0:
410,285,17972,2,0,L|531:260,2,105.000004005432,2|0|0,0:0|0:0|0:0,0:0:0:0:
286,233,19001,5,2,0:0:0:0:
285,225,19087,1,2,0:0:0:0:
289,220,19172,1,2,0:0:0:0:
297,220,19258,1,2,0:0:0:0:
301,225,19344,6,0,P|299:273|269:306,1,78.7500030040742,2|0,0:0|0:0,0:0:0:0:
287,306,19687,2,0,P|258:323|232:327,1,52.5000020027161,2|0,0:0|0:0,0:0:0:0:
164,251,20201,2,0,P|137:241|103:249,1,52.5000020027161,2|0,0:0|0:0,0:0:0:0:
7,319,20715,6,0,L|-4:391,1,52.5000020027161,2|0,0:0|0:0,0:0:0:0:
22,215,21058,1,0,0:0:0:0:
16,207,21401,5,2,0:0:0:0:
10,221,21486,1,2,0:0:0:0:
21,245,21572,1,2,0:0:0:0:
52,253,21658,1,2,0:0:0:0:
95,228,21744,2,0,P|103:197|101:185,1,26.2500010013581,2|0,0:0|0:0,0:0:0:0:
163,156,21915,2,0,P|156:133|144:119,1,26.2500010013581,2|0,0:0|0:0,0:0:0:0:
23,27,22086,6,0,L|41:99,1,73.4999977569581,4|0,1:2|0:0,0:0:0:0:
245,59,22429,1,0,0:0:0:0:
138,15,22601,5,2,0:0:0:0:
272,201,22772,1,8,0:0:0:0:
261,209,23115,6,0,L|349:233,1,73.4999977569581,2|0,0:0|0:0,0:0:0:0:
441,67,23458,2,0,L|528:46,1,73.4999977569581,2|0,0:0|0:0,0:0:0:0:
512,174,23801,5,0,1:0:0:0:
500,166,23886,1,0,0:0:0:0:
488,158,23972,1,0,0:0:0:0:
290,316,24144,1,8,0:0:0:0:
298,330,24486,5,2,0:0:0:0:
311,310,24572,1,2,0:0:0:0:
299,272,24658,1,2,0:0:0:0:
263,245,24744,1,2,0:0:0:0:
218,231,24829,6,0,P|202:193|208:145,1,73.4999977569581,0|0,1:0|0:0,0:0:0:0:
73,204,25172,6,0,P|44:180|10:167,1,73.4999977569581,2|0,0:0|0:0,0:0:0:0:
246,309,25515,5,8,0:0:0:0:
209,232,25686,2,0,P|217:194|260:159,1,73.4999977569581,2|0,0:0|0:0,0:0:0:0:
82,292,26201,6,0,P|82:244|60:207,1,73.4999977569581,2|0,0:0|0:0,0:0:0:0:
266,346,26544,5,0,1:0:0:0:
262,358,26629,1,0,0:0:0:0:
258,370,26715,1,0,0:0:0:0:
407,214,26886,1,10,0:0:0:0:
168,161,27058,1,0,1:0:0:0:
268,113,27229,5,2,0:0:0:0:
278,135,27315,1,2,0:0:0:0:
265,171,27401,1,2,0:0:0:0:
223,180,27486,1,2,0:0:0:0:
182,146,27572,6,0,P|179:82|232:7,1,154.000004699707,0|0,1:0|0:0,0:0:0:0:
356,5,28086,5,2,0:0:0:0:
430,223,28258,2,0,P|379:211|346:171,1,77.0000023498536,8|0,0:0|0:0,0:0:0:0:
278,314,28601,6,0,P|279:356|241:398,1,77.0000023498536,2|0,0:0|0:0,0:0:0:0:
136,211,28944,2,0,P|185:216|215:262,1,77.0000023498536,2|0,0:0|0:0,0:0:0:0:
60,356,29286,5,0,1:0:0:0:
54,361,29372,1,0,0:0:0:0:
48,366,29458,1,0,0:0:0:0:
116,108,29629,1,8,0:0:0:0:
108,94,29972,5,2,0:0:0:0:
98,118,30058,1,2,0:0:0:0:
113,147,30144,1,2,0:0:0:0:
158,158,30229,1,2,0:0:0:0:
197,191,30315,6,0,P|197:231|148:282,1,77.0000023498536,2|0,1:2|0:0,0:0:0:0:
327,384,30658,2,0,P|287:345|278:305,1,77.0000023498536,2|0,0:0|0:0,0:0:0:0:
460,184,31001,5,8,0:0:0:0:
368,199,31172,2,0,P|349:232|355:282,1,77.0000023498536,2|0,0:0|0:0,0:0:0:0:
499,377,31686,6,0,P|450:337|457:312,1,77.0000023498536,2|0,0:0|0:0,0:0:0:0:
512,150,32029,5,0,1:0:0:0:
290,116,32372,5,10,0:0:0:0:
275,129,32458,1,2,0:0:0:0:
272,150,32544,1,2,1:2:0:0:
282,169,32629,1,2,0:0:0:0:
316,199,32715,5,10,0:0:0:0:
354,225,32801,1,0,1:0:0:0:
360,270,32886,1,10,0:0:0:0:
329,304,32972,1,8,0:0:0:0:
280,298,33058,6,0,L|177:320,1,80.5000015354157,4|0,1:2|0:0,0:0:0:0:
22,352,33401,1,0,0:0:0:0:
117,209,33572,5,2,0:0:0:0:
368,359,33744,1,8,0:0:0:0:
357,372,34086,6,0,B|382:258,1,80.5000015354157,2|0,0:0|0:0,0:0:0:0:
269,157,34429,2,0,L|256:63,1,80.5000015354157,2|0,0:0|0:0,0:0:0:0:
251,319,34772,5,0,1:0:0:0:
244,309,34858,1,0,0:0:0:0:
237,299,34944,1,0,0:0:0:0:
392,67,35115,1,8,0:0:0:0:
384,51,35458,5,2,0:0:0:0:
366,73,35544,1,2,0:0:0:0:
367,107,35629,1,2,0:0:0:0:
399,137,35715,1,2,0:0:0:0:
452,147,35801,6,0,P|492:190|487:241,1,80.5000015354157,0|0,1:0|0:0,0:0:0:0:
313,276,36144,2,0,P|339:225|379:218,1,80.5000015354157,2|0,0:0|0:0,0:0:0:0:
239,0,36486,5,8,0:0:0:0:
179,91,36658,2,0,P|192:146|224:171,1,80.5000015354157,2|0,0:0|0:0,0:0:0:0:
387,128,37172,2,0,P|340:145|299:116,1,80.5000015354157,2|0,0:0|0:0,0:0:0:0:
359,25,37515,5,0,1:0:0:0:
355,13,37601,1,0,0:0:0:0:
351,1,37686,1,0,0:0:0:0:
507,167,37857,1,10,0:0:0:0:
318,321,38029,1,0,1:0:0:0:
425,299,38200,5,2,0:0:0:0:
437,321,38286,1,2,0:0:0:0:
431,354,38372,1,2,0:0:0:0:
385,369,38457,1,2,0:0:0:0:
339,334,38544,6,0,P|336:270|399:185,1,167.999994873047,0|0,1:0|0:0,0:0:0:0:
512,121,39058,5,2,0:0:0:0:
290,181,39229,2,0,P|252:120|258:92,1,83.9999974365235,8|0,0:0|0:0,0:0:0:0:
340,65,39572,6,0,P|351:21|359:-27,1,83.9999974365235,2|0,0:0|0:0,0:0:0:0:
149,56,39915,2,0,P|160:100|168:148,1,83.9999974365235,2|0,0:0|0:0,0:0:0:0:
54,349,40258,5,0,1:0:0:0:
49,361,40343,1,0,0:0:0:0:
44,373,40429,1,0,0:0:0:0:
323,257,40601,1,8,0:0:0:0:
329,272,40944,5,2,0:0:0:0:
314,262,41029,1,2,0:0:0:0:
312,239,41115,1,2,0:0:0:0:
340,202,41201,1,2,0:0:0:0:
390,175,41286,6,0,P|404:130|379:78,1,83.9999974365235,2|0,1:2|0:0,0:0:0:0:
168,110,41629,2,0,P|213:123|247:167,1,83.9999974365235,2|0,0:0|0:0,0:0:0:0:
142,384,41972,5,8,0:0:0:0:
206,321,42144,2,0,P|203:271|167:229,1,83.9999974365235,2|0,0:0|0:0,0:0:0:0:
24,153,42658,6,0,P|0:108|5:54,1,83.9999974365235,2|0,0:0|0:0,0:0:0:0:
66,318,43001,1,0,1:0:0:0:
63,336,43344,5,10,0:0:0:0:
49,321,43429,1,2,0:0:0:0:
53,289,43515,1,2,1:2:0:0:
76,268,43601,1,2,0:0:0:0:
126,259,43686,5,10,0:0:0:0:
174,243,43772,1,0,1:0:0:0:
195,197,43858,1,10,0:0:0:0:
176,149,43944,1,8,0:0:0:0:
127,135,44029,5,2,1:2:0:0:
127,135,44544,1,2,0:0:0:0:
113,125,45058,5,2,0:0:0:0:
341,53,45401,1,2,0:0:0:0:
504,158,46429,5,2,0:0:0:0:
506,148,46515,1,2,0:0:0:0:
508,138,46601,1,2,0:0:0:0:
510,128,46686,1,2,0:0:0:0:
512,118,46772,5,2,0:0:0:0:
305,19,47115,1,2,0:0:0:0:
301,3,47629,5,2,0:0:0:0:
508,102,48144,1,2,0:0:0:0:
109,190,48829,5,2,0:0:0:0:
123,198,49172,5,2,0:0:0:0:
119,172,49258,1,2,0:0:0:0:
115,146,49344,1,2,0:0:0:0:
111,120,49429,1,2,0:0:0:0:
107,94,49515,1,2,0:0:0:0:
256,192,49601,12,0,54144,0:0:0:0:
70,103,54315,5,2,0:0:0:0:
89,101,54401,1,2,0:0:0:0:
105,109,54486,1,2,0:0:0:0:
118,121,54572,1,2,0:0:0:0:
125,138,54658,6,0,P|125:151|107:191,1,31.4999990386963,2|0,0:0|0:0,0:0:0:0:
175,218,54829,2,0,P|164:243|152:255,1,31.4999990386963,2|0,0:0|0:0,0:0:0:0:
259,384,55001,5,6,1:2:0:0:
226,346,55086,1,2,0:0:0:0:
233,296,55172,1,2,0:0:0:0:
270,262,55258,2,0,P|294:252|339:258,1,45.4999979171754,2|8,0:0|0:0,0:0:0:0:
452,268,55429,5,2,0:0:0:0:
479,271,55515,2,0,P|504:254|516:220,1,45.4999979171754,2|2,0:0|0:0,0:0:0:0:
460,163,55686,5,2,1:2:0:0:
479,140,55772,2,0,P|475:102|466:86,1,45.4999979171754,2|2,0:0|0:0,0:0:0:0:
311,62,55944,5,2,0:0:0:0:
337,50,56029,2,0,P|371:64|387:97,1,45.4999979171754,10|2,0:0|0:0,0:0:0:0:
185,215,56201,5,2,0:0:0:0:
198,227,56286,1,2,0:0:0:0:
211,226,56372,5,2,1:2:0:0:
253,184,56458,1,0,0:0:0:0:
251,124,56544,1,2,0:0:0:0:
214,77,56629,2,0,P|180:68|148:84,1,45.4999979171754,2|8,0:0|0:0,0:0:0:0:
63,164,56801,5,2,0:0:0:0:
31,176,56886,2,0,P|2:156|-1:122,1,45.4999979171754,2|2,0:0|0:0,0:0:0:0:
77,41,57058,6,0,L|68:-28,1,45.4999979171754,2|2,1:2|0:0,0:0:0:0:
169,160,57229,2,0,L|161:207,1,45.4999979171754,2|0,1:2|0:0,0:0:0:0:
320,56,57401,2,0,L|311:-13,3,45.4999979171754,10|2|2|2,0:0|0:0|0:0|0:0,0:0:0:0:
413,89,57744,5,0,1:0:0:0:
371,130,57829,1,0,0:0:0:0:
382,188,57915,1,2,0:0:0:0:
434,215,58001,1,2,0:0:0:0:
485,232,58086,1,8,0:0:0:0:
504,278,58172,1,2,0:0:0:0:
496,327,58258,2,0,P|464:349|429:335,1,45.4999979171754,2|2,0:0|0:0,0:0:0:0:
311,373,58429,5,2,1:2:0:0:
294,346,58515,2,0,P|312:303|337:286,1,45.4999979171754,2|2,0:0|0:0,0:0:0:0:
254,219,58686,5,2,0:0:0:0:
260,187,58772,2,0,P|301:159|329:163,1,45.4999979171754,10|2,0:0|0:0,0:0:0:0:
467,116,58944,5,2,0:0:0:0:
474,110,59029,1,2,0:0:0:0:
477,95,59115,5,2,1:2:0:0:
457,44,59201,1,0,0:0:0:0:
404,29,59286,1,2,0:0:0:0:
356,57,59372,2,0,P|322:73|286:58,1,45.4999979171754,2|8,0:0|0:0,0:0:0:0:
112,101,59544,5,2,0:0:0:0:
100,89,59629,1,2,1:2:0:0:
102,74,59715,1,2,0:0:0:0:
127,47,59801,5,2,0:0:0:0:
179,33,59886,1,2,0:0:0:0:
223,72,59972,1,2,1:2:0:0:
227,131,60058,1,2,0:0:0:0:
185,173,60144,1,10,0:0:0:0:
126,179,60229,1,2,1:2:0:0:
74,209,60315,1,2,0:0:0:0:
67,268,60401,1,2,0:0:0:0:
112,304,60486,5,6,1:2:0:0:
132,300,60572,1,2,0:0:0:0:
144,289,60658,1,2,0:0:0:0:
150,272,60744,2,0,P|144:233|133:214,1,45.4999979171754,2|8,0:0|0:0,0:0:0:0:
40,188,60915,5,2,0:0:0:0:
12,172,61001,2,0,P|-1:132|13:97,1,45.4999979171754,2|2,0:0|0:0,0:0:0:0:
149,77,61172,5,2,1:2:0:0:
162,64,61258,1,2,0:0:0:0:
163,45,61344,1,2,0:0:0:0:
157,27,61429,1,2,0:0:0:0:
142,15,61515,2,0,P|103:-1|75:6,1,45.4999979171754,10|2,0:0|0:0,0:0:0:0:
233,157,61686,5,2,0:0:0:0:
224,143,61772,1,2,0:0:0:0:
227,125,61858,5,2,1:2:0:0:
265,85,61944,1,0,0:0:0:0:
323,87,62029,1,2,0:0:0:0:
366,126,62115,1,2,0:0:0:0:
380,178,62201,1,8,0:0:0:0:
421,212,62286,1,2,0:0:0:0:
475,206,62372,1,2,0:0:0:0:
504,160,62458,1,2,0:0:0:0:
485,113,62544,6,0,L|475:33,1,45.4999979171754,2|2,1:2|0:0,0:0:0:0:
360,179,62715,2,0,L|349:257,1,45.4999979171754,2|0,1:2|0:0,0:0:0:0:
261,76,62886,2,0,L|251:-4,3,45.4999979171754,10|2|2|2,0:0|0:0|0:0|0:0,0:0:0:0:
117,135,63229,5,0,1:0:0:0:
77,173,63315,1,0,0:0:0:0:
79,227,63401,1,2,0:0:0:0:
116,265,63486,2,0,P|147:276|192:257,1,45.4999979171754,2|8,0:0|0:0,0:0:0:0:
220,196,63658,5,2,0:0:0:0:
239,170,63744,2,0,P|285:162|302:174,1,45.4999979171754,2|2,0:0|0:0,0:0:0:0:
417,238,63915,5,2,1:2:0:0:
439,251,64001,2,0,P|482:227|490:206,1,45.4999979171754,2|2,0:0|0:0,0:0:0:0:
450,127,64172,5,2,0:0:0:0:
474,112,64258,2,0,P|474:68|463:51,1,45.4999979171754,10|2,0:0|0:0,0:0:0:0:
284,45,64429,5,2,0:0:0:0:
299,43,64515,1,2,0:0:0:0:
324,56,64601,5,2,1:2:0:0:
340,104,64686,1,0,0:0:0:0:
312,146,64772,1,2,0:0:0:0:
263,153,64858,2,0,P|222:139|198:116,1,45.4999979171754,2|8,0:0|0:0,0:0:0:0:
76,0,65029,5,2,0:0:0:0:
95,2,65115,1,2,1:2:0:0:
114,17,65201,1,2,0:0:0:0:
122,60,65286,5,2,0:0:0:0:
88,109,65372,1,2,0:0:0:0:
33,131,65458,1,2,1:2:0:0:
2,181,65544,1,2,0:0:0:0:
27,233,65629,1,10,0:0:0:0:
84,249,65715,1,2,1:2:0:0:
127,289,65801,1,2,0:0:0:0:
120,347,65886,1,2,0:0:0:0:
68,377,65972,5,6,1:2:0:0:
47,366,66058,1,2,0:0:0:0:
42,343,66144,1,2,0:0:0:0:
47,321,66229,2,0,P|72:288|90:278,1,45.4999979171754,2|8,0:0|0:0,0:0:0:0:
225,283,66401,5,2,0:0:0:0:
246,266,66486,2,0,P|247:218|224:200,1,45.4999979171754,2|2,0:0|0:0,0:0:0:0:
130,96,66658,5,2,1:2:0:0:
113,78,66744,1,2,0:0:0:0:
111,55,66829,1,2,0:0:0:0:
121,34,66915,1,2,0:0:0:0:
140,21,67001,2,0,P|174:11|217:17,1,45.4999979171754,10|2,0:0|0:0,0:0:0:0:
434,71,67172,5,2,0:0:0:0:
440,56,67258,1,2,0:0:0:0:
429,40,67344,5,2,1:2:0:0:
383,10,67429,1,0,0:0:0:0:
327,31,67515,1,2,0:0:0:0:
306,86,67601,1,2,0:0:0:0:
329,139,67686,1,8,0:0:0:0:
384,160,67772,1,2,0:0:0:0:
428,199,67858,1,2,0:0:0:0:
430,256,67944,1,2,0:0:0:0:
402,307,68029,6,0,L|415:368,1,45.4999979171754,2|2,1:2|0:0,0:0:0:0:
304,211,68201,2,0,L|313:147,1,45.4999979171754,2|0,1:2|0:0,0:0:0:0:
188,340,68372,2,0,L|201:401,3,45.4999979171754,10|2|2|2,0:0|0:0|0:0|0:0,0:0:0:0:
35,274,68715,5,0,1:0:0:0:
15,228,68801,1,0,0:0:0:0:
38,183,68886,1,2,0:0:0:0:
85,167,68972,2,0,P|118:168|146:187,1,45.4999979171754,2|8,0:0|0:0,0:0:0:0:
213,143,69144,5,2,0:0:0:0:
245,152,69229,2,0,P|263:192|251:227,1,45.4999979171754,2|2,0:0|0:0,0:0:0:0:
487,275,69401,5,2,1:2:0:0:
461,267,69486,2,0,P|441:233|439:210,1,45.4999979171754,2|2,0:0|0:0,0:0:0:0:
358,348,69658,5,2,0:0:0:0:
344,329,69744,2,0,P|351:282|358:271,1,45.4999979171754,10|2,0:0|0:0,0:0:0:0:
448,97,69915,5,2,0:0:0:0:
459,88,70001,1,2,0:0:0:0:
462,61,70086,5,2,1:2:0:0:
439,21,70172,1,0,0:0:0:0:
389,10,70258,1,2,0:0:0:0:
343,32,70344,1,2,0:0:0:0:
323,77,70429,1,8,0:0:0:0:
280,104,70515,1,2,0:0:0:0:
233,85,70601,5,2,1:2:0:0:
223,75,70686,1,2,0:0:0:0:
219,61,70772,1,2,0:0:0:0:
223,48,70858,1,2,0:0:0:0:
234,40,70944,6,0,L|189:65,1,45.4999979171754,2|2,1:2|0:0,0:0:0:0:
117,13,71115,2,0,L|70:1,3,45.4999979171754,10|2|2|2,0:0|1:2|0:0|0:0,0:0:0:0:
8,146,71458,5,6,1:2:0:0:
55,112,71544,1,2,0:0:0:0:
111,104,71629,1,2,0:0:0:0:
166,121,71715,1,2,0:0:0:0:
207,161,71801,1,8,0:0:0:0:
227,214,71886,1,2,0:0:0:0:
221,271,71972,1,2,0:0:0:0:
191,321,72058,1,2,0:0:0:0:
142,352,72144,6,0,P|104:365|65:367,3,52.5000020027161,2|2|2|2,1:2|0:0|0:0|0:0,0:0:0:0:
50,266,72486,2,0,P|3:255|-19:241,3,52.5000020027161,10|2|2|2,0:0|0:0|0:0|0:0,0:0:0:0:
138,89,72829,5,2,1:2:0:0:
106,140,72915,1,2,0:0:0:0:
121,198,73001,1,2,0:0:0:0:
172,228,73086,1,2,0:0:0:0:
232,222,73172,1,8,0:0:0:0:
277,182,73258,1,2,0:0:0:0:
333,160,73344,1,2,0:0:0:0:
391,172,73429,1,2,0:0:0:0:
431,216,73515,6,0,P|445:261|436:301,1,52.5000020027161,2|2,1:2|0:0,0:0:0:0:
366,329,73686,2,0,P|363:354|351:378,1,52.5000020027161,2|2,1:2|0:0,0:0:0:0:
237,353,73858,2,0,P|208:376|153:373,3,52.5000020027161,10|2|2|2,0:0|0:0|0:0|0:0,0:0:0:0:
131,150,74201,5,2,1:2:0:0:
109,203,74286,1,2,0:0:0:0:
148,249,74372,1,2,0:0:0:0:
208,251,74458,1,2,0:0:0:0:
262,224,74544,1,8,0:0:0:0:
321,226,74629,1,2,0:0:0:0:
370,260,74715,1,2,0:0:0:0:
395,314,74801,1,2,0:0:0:0:
381,373,74886,5,2,1:2:0:0:
352,384,74972,1,2,0:0:0:0:
324,374,75058,1,2,0:0:0:0:
314,354,75144,1,2,0:0:0:0:
313,331,75229,2,0,P|319:301|333:275,3,52.5000020027161,10|2|2|2,0:0|0:0|0:0|0:0,0:0:0:0:
475,300,75572,5,2,1:2:0:0:
512,244,75658,1,2,0:0:0:0:
510,176,75744,1,2,0:0:0:0:
469,123,75829,1,2,0:0:0:0:
404,104,75915,1,8,0:0:0:0:
339,123,76001,1,2,0:0:0:0:
280,155,76086,1,2,1:2:0:0:
212,153,76172,1,2,0:0:0:0:
161,108,76258,5,2,0:0:0:0:
164,40,76344,1,2,0:0:0:0:
217,0,76429,1,2,1:2:0:0:
283,13,76515,1,2,0:0:0:0:
306,76,76601,1,10,0:0:0:0:
276,135,76686,1,2,1:2:0:0:
209,145,76772,1,2,0:0:0:0:
166,92,76858,1,2,0:0:0:0:
196,32,76944,1,4,0:0:0:0:
58,114,78144,5,2,0:0:0:0:
47,114,78229,1,2,0:0:0:0:
38,122,78315,5,2,1:2:0:0:
20,172,78401,1,0,0:0:0:0:
57,210,78486,1,2,0:0:0:0:
111,207,78572,2,0,P|147:209|177:230,1,48.9999985046387,2|8,0:0|0:0,0:0:0:0:
244,342,78744,5,2,0:0:0:0:
216,361,78829,2,0,P|183:345|171:311,1,48.9999985046387,2|2,0:0|0:0,0:0:0:0:
291,226,79001,6,0,L|301:156,1,48.9999985046387,2|2,1:2|0:0,0:0:0:0:
376,301,79172,2,0,L|388:365,1,48.9999985046387,2|0,1:2|0:0,0:0:0:0:
491,208,79344,2,0,L|501:138,3,48.9999985046387,10|2|2|2,0:0|0:0|0:0|0:0,0:0:0:0:
304,48,79686,5,0,1:0:0:0:
271,91,79772,1,0,0:0:0:0:
278,147,79858,1,2,0:0:0:0:
324,179,79944,1,2,0:0:0:0:
379,171,80029,1,8,0:0:0:0:
432,187,80115,1,2,0:0:0:0:
464,233,80201,1,2,0:0:0:0:
464,288,80286,1,2,0:0:0:0:
420,323,80372,5,2,1:2:0:0:
397,319,80458,2,0,P|372:283|380:249,1,48.9999985046387,2|2,0:0|0:0,0:0:0:0:
282,190,80629,5,2,0:0:0:0:
255,209,80715,2,0,P|249:248|256:278,1,48.9999985046387,10|2,0:0|0:0,0:0:0:0:
134,384,80886,5,2,0:0:0:0:
145,378,80972,1,2,0:0:0:0:
150,363,81058,5,2,1:2:0:0:
137,315,81144,1,0,0:0:0:0:
96,288,81229,1,2,0:0:0:0:
46,285,81315,2,0,P|14:248|14:225,1,48.9999985046387,2|8,0:0|0:0,0:0:0:0:
225,158,81486,5,2,0:0:0:0:
240,164,81572,1,2,1:2:0:0:
240,183,81658,1,2,0:0:0:0:
223,215,81744,5,2,0:0:0:0:
177,231,81829,1,2,0:0:0:0:
130,204,81915,1,2,1:2:0:0:
117,151,82001,1,2,0:0:0:0:
135,101,82086,1,10,0:0:0:0:
130,47,82172,1,2,1:2:0:0:
91,8,82258,1,2,0:0:0:0:
36,10,82344,1,2,0:0:0:0:
11,51,82429,5,6,1:2:0:0:
19,74,82515,1,2,0:0:0:0:
36,87,82601,1,2,0:0:0:0:
53,86,82686,2,0,P|88:61|103:37,1,48.9999985046387,2|8,0:0|0:0,0:0:0:0:
204,109,82858,5,2,0:0:0:0:
187,78,82944,2,0,P|208:24|217:18,1,48.9999985046387,2|2,0:0|0:0,0:0:0:0:
399,54,83115,5,2,1:2:0:0:
405,40,83201,1,2,0:0:0:0:
407,25,83286,1,2,0:0:0:0:
401,11,83372,1,2,0:0:0:0:
389,2,83458,2,0,P|344:3|320:39,1,48.9999985046387,10|2,0:0|0:0,0:0:0:0:
425,162,83629,5,2,0:0:0:0:
436,169,83715,1,2,0:0:0:0:
434,186,83801,5,2,1:2:0:0:
387,221,83886,1,0,0:0:0:0:
328,210,83972,1,2,0:0:0:0:
300,157,84058,2,0,P|265:126|232:123,1,48.9999985046387,2|8,0:0|0:0,0:0:0:0:
88,173,84229,5,2,0:0:0:0:
111,147,84315,2,0,P|163:146|182:161,1,48.9999985046387,2|2,0:0|0:0,0:0:0:0:
221,293,84486,6,0,L|232:215,1,48.9999985046387,2|2,1:2|0:0,0:0:0:0:
350,336,84658,2,0,L|361:414,1,48.9999985046387,2|0,1:2|0:0,0:0:0:0:
465,224,84829,2,0,L|476:146,3,48.9999985046387,10|2|2|2,0:0|0:0|0:0|0:0,0:0:0:0:
347,50,85172,5,0,1:0:0:0:
296,69,85258,1,0,0:0:0:0:
277,124,85344,1,2,0:0:0:0:
303,176,85429,1,2,0:0:0:0:
354,204,85515,1,8,0:0:0:0:
390,250,85601,1,2,0:0:0:0:
384,308,85686,1,2,0:0:0:0:
335,342,85772,1,2,0:0:0:0:
285,319,85858,5,2,1:2:0:0:
277,296,85944,2,0,P|288:256|302:239,1,48.9999985046387,2|2,0:0|0:0,0:0:0:0:
462,193,86115,5,2,0:0:0:0:
494,182,86201,2,0,P|510:134|503:116,1,48.9999985046387,10|2,0:0|0:0,0:0:0:0:
246,124,86372,5,2,0:0:0:0:
237,111,86458,1,2,0:0:0:0:
244,92,86544,5,2,1:2:0:0:
290,63,86629,1,0,0:0:0:0:
342,78,86715,1,2,0:0:0:0:
371,122,86801,2,0,P|367:161|338:191,1,48.9999985046387,2|8,0:0|0:0,0:0:0:0:
237,338,86972,5,2,0:0:0:0:
232,350,87058,1,2,1:2:0:0:
240,368,87144,1,2,0:0:0:0:
274,380,87229,5,2,0:0:0:0:
310,339,87315,1,2,0:0:0:0:
312,284,87401,1,2,1:2:0:0:
281,240,87486,1,2,0:0:0:0:
230,220,87572,1,10,0:0:0:0:
176,228,87658,1,2,1:2:0:0:
127,252,87744,1,2,0:0:0:0:
74,259,87829,1,2,0:0:0:0:
34,230,87915,5,6,1:2:0:0:
28,206,88001,1,2,0:0:0:0:
39,186,88086,1,2,0:0:0:0:
54,175,88172,2,0,P|82:166|106:171,1,48.9999985046387,2|8,0:0|0:0,0:0:0:0:
230,205,88344,5,2,0:0:0:0:
260,189,88429,2,0,P|268:143|242:115,1,48.9999985046387,2|2,0:0|0:0,0:0:0:0:
168,85,88601,5,2,1:2:0:0:
151,67,88687,1,2,0:0:0:0:
149,44,88772,1,2,0:0:0:0:
159,23,88858,1,2,0:0:0:0:
178,10,88944,2,0,P|212:0|256:8,1,48.9999985046387,10|2,0:0|0:0,0:0:0:0:
354,126,89115,5,2,0:0:0:0:
336,129,89201,1,2,0:0:0:0:
308,161,89286,5,2,1:2:0:0:
317,217,89372,1,0,0:0:0:0:
368,245,89458,1,2,0:0:0:0:
424,227,89544,1,2,0:0:0:0:
480,241,89629,1,8,0:0:0:0:
512,290,89715,1,2,0:0:0:0:
498,347,89801,1,2,0:0:0:0:
450,380,89886,1,2,0:0:0:0:
402,353,89972,6,0,L|411:267,1,48.9999985046387,2|2,1:2|0:0,0:0:0:0:
305,227,90144,2,0,L|293:137,1,48.9999985046387,2|0,1:2|0:0,0:0:0:0:
167,336,90315,2,0,L|158:422,3,48.9999985046387,10|2|2|2,0:0|0:0|0:0|0:0,0:0:0:0:
22,250,90658,5,0,1:0:0:0:
33,197,90744,1,0,0:0:0:0:
83,178,90829,1,2,0:0:0:0:
136,184,90915,2,0,P|170:160|170:110,1,48.9999985046387,2|8,0:0|0:0,0:0:0:0:
298,152,91087,5,2,0:0:0:0:
287,189,91172,2,0,P|247:207|210:196,1,48.9999985046387,2|2,0:0|0:0,0:0:0:0:
287,384,91344,5,2,1:2:0:0:
273,363,91429,2,0,P|282:324|303:303,1,48.9999985046387,2|2,0:0|0:0,0:0:0:0:
391,311,91601,5,2,0:0:0:0:
375,297,91686,2,0,P|388:249|417:234,1,48.9999985046387,10|2,0:0|0:0,0:0:0:0:
492,126,91858,5,2,0:0:0:0:
506,114,91944,1,2,0:0:0:0:
512,83,92029,5,2,1:2:0:0:
484,41,92115,1,0,0:0:0:0:
437,24,92201,1,2,0:0:0:0:
389,37,92287,1,2,0:0:0:0:
352,69,92372,1,8,0:0:0:0:
332,114,92458,1,2,0:0:0:0:
289,129,92544,5,2,1:2:0:0:
259,127,92629,1,2,0:0:0:0:
240,110,92715,1,2,0:0:0:0:
223,98,92801,1,2,0:0:0:0:
209,92,92887,6,0,L|149:110,1,48.9999985046387,2|2,1:2|0:0,0:0:0:0:
61,177,93058,2,0,L|6:166,3,48.9999985046387,10|2|2|2,0:0|1:2|0:0|0:0,0:0:0:0:
80,367,93401,5,6,1:2:0:0:
58,309,93486,1,2,0:0:0:0:
84,253,93572,1,2,0:0:0:0:
140,226,93658,1,2,0:0:0:0:
201,221,93744,1,8,0:0:0:0:
254,250,93829,1,2,0:0:0:0:
301,289,93915,1,2,0:0:0:0:
362,296,94001,1,2,0:0:0:0:
412,263,94086,5,2,1:2:0:0:
423,231,94172,1,2,0:0:0:0:
415,204,94258,1,2,0:0:0:0:
399,185,94344,1,2,0:0:0:0:
381,176,94429,2,0,P|338:169|319:172,3,56,10|2|2|2,0:0|0:0|0:0|0:0,0:0:0:0:
150,113,94772,5,2,1:2:0:0:
124,169,94858,1,2,0:0:0:0:
157,222,94944,1,2,0:0:0:0:
218,234,95029,1,2,0:0:0:0:
278,218,95115,1,8,0:0:0:0:
327,179,95201,1,2,0:0:0:0:
363,129,95286,1,2,0:0:0:0:
420,106,95372,1,2,0:0:0:0:
480,122,95458,6,0,P|504:147|515:186,1,56,2|2,1:2|0:0,0:0:0:0:
488,238,95629,2,0,P|487:290|464:325,1,56,2|2,1:2|0:0,0:0:0:0:
352,331,95801,2,0,P|342:357|343:386,3,56,10|2|2|2,0:0|0:0|0:0|0:0,0:0:0:0:
178,318,96144,5,2,1:2:0:0:
143,265,96229,1,2,0:0:0:0:
159,203,96315,1,2,0:0:0:0:
212,168,96401,1,2,0:0:0:0:
274,164,96486,1,8,0:0:0:0:
334,181,96572,1,2,0:0:0:0:
397,175,96658,1,2,0:0:0:0:
444,132,96744,1,2,0:0:0:0:
444,69,96829,5,2,1:2:0:0:
421,41,96915,1,2,0:0:0:0:
389,32,97001,1,2,0:0:0:0:
366,42,97086,1,2,0:0:0:0:
355,60,97172,2,0,P|352:95|372:132,3,56,10|2|2|2,0:0|0:0|0:0|0:0,0:0:0:0:
325,274,97515,5,2,1:2:0:0:
314,204,97601,1,2,0:0:0:0:
263,155,97686,1,2,0:0:0:0:
193,143,97772,1,2,0:0:0:0:
129,175,97858,1,8,0:0:0:0:
58,176,97944,1,2,0:0:0:0:
18,118,98029,1,2,1:2:0:0:
36,50,98115,1,2,0:0:0:0:
100,20,98201,5,2,0:0:0:0:
168,42,98286,1,2,0:0:0:0:
197,108,98372,1,2,1:2:0:0:
173,176,98458,1,2,0:0:0:0:
109,210,98544,1,10,0:0:0:0:
40,190,98629,1,2,1:2:0:0:
3,128,98715,1,2,0:0:0:0:
17,57,98801,1,2,0:0:0:0:
73,12,98886,1,4,1:0:0:0:
