osu file format v14

[General]
AudioFilename: audio.mp3
AudioLeadIn: 0
PreviewTime: 54229
Countdown: 0
SampleSet: Soft
StackLeniency: 0.4
Mode: 0
LetterboxInBreaks: 0
WidescreenStoryboard: 1

[Editor]
Bookmarks: 330,11301,22272,23301,33244,44215,55187,66158,76444,77130,78501,88101,99072
DistanceSpacing: 1.4
BeatDivisor: 4
GridSize: 4
TimelineZoom: 1.3

[Metadata]
Title:Tower Of Heaven (You Are Slaves) (Cut Ver.)
TitleUnicode:Tower Of Heaven (You Are Slaves) (Cut Ver.)
Artist:Feint
ArtistUnicode:Feint
Creator:Strategas
Version:evth's Hard
Source:
Tags:dnb drum and & bass electronic instrumental edm 8bit fa featured artist simple streams 3 vanila longstream deathstream kisaragi 如月 228 evth aye1337 dixaway tutis cbh Come[Back]Home mpg mappers' guild
BeatmapID:4137860
BeatmapSetID:1991315

[Difficulty]
HPDrainRate:4
CircleSize:4
OverallDifficulty:5
ApproachRate:8
SliderMultiplier:1.45
SliderTickRate:1

[Events]
//Background and Video events
0,0,"00061.png",0,0
//Break Periods
//Storyboard Layer 0 (Background)
//Storyboard Layer 1 (Fail)
//Storyboard Layer 2 (Pass)
//Storyboard Layer 3 (Foreground)
//Storyboard Layer 4 (Overlay)
//Storyboard Sound Samples

[TimingPoints]
144,342.857142857143,4,2,25,55,1,0
144,-166.666666666667,4,2,25,55,0,0
11115,-153.846153846154,4,2,25,45,0,0
22086,-142.857142857143,4,2,25,50,0,0
54315,-142.857142857143,4,2,25,60,0,0
55001,-133.333333333333,4,2,25,60,0,1
71458,-111.111111111111,4,2,25,65,0,1
75572,-111.111111111111,4,2,25,70,0,1
76944,-111.111111111111,4,2,25,70,0,0
78315,-133.333333333333,4,2,25,60,0,1
90315,-133.333333333333,4,2,25,65,0,1
93401,-111.111111111111,4,2,25,65,0,1
94429,-111.111111111111,4,2,25,60,0,1
94772,-111.111111111111,4,2,25,65,0,1
95801,-111.111111111111,4,2,25,60,0,1
96144,-111.111111111111,4,2,25,65,0,1
97172,-111.111111111111,4,2,25,60,0,1
97515,-111.111111111111,4,2,25,70,0,1
98886,-111.111111111111,4,2,25,70,0,0

[Colours]
Combo1 : 79,141,171
Combo2 : 209,230,244

[HitObjects]
104,196,144,6,0,L|117:292,1,86.9999973449708,2|2,0:0|0:0,0:0:0:0:
236,252,829,1,2,0:0:0:0:
236,252,1001,2,0,P|278:229|326:233,2,86.9999973449708,2|2|0,0:0|0:0|0:0,0:0:0:0:
258,334,1858,2,0,B|290:347|290:347|345:336,1,86.9999973449708,2|2,0:0|0:0,0:0:0:0:
446,274,2544,1,2,0:0:0:0:
378,107,3229,1,2,0:0:0:0:
378,107,3572,6,0,B|293:132|296:58|194:89,1,173.999994689942,2|0,0:0|0:0,0:0:0:0:
90,109,4601,1,2,0:0:0:0:
179,191,4944,2,0,B|192:222|192:222|184:285,1,86.9999973449708,2|0,0:0|0:0,0:0:0:0:
249,356,5629,6,0,L|302:350,1,43.4999986724854,2|2,0:0|0:0,0:0:0:0:
345,298,5972,2,0,L|388:302,1,43.4999986724854,2|0,0:0|0:0,0:0:0:0:
459,264,6315,1,2,0:0:0:0:
459,264,6486,2,0,L|473:171,2,86.9999973449708,2|2|0,0:0|0:0|0:0,0:0:0:0:
387,225,7344,2,0,B|369:187|369:187|398:144,1,86.9999973449708,2|2,0:0|0:0,0:0:0:0:
454,43,8029,1,2,0:0:0:0:
247,127,8715,1,2,0:0:0:0:
247,127,9058,6,0,P|218:82|104:93,1,173.999994689942,2|0,0:0|0:0,0:0:0:0:
37,187,10086,1,2,0:0:0:0:
125,267,10429,2,0,P|135:298|124:351,1,86.9999973449708,2|0,0:0|0:0,0:0:0:0:
221,291,11115,6,0,P|257:264|309:265,1,94.2499956855776,6|0,0:0|0:0,0:0:0:0:
365,325,11629,2,0,L|382:227,1,94.2499956855776,2|0,0:0|0:0,0:0:0:0:
398,153,12144,1,2,0:0:0:0:
483,266,12486,1,2,0:0:0:0:
304,263,13515,6,0,L|313:305,4,23.5624989213944,2|2|2|2|2,0:0|0:0|0:0|0:0|0:0,0:0:0:0:
250,175,14201,2,0,P|202:164|144:189,1,94.2499956855776,2|0,0:0|0:0,0:0:0:0:
92,221,14715,2,0,L|79:127,1,94.2499956855776,2|0,0:0|0:0,0:0:0:0:
69,54,15229,1,2,0:0:0:0:
196,182,15915,1,2,0:0:0:0:
196,182,16258,6,0,L|192:214,4,23.5624989213944,2|2|2|2|2,0:0|0:0|0:0|0:0|0:0,0:0:0:0:
222,97,17115,2,0,B|257:76|257:76|318:82,1,94.2499956855776,2|0,0:0|0:0,0:0:0:0:
389,97,17629,1,2,0:0:0:0:
283,180,17972,1,2,0:0:0:0:
283,180,19001,6,0,L|320:184,4,23.5624989213944,2|2|2|2|2,0:0|0:0|0:0|0:0|0:0,0:0:0:0:
188,174,19686,2,0,P|172:207|181:264,1,94.2499956855776,2|0,0:0|0:0,0:0:0:0:
234,314,20201,2,0,L|336:328,1,94.2499956855776,2|0,0:0|0:0,0:0:0:0:
409,344,20715,1,2,0:0:0:0:
409,344,21401,6,0,L|447:332,3,23.5624989213944,2|2|2|2,0:0|0:0|0:0|0:0,0:0:0:0:
473,332,21744,2,0,P|477:303|472:278,1,47.1249978427888,2|2,0:0|0:0,0:0:0:0:
435,212,22086,6,0,B|397:194|397:194|321:211,1,101.499996902466,6|0,1:2|0:0,0:0:0:0:
266,274,22601,1,2,0:0:0:0:
207,190,22772,2,0,L|199:136,1,50.749998451233,8|0,0:0|0:0,0:0:0:0:
282,84,23115,2,0,L|290:30,1,50.749998451233,2|0,0:0|0:0,0:0:0:0:
193,40,23458,2,0,P|143:23|85:29,1,101.499996902466,2|0,0:0|1:2,0:0:0:0:
22,88,24144,1,8,0:0:0:0:
22,88,24486,6,0,L|12:114,3,25.3749992256165,2|2|2|2,0:0|0:0|0:0|0:0,0:0:0:0:
15,142,24829,2,0,L|25:206,1,50.749998451233,2|0,1:2|0:0,0:0:0:0:
19,270,25172,2,0,P|53:240|111:233,1,101.499996902466,2|8,0:0|0:0,0:0:0:0:
194,304,25686,2,0,L|213:201,1,101.499996902466,2|0,0:0|0:0,0:0:0:0:
227,111,26201,1,2,0:0:0:0:
335,199,26544,1,0,1:2:0:0:
424,67,26886,2,0,L|434:119,1,50.749998451233,10|0,0:0|1:2,0:0:0:0:
458,172,27229,6,0,L|455:221,3,25.3749992256165,2|2|2|2,0:0|0:0|0:0|0:0,0:0:0:0:
455,227,27572,2,0,B|441:266|441:266|378:275,1,101.499996902466,2|0,1:2|0:0,0:0:0:0:
281,235,28086,2,0,L|265:126,1,101.499996902466,2|0,0:0|0:0,0:0:0:0:
253,41,28601,1,2,0:0:0:0:
144,143,28944,1,2,0:0:0:0:
144,143,29286,6,0,P|111:114|39:113,1,101.499996902466,0|8,1:2|0:0,0:0:0:0:
22,192,29972,6,0,L|16:216,3,25.3749992256165,2|2|2|2,0:0|0:0|0:0|0:0,0:0:0:0:
28,244,30315,2,0,L|38:302,1,50.749998451233,2|0,1:2|0:0,0:0:0:0:
92,362,30658,6,0,P|138:368|191:343,1,101.499996902466,2|8,0:0|0:0,0:0:0:0:
238,262,31172,2,0,P|283:240|333:246,1,101.499996902466,2|0,0:0|0:0,0:0:0:0:
410,310,31686,1,2,0:0:0:0:
457,175,32029,1,0,1:2:0:0:
457,175,32372,6,0,L|450:148,3,25.3749992256165,10|2|2|2,0:0|0:0|1:2|0:0,0:0:0:0:
466,124,32715,2,0,L|473:97,3,25.3749992256165,10|0|10|8,0:0|1:2|0:0|0:0,0:0:0:0:
472,68,33058,2,0,B|440:30|440:30|373:44,1,101.499996902466,6|0,1:2|0:0,0:0:0:0:
327,108,33572,2,0,L|346:224,1,101.499996902466,2|0,0:0|0:0,0:0:0:0:
360,298,34086,1,2,0:0:0:0:
238,262,34429,1,2,0:0:0:0:
139,339,34772,1,0,1:2:0:0:
28,244,35115,1,8,0:0:0:0:
28,244,35458,6,0,L|44:211,3,25.3749992256165,2|2|2|2,0:0|0:0|0:0|0:0,0:0:0:0:
60,198,35801,2,0,P|84:185|112:183,1,50.749998451233,2|0,1:2|0:0,0:0:0:0:
191,238,36144,2,0,L|299:253,1,101.499996902466,2|8,0:0|0:0,0:0:0:0:
376,208,36658,2,0,P|390:161|373:103,1,101.499996902466,2|0,0:0|0:0,0:0:0:0:
308,49,37172,1,2,0:0:0:0:
191,150,37515,1,0,1:2:0:0:
112,59,37858,2,0,P|88:46|48:46,1,50.749998451233,10|0,0:0|1:0,0:0:0:0:
14,124,38201,6,0,L|6:171,3,25.3749992256165,2|2|2|2,0:0|0:0|0:0|0:0,0:0:0:0:
10,179,38544,2,0,B|23:284,1,101.499996902466,2|0,1:2|0:0,0:0:0:0:
32,356,39058,2,0,P|58:319|113:302,1,101.499996902466,2|0,0:0|0:0,0:0:0:0:
199,331,39572,1,2,0:0:0:0:
191,238,39915,1,2,0:0:0:0:
370,296,40258,1,0,1:2:0:0:
376,208,40601,1,8,0:0:0:0:
376,208,40944,6,0,L|379:180,3,25.3749992256165,2|2|2|2,0:0|0:0|0:0|0:0,0:0:0:0:
373,152,41286,2,0,L|364:94,1,50.749998451233,2|0,1:2|0:0,0:0:0:0:
288,40,41629,2,0,P|245:29|188:45,1,101.499996902466,2|8,0:0|0:0,0:0:0:0:
147,116,42144,2,0,L|134:219,1,101.499996902466,2|0,0:0|0:0,0:0:0:0:
121,311,42658,1,2,0:0:0:0:
268,276,43001,1,0,1:2:0:0:
268,276,43344,6,0,L|292:269,3,25.3749992256165,10|2|2|2,0:0|0:0|1:2|0:0,0:0:0:0:
321,260,43686,2,0,L|345:266,3,25.3749992256165,10|0|10|8,0:0|1:2|0:0|0:0,0:0:0:0:
375,259,44029,5,2,1:2:0:0:
329,352,44544,1,2,0:0:0:0:
284,174,45058,1,2,0:0:0:0:
134,216,45401,1,2,0:0:0:0:
134,216,46429,6,0,L|127:185,4,25.3749992256165,2|2|2|2|2,0:0|0:0|0:0|0:0|0:0,0:0:0:0:
152,329,47115,5,2,0:0:0:0:
226,252,47629,1,2,0:0:0:0:
50,246,48144,1,2,0:0:0:0:
217,148,48829,1,2,0:0:0:0:
217,148,49172,6,0,L|224:117,4,25.3749992256165,2|2|2|2|2,0:0|0:0|0:0|0:0|0:0,0:0:0:0:
306,264,50029,1,2,0:0:0:0:
128,191,50544,1,2,0:0:0:0:
311,83,50886,1,2,0:0:0:0:
311,83,51915,6,0,L|304:52,4,25.3749992256165,2|2|2|2|2,0:0|0:0|0:0|0:0|0:0,0:0:0:0:
256,192,52429,12,2,54315,0:0:0:0:
423,58,55001,6,0,L|436:118,1,54.3750020742417,4|2,1:2|0:0,0:0:0:0:
479,207,55344,2,0,L|467:260,1,54.3750020742417,10|2,0:0|0:0,0:0:0:0:
378,212,55686,2,0,P|350:207|267:252,1,108.750004148483,0|8,1:2|0:0,0:0:0:0:
199,183,56201,5,2,0:0:0:0:
199,183,56286,1,2,0:0:0:0:
199,183,56372,2,0,L|190:119,1,54.3750020742417,2|2,1:2|0:0,0:0:0:0:
135,50,56715,2,0,P|111:42|73:44,1,54.3750020742417,8|2,0:0|0:0,0:0:0:0:
29,128,57058,1,2,1:2:0:0:
29,128,57229,2,0,L|19:189,1,54.3750020742417,0|10,1:2|0:0,0:0:0:0:
39,285,57572,5,2,0:0:0:0:
39,285,57657,1,2,0:0:0:0:
39,285,57743,2,0,P|69:297|101:299,1,54.3750020742417,2|2,1:2|0:0,0:0:0:0:
184,245,58086,2,0,P|214:232|246:230,1,54.3750020742417,8|2,0:0|0:0,0:0:0:0:
312,270,58429,2,0,P|279:224|276:165,1,108.750004148483,2|10,1:2|0:0,0:0:0:0:
310,70,58944,5,2,0:0:0:0:
310,70,59029,1,2,0:0:0:0:
310,70,59115,2,0,P|340:57|372:55,1,54.3750020742417,2|2,1:2|0:0,0:0:0:0:
457,97,59458,2,0,P|470:127|472:159,1,54.3750020742417,8|2,0:0|1:2,0:0:0:0:
474,250,59801,1,2,0:0:0:0:
474,250,59972,2,0,L|410:261,1,54.3750020742417,0|10,1:2|0:0,0:0:0:0:
335,312,60315,5,2,0:0:0:0:
335,312,60400,1,2,0:0:0:0:
335,312,60486,2,0,L|273:298,1,54.3750020742417,2|2,1:2|0:0,0:0:0:0:
207,213,60829,2,0,L|193:151,1,54.3750020742417,8|2,0:0|0:0,0:0:0:0:
181,60,61172,2,0,P|140:35|80:42,1,108.750004148483,2|8,1:2|0:0,0:0:0:0:
27,136,61686,5,2,0:0:0:0:
27,136,61771,1,2,0:0:0:0:
27,136,61858,2,0,P|14:164|12:198,1,54.3750020742417,2|2,1:2|0:0,0:0:0:0:
39,283,62201,2,0,P|67:296|101:298,1,54.3750020742417,8|2,0:0|0:0,0:0:0:0:
184,249,62544,1,2,1:2:0:0:
184,249,62715,2,0,P|208:237|235:233,1,54.3750020742417,0|10,1:2|0:0,0:0:0:0:
337,277,63058,5,2,0:0:0:0:
337,277,63143,1,2,0:0:0:0:
337,277,63230,2,0,L|347:213,1,54.3750020742417,2|2,1:2|0:0,0:0:0:0:
410,138,63572,2,0,L|401:84,1,54.3750020742417,8|2,0:0|0:0,0:0:0:0:
311,119,63915,2,0,P|261:122|218:82,1,108.750004148483,2|10,1:2|0:0,0:0:0:0:
136,24,64429,5,2,0:0:0:0:
136,24,64514,1,2,0:0:0:0:
136,24,64601,2,0,P|108:25|83:34,1,54.3750020742417,2|2,1:2|0:0,0:0:0:0:
41,122,64944,2,0,L|32:175,1,54.3750020742417,8|2,0:0|1:2,0:0:0:0:
91,264,65286,1,2,0:0:0:0:
91,264,65458,2,0,L|99:317,1,54.3750020742417,0|10,1:2|0:0,0:0:0:0:
197,272,65801,5,2,0:0:0:0:
197,272,65886,1,2,0:0:0:0:
197,272,65973,2,0,P|221:259|247:255,1,54.3750020742417,6|2,1:2|0:0,0:0:0:0:
292,170,66315,2,0,P|314:184|331:205,1,54.3750020742417,8|2,0:0|0:0,0:0:0:0:
418,278,66658,2,0,L|431:162,1,108.750004148483,2|10,1:2|0:0,0:0:0:0:
434,65,67172,5,2,0:0:0:0:
434,65,67257,1,2,0:0:0:0:
434,65,67344,2,0,P|410:52|384:48,1,54.3750020742417,2|2,1:2|0:0,0:0:0:0:
285,88,67686,2,0,L|217:99,1,54.3750020742417,8|2,0:0|0:0,0:0:0:0:
139,61,68029,1,2,1:2:0:0:
139,61,68201,2,0,L|85:52,1,54.3750020742417,0|10,1:2|0:0,0:0:0:0:
96,155,68544,5,2,0:0:0:0:
96,155,68629,1,2,0:0:0:0:
96,155,68716,2,0,L|110:217,1,54.3750020742417,2|0,1:2|0:0,0:0:0:0:
163,279,69058,2,0,L|151:332,1,54.3750020742417,8|2,0:0|0:0,0:0:0:0:
245,315,69401,2,0,P|277:293|350:295,1,108.750004148483,2|10,1:2|0:0,0:0:0:0:
446,332,69915,5,2,0:0:0:0:
446,332,70000,1,2,0:0:0:0:
446,332,70087,2,0,P|459:304|461:270,1,54.3750020742417,2|2,1:2|0:0,0:0:0:0:
449,183,70429,2,0,B|422:171|422:171|389:177,1,54.3750020742417,8|2,0:0|1:2,0:0:0:0:
296,201,70772,1,2,0:0:0:0:
296,201,70944,2,0,B|271:205|271:205|244:193,1,54.3750020742417,0|10,1:2|0:0,0:0:0:0:
176,109,71286,5,2,0:0:0:0:
176,109,71371,1,2,0:0:0:0:
176,109,71458,2,0,L|166:42,1,65.2499980087281,6|2,1:2|0:0,0:0:0:0:
64,146,71801,1,8,0:0:0:0:
64,146,71972,1,2,0:0:0:0:
31,249,72144,6,0,B|66:260|95:249|95:249|114:278|162:290,1,130.499996017456,2|10,1:2|0:0,0:0:0:0:
189,183,72658,5,2,0:0:0:0:
189,183,72744,1,2,0:0:0:0:
189,183,72829,2,0,P|228:168|253:168,1,65.2499980087281,2|2,1:2|0:0,0:0:0:0:
295,85,73172,2,0,P|327:111|339:132,1,65.2499980087281,8|2,0:0|0:0,0:0:0:0:
374,229,73515,1,2,1:2:0:0:
374,229,73686,2,0,L|383:293,1,65.2499980087281,0|10,1:2|0:0,0:0:0:0:
475,242,74029,5,2,0:0:0:0:
475,242,74115,1,2,0:0:0:0:
475,242,74200,2,0,L|489:162,1,65.2499980087281,2|2,1:2|0:0,0:0:0:0:
443,67,74544,1,8,0:0:0:0:
443,67,74715,1,2,0:0:0:0:
338,131,74886,6,0,B|272:147|272:147|208:111,1,130.499996017456,2|10,1:2|0:0,0:0:0:0:
149,47,75401,1,2,0:0:0:0:
74,128,75572,6,0,L|67:163,3,32.624999004364,2|2|2|2,1:2|0:0|0:0|0:0,0:0:0:0:
90,187,75915,2,0,L|97:222,3,32.624999004364,10|2|0|2,0:0|0:0|1:2|0:0,0:0:0:0:
76,251,76258,2,0,L|69:286,3,32.624999004364,2|2|2|2,0:0|0:0|1:2|0:0,0:0:0:0:
86,319,76601,5,10,0:0:0:0:
86,319,76686,1,0,1:2:0:0:
86,319,76772,1,2,0:0:0:0:
86,319,76858,1,2,0:0:0:0:
86,319,76944,1,4,0:0:0:0:
206,195,78315,6,0,L|271:182,1,54.3750020742417,4|2,1:2|0:0,0:0:0:0:
342,241,78658,2,0,L|395:251,1,54.3750020742417,8|2,0:0|0:0,0:0:0:0:
482,184,79001,1,2,1:2:0:0:
482,184,79172,2,0,L|490:122,1,54.3750020742417,0|10,1:2|0:0,0:0:0:0:
483,34,79515,5,2,0:0:0:0:
483,34,79601,1,2,0:0:0:0:
483,34,79686,2,0,P|448:21|431:23,1,54.3750020742417,2|2,1:2|0:0,0:0:0:0:
347,79,80029,2,0,P|312:92|295:90,1,54.3750020742417,8|2,0:0|0:0,0:0:0:0:
215,35,80372,2,0,P|168:20|104:41,1,108.750004148483,2|10,1:2|0:0,0:0:0:0:
67,126,80886,5,2,0:0:0:0:
67,126,80971,1,2,0:0:0:0:
67,126,81058,2,0,L|73:179,1,54.3750020742417,2|2,1:2|0:0,0:0:0:0:
98,280,81401,2,0,P|126:291|156:290,1,54.3750020742417,8|2,0:0|1:2,0:0:0:0:
229,215,81744,1,2,0:0:0:0:
229,215,81915,2,0,P|257:204|287:205,1,54.3750020742417,0|10,1:2|0:0,0:0:0:0:
363,269,82258,5,2,0:0:0:0:
363,269,82343,1,2,0:0:0:0:
363,269,82430,2,0,L|369:322,1,54.3750020742417,2|2,1:2|0:0,0:0:0:0:
455,284,82772,2,0,L|461:230,1,54.3750020742417,8|2,0:0|0:0,0:0:0:0:
439,126,83115,2,0,L|318:104,1,108.750004148483,2|10,1:2|0:0,0:0:0:0:
232,89,83629,5,2,0:0:0:0:
232,89,83715,1,2,0:0:0:0:
232,89,83801,2,0,P|218:59|216:30,1,54.3750020742417,2|2,1:2|0:0,0:0:0:0:
332,106,84144,2,0,P|327:132|315:156,1,54.3750020742417,8|2,0:0|0:0,0:0:0:0:
219,225,84486,1,2,1:2:0:0:
219,225,84658,2,0,L|149:235,1,54.3750020742417,0|10,1:2|0:0,0:0:0:0:
59,238,85001,5,2,0:0:0:0:
59,238,85087,1,2,0:0:0:0:
59,238,85173,2,0,L|43:179,1,54.3750020742417,2|2,1:2|0:0,0:0:0:0:
165,232,85515,2,0,L|150:284,1,54.3750020742417,8|2,0:0|0:0,0:0:0:0:
125,355,85858,2,0,P|162:323|227:336,1,108.750004148483,2|10,1:2|0:0,0:0:0:0:
317,358,86372,5,2,0:0:0:0:
317,358,86458,1,2,0:0:0:0:
317,358,86544,2,0,P|331:328|333:299,1,54.3750020742417,2|2,1:2|0:0,0:0:0:0:
415,266,86886,2,0,P|396:238|371:222,1,54.3750020742417,8|2,0:0|1:2,0:0:0:0:
286,184,87229,1,2,0:0:0:0:
286,184,87401,2,0,L|232:176,1,54.3750020742417,0|10,1:2|0:0,0:0:0:0:
122,147,87744,5,2,0:0:0:0:
122,147,87830,1,2,0:0:0:0:
122,147,87916,2,0,P|107:119|106:88,1,54.3750020742417,6|0,1:2|0:0,0:0:0:0:
180,33,88258,2,0,P|208:18|239:17,1,54.3750020742417,8|2,0:0|0:0,0:0:0:0:
306,72,88601,2,0,P|357:98|406:82,1,108.750004148483,2|10,1:2|0:0,0:0:0:0:
477,25,89115,5,2,0:0:0:0:
477,25,89201,1,2,0:0:0:0:
477,25,89287,2,0,P|491:55|493:84,1,54.3750020742417,2|2,1:2|0:0,0:0:0:0:
458,172,89629,2,0,L|447:238,1,54.3750020742417,8|2,0:0|0:0,0:0:0:0:
427,325,89972,1,2,1:2:0:0:
427,325,90144,2,0,L|369:334,1,54.3750020742417,0|10,1:2|0:0,0:0:0:0:
279,286,90486,5,2,0:0:0:0:
279,286,90572,1,2,0:0:0:0:
279,286,90658,2,0,L|225:277,1,54.3750020742417,2|2,1:2|0:0,0:0:0:0:
131,271,91001,2,0,B|113:295|113:295|110:327,1,54.3750020742417,8|2,0:0|0:0,0:0:0:0:
30,355,91344,2,0,L|16:239,1,108.750004148483,2|10,1:2|0:0,0:0:0:0:
23,147,91858,5,2,0:0:0:0:
23,147,91944,1,2,0:0:0:0:
23,147,92030,2,0,P|53:133|82:130,1,54.3750020742417,2|2,1:2|0:0,0:0:0:0:
113,49,92372,2,0,P|140:67|156:92,1,54.3750020742417,8|2,0:0|1:2,0:0:0:0:
187,184,92715,1,2,0:0:0:0:
187,184,92886,2,0,L|179:247,1,54.3750020742417,0|10,1:2|0:0,0:0:0:0:
183,339,93229,5,2,0:0:0:0:
183,339,93315,1,2,0:0:0:0:
183,339,93401,2,0,P|218:352|254:348,1,65.2499980087281,6|2,1:2|0:0,0:0:0:0:
313,272,93744,2,0,P|348:259|384:263,1,65.2499980087281,8|2,0:0|0:0,0:0:0:0:
444,324,94086,2,0,P|412:281|423:204,1,130.499996017456,2|10,1:2|0:0,0:0:0:0:
477,123,94601,5,2,0:0:0:0:
477,123,94686,1,2,0:0:0:0:
477,123,94772,2,0,P|489:89|483:48,1,65.2499980087281,2|2,1:2|0:0,0:0:0:0:
392,20,95115,2,0,L|327:14,1,65.2499980087281,8|2,0:0|0:0,0:0:0:0:
254,85,95458,1,2,1:2:0:0:
254,85,95629,2,0,L|189:91,1,65.2499980087281,0|8,1:2|0:0,0:0:0:0:
95,26,95972,5,2,0:0:0:0:
95,26,96058,1,2,0:0:0:0:
95,26,96144,2,0,P|62:22|31:32,1,65.2499980087281,2|2,1:2|0:0,0:0:0:0:
14,141,96486,2,0,B|16:174|16:174|39:208,1,65.2499980087281,8|2,0:0|0:0,0:0:0:0:
63,294,96829,2,0,B|97:280|112:254|112:254|149:245|187:255,1,130.499996017456,2|10,1:2|0:0,0:0:0:0:
268,316,97344,1,2,0:0:0:0:
358,261,97515,6,0,L|364:219,3,32.624999004364,2|2|2|2,1:2|0:0|0:0|0:0,0:0:0:0:
339,202,97858,2,0,L|334:169,3,32.624999004364,8|2|0|2,0:0|0:0|1:2|0:0,0:0:0:0:
352,141,98201,2,0,L|356:108,3,32.624999004364,2|2|0|2,0:0|0:0|1:2|0:0,0:0:0:0:
341,74,98544,5,8,0:0:0:0:
341,74,98629,1,0,1:2:0:0:
341,74,98715,1,2,0:0:0:0:
341,74,98801,1,2,0:0:0:0:
341,74,98886,1,6,0:0:0:0:
