osu file format v14

[General]
AudioFilename: audio.mp3
AudioLeadIn: 0
PreviewTime: 54229
Countdown: 0
SampleSet: Soft
StackLeniency: 0.4
Mode: 0
LetterboxInBreaks: 0
WidescreenStoryboard: 1

[Editor]
DistanceSpacing: 1
BeatDivisor: 4
GridSize: 32
TimelineZoom: 1

[Metadata]
Title:Tower Of Heaven (You Are Slaves) (Cut Ver.)
TitleUnicode:Tower Of Heaven (You Are Slaves) (Cut Ver.)
Artist:Feint
ArtistUnicode:Feint
Creator:Strategas
Version:Easy
Source:
Tags:dnb drum and & bass electronic instrumental edm 8bit fa featured artist simple streams 3 vanila longstream deathstream kisaragi 如月 228 evth aye1337 dixaway tutis cbh Come[Back]Home mpg mappers' guild
BeatmapID:4283379
BeatmapSetID:1991315

[Difficulty]
HPDrainRate:2
CircleSize:2.5
OverallDifficulty:2
ApproachRate:3
SliderMultiplier:1
SliderTickRate:1

[Events]
//Background and Video events
0,0,"00061.png",0,0
//Break Periods
//Storyboard Layer 0 (Background)
//Storyboard Layer 1 (Fail)
//Storyboard Layer 2 (Pass)
//Storyboard Layer 3 (Foreground)
//Storyboard Layer 4 (Overlay)
//Storyboard Sound Samples

[TimingPoints]
144,342.857142857143,4,2,0,100,1,0
11115,-111.111111111111,4,2,25,65,0,0
22086,-100,4,2,25,70,0,0
44029,-125,4,2,25,60,0,0
55001,-90.9090909090909,4,2,25,75,0,1
71458,-90.9090909090909,4,2,25,80,0,1
75572,-90.9090909090909,4,2,25,85,0,1
76944,-100,4,2,25,70,0,0
78315,-90.9090909090909,4,2,25,75,0,1
93401,-90.9090909090909,4,2,25,80,0,1
97515,-90.9090909090909,4,2,25,85,0,1
98886,-90.9090909090909,4,2,25,85,0,0

[Colours]
Combo1 : 79,141,171
Combo2 : 209,230,244

[HitObjects]
240,120,11115,6,0,P|317:88|380:115,2,134.999995880127,4|2|2,0:1|0:0|0:0,0:0:0:0:
191,195,12486,1,2,0:0:0:0:
460,207,13515,6,0,B|474:247|474:247|461:292,1,89.9999972534181,2|2,0:0|0:0,0:0:0:0:
375,320,14201,2,0,P|298:288|235:315,2,134.999995880127,2|2|2,0:0|0:0|0:0,0:0:0:0:
492,183,15915,1,2,0:0:0:0:
446,105,16258,6,0,B|400:92|400:92|360:106,1,89.9999972534181,2|2,0:0|0:0,0:0:0:0:
264,201,17115,2,0,P|187:233|124:206,1,134.999995880127,2|2,0:0|0:0,0:0:0:0:
82,149,17972,1,2,0:0:0:0:
351,154,19001,6,0,B|363:199|363:199|349:239,1,89.9999972534181,2|2,0:0|0:0,0:0:0:0:
313,322,19686,1,2,0:0:0:0:
177,316,20201,1,2,0:0:0:0:
41,310,20715,1,2,0:0:0:0:
92,137,21401,2,0,B|137:124|137:124|177:138,1,89.9999972534181,2|2,0:0|0:0,0:0:0:0:
263,189,22086,6,0,L|477:173,2,200,4|8|2,1:2|0:0|0:0,0:0:0:0:
189,256,23801,1,0,1:0:0:0:
102,205,24144,2,0,L|-4:213,1,100,8|2,0:0|0:0,0:0:0:0:
2,312,24829,5,0,1:0:0:0:
189,256,25515,2,0,B|346:193|324:305|479:256,1,300,8|0,0:0|1:0,0:0:0:0:
505,159,26886,2,0,P|513:108|484:59,1,100,10|2,0:0|0:0,0:0:0:0:
404,16,27572,5,0,1:0:0:0:
319,197,28258,2,0,B|222:225|222:225|120:190,1,200,8|2,0:0|0:0,0:0:0:0:
33,161,29286,1,0,1:0:0:0:
58,64,29629,1,8,0:0:0:0:
254,25,30315,6,0,P|321:14|420:101,2,200,2|8|2,1:2|0:0|0:0,0:0:0:0:
179,92,32029,1,0,1:0:0:0:
233,175,32372,2,0,B|247:225|247:225|231:270,1,100,10|10,0:0|0:0,0:0:0:0:
184,358,33058,5,4,1:2:0:0:
383,348,33744,1,8,0:0:0:0:
402,48,34772,1,0,1:0:0:0:
310,7,35115,2,0,L|204:15,1,100,8|2,0:0|0:0,0:0:0:0:
122,63,35801,5,0,1:0:0:0:
27,239,36486,2,0,B|184:302|162:190|317:239,1,300,8|0,0:0|1:0,0:0:0:0:
406,285,37858,2,0,P|414:336|385:385,1,100,10|2,0:0|0:0,0:0:0:0:
292,383,38544,5,0,1:0:0:0:
95,345,39229,2,0,B|66:248|66:248|101:146,1,200,8|2,0:0|0:0,0:0:0:0:
145,66,40258,1,0,1:0:0:0:
240,96,40601,1,8,0:0:0:0:
337,270,41286,6,0,P|404:280|503:193,2,200,2|8|2,1:2|0:0|0:0,0:0:0:0:
266,199,43001,1,0,1:0:0:0:
297,103,43344,2,0,B|347:88|347:88|392:104,1,100,10|10,0:0|0:0,0:0:0:0:
461,158,44029,5,2,1:2:0:0:
461,158,45401,1,2,0:0:0:0:
110,188,46772,5,2,0:0:0:0:
110,188,48144,1,2,0:0:0:0:
327,20,49515,6,0,B|394:187|274:164|327:329,1,320,2|2,0:0|0:0,0:0:0:0:
151,340,52258,6,0,B|218:172|98:195|151:30,1,320,2|0,0:0|0:0,0:0:0:0:
492,230,55001,6,0,P|442:252|373:239,1,110.000003356934,6|8,1:2|0:0,0:0:0:0:
304,176,55686,2,0,P|250:171|201:193,1,110.000003356934,2|10,1:2|0:0,0:0:0:0:
133,281,56372,1,2,1:2:0:0:
32,236,56715,1,8,0:0:0:0:
2,130,57058,2,0,L|4:75,2,55.0000016784668,2|2|10,1:2|1:2|0:0,0:0:0:0:
105,91,57744,6,0,B|154:74|154:74|216:88,1,110.000003356934,2|8,1:2|0:0,0:0:0:0:
430,99,58772,1,10,0:0:0:0:
437,209,59115,2,0,L|432:337,1,110.000003356934,2|8,1:2|0:0,0:0:0:0:
390,353,59629,2,0,L|261:348,1,110.000003356934,2|2,1:2|1:2,0:0:0:0:
224,349,60144,1,10,0:0:0:0:
114,361,60486,6,0,B|67:245|150:260|114:147,1,220.000006713867,6|2,1:2|1:2,0:0:0:0:
47,59,61515,1,10,0:0:0:0:
146,11,61858,2,0,P|200:6|249:28,1,110.000003356934,2|8,1:2|0:0,0:0:0:0:
340,90,62544,2,0,L|395:92,2,55.0000016784668,2|2|10,1:2|1:2|0:0,0:0:0:0:
262,168,63229,5,0,1:0:0:0:
43,139,63915,2,0,B|30:195|30:195|47:244,1,110.000003356934,2|10,1:2|0:0,0:0:0:0:
113,332,64601,2,0,L|241:336,1,110.000003356934,2|8,1:2|0:0,0:0:0:0:
272,310,65115,2,0,L|400:314,1,110.000003356934,2|2,1:2|1:2,0:0:0:0:
431,339,65629,1,10,0:0:0:0:
480,240,65972,5,6,1:2:0:0:
424,144,66315,2,0,P|401:94|406:40,2,110.000003356934,8|2|10,0:0|1:2|0:0,0:0:0:0:
329,201,67344,1,2,1:2:0:0:
223,171,67686,1,8,0:0:0:0:
168,75,68029,2,0,L|170:20,2,55.0000016784668,2|2|10,1:2|1:2|0:0,0:0:0:0:
64,114,68715,6,0,B|51:171|51:171|68:220,1,110.000003356934,2|8,1:2|0:0,0:0:0:0:
241,355,69744,1,10,0:0:0:0:
306,266,70086,2,0,L|310:138,1,110.000003356934,2|8,1:2|0:0,0:0:0:0:
288,104,70601,2,0,L|416:99,1,110.000003356934,2|2,1:2|1:2,0:0:0:0:
450,116,71115,1,10,0:0:0:0:
493,217,71458,5,6,1:2:0:0:
456,320,71801,1,8,0:0:0:0:
352,281,72144,2,0,P|298:276|249:298,1,110.000003356934,2|10,1:2|0:0,0:0:0:0:
152,353,72829,1,2,1:2:0:0:
69,279,73172,1,8,0:0:0:0:
94,171,73515,2,0,L|96:116,2,55.0000016784668,2|2|10,1:2|1:2|0:0,0:0:0:0:
194,217,74201,5,2,1:2:0:0:
295,175,74544,1,8,0:0:0:0:
396,217,74886,1,2,1:2:0:0:
497,175,75229,1,10,0:0:0:0:
256,192,75572,12,4,76944,0:0:0:0:
239,368,78315,6,0,P|261:318|247:249,1,110.000003356934,2|8,1:2|0:0,0:0:0:0:
250,156,79001,2,0,L|195:154,2,55.0000016784668,2|2|10,1:2|1:2|0:0,0:0:0:0:
355,185,79686,6,0,B|404:202|404:202|466:188,1,110.000003356934,0|8,1:2|0:0,0:0:0:0:
330,12,80715,1,10,0:0:0:0:
213,4,81058,2,0,L|84:8,1,110.000003356934,2|8,1:2|0:0,0:0:0:0:
69,44,81572,2,0,L|73:172,1,110.000003356934,2|2,1:2|1:2,0:0:0:0:
73,210,82086,1,10,0:0:0:0:
140,296,82429,6,0,B|255:342|240:259|353:296,1,220.000006713867,6|2,1:2|1:2,0:0:0:0:
442,363,83458,1,10,0:0:0:0:
490,264,83801,2,0,P|494:209|472:160,1,110.000003356934,2|8,1:2|0:0,0:0:0:0:
411,70,84486,2,0,L|409:15,2,55.0000016784668,2|2|10,1:2|1:2|0:0,0:0:0:0:
341,155,85172,5,0,1:0:0:0:
170,16,85858,2,0,B|113:3|113:3|64:20,1,110.000003356934,2|10,1:2|0:0,0:0:0:0:
23,122,86544,2,0,L|18:250,1,110.000003356934,2|8,1:2|0:0,0:0:0:0:
51,276,87058,2,0,L|179:280,1,110.000003356934,2|2,1:2|1:2,0:0:0:0:
216,282,87572,1,10,0:0:0:0:
292,202,87915,5,6,1:2:0:0:
362,117,88258,2,0,P|411:94|465:99,2,110.000003356934,8|2|10,0:0|1:2|0:0,0:0:0:0:
270,55,89286,1,2,1:2:0:0:
161,39,89629,1,8,0:0:0:0:
78,112,89972,2,0,L|23:110,2,55.0000016784668,2|2|10,1:2|1:2|0:0,0:0:0:0:
124,212,90658,6,0,B|107:261|107:261|120:317,1,110.000003356934,2|8,1:2|0:0,0:0:0:0:
340,267,91686,1,10,0:0:0:0:
318,159,92029,2,0,L|189:155,1,110.000003356934,2|8,1:2|0:0,0:0:0:0:
202,100,92544,2,0,L|73:95,1,110.000003356934,2|2,1:2|1:2,0:0:0:0:
41,120,93058,1,10,0:0:0:0:
0,221,93401,5,6,1:2:0:0:
37,324,93744,1,8,0:0:0:0:
141,285,94086,2,0,P|195:280|244:302,1,110.000003356934,2|10,1:2|0:0,0:0:0:0:
337,363,94772,1,2,1:2:0:0:
405,275,95115,1,8,0:0:0:0:
375,168,95458,2,0,L|373:113,2,55.0000016784668,2|2|10,1:2|1:2|0:0,0:0:0:0:
276,218,96144,5,2,1:2:0:0:
172,255,96486,1,8,0:0:0:0:
68,218,96829,1,2,1:2:0:0:
31,114,97172,1,10,0:0:0:0:
256,192,97515,12,4,98886,1:0:0:0:
