osu file format v14

[General]
AudioFilename: audio.mp3
AudioLeadIn: 0
PreviewTime: 54229
Countdown: 0
SampleSet: Soft
StackLeniency: 0.4
Mode: 0
LetterboxInBreaks: 0
WidescreenStoryboard: 1

[Editor]
Bookmarks: 33058
DistanceSpacing: 1.07
BeatDivisor: 4
GridSize: 32
TimelineZoom: 2.3

[Metadata]
Title:Tower Of Heaven (You Are Slaves) (Cut Ver.)
TitleUnicode:Tower Of Heaven (You Are Slaves) (Cut Ver.)
Artist:Feint
ArtistUnicode:Feint
Creator:Strategas
Version:DixAway's Extra
Source:
Tags:dnb drum and & bass electronic instrumental edm 8bit fa featured artist simple streams 3 vanila longstream deathstream kisaragi 如月 228 evth aye1337 dixaway tutis cbh Come[Back]Home mpg mappers' guild
BeatmapID:4139556
BeatmapSetID:1991315

[Difficulty]
HPDrainRate:4.5
CircleSize:4
OverallDifficulty:8.5
ApproachRate:9.3
SliderMultiplier:1.7
SliderTickRate:1

[Events]
//Background and Video events
0,0,"00061.png",0,0
//Break Periods
//Storyboard Layer 0 (Background)
//Storyboard Layer 1 (Fail)
//Storyboard Layer 2 (Pass)
//Storyboard Layer 3 (Foreground)
//Storyboard Layer 4 (Overlay)
//Storyboard Sound Samples

[TimingPoints]
144,342.857142857143,4,2,25,55,1,0
144,-153.846153846153,4,2,25,55,0,0
2886,-222.222222222221,4,2,25,55,0,0
5629,-153.846153846153,4,2,25,55,0,0
11115,-153.846153846154,4,2,25,65,0,0
22086,-100,4,2,25,70,0,0
44029,-166.666666666667,4,2,25,60,0,0
55001,-83.3333333333333,4,2,25,75,0,1
71458,-83.3333333333333,4,2,25,80,0,1
75572,-83.3333333333333,4,2,25,85,0,1
76944,-100,4,2,25,70,0,0
78315,-83.3333333333333,4,2,25,75,0,1
93401,-83.3333333333333,4,2,25,80,0,1
97515,-83.3333333333333,4,2,25,85,0,1
98886,-83.3333333333333,4,2,25,85,0,0

[Colours]
Combo1 : 79,141,171
Combo2 : 209,230,244

[HitObjects]
450,62,144,6,0,P|423:69|388:105,1,55.2499974708558,2|0,0:0|0:0,0:0:0:0:
350,175,486,2,0,P|387:196|409:255,1,82.8749962062838,2|0,0:0|0:0,0:0:0:0:
447,344,829,1,2,0:0:0:0:
447,344,1001,2,0,P|411:335|370:327,1,55.2499974708558,2|0,0:0|0:0,0:0:0:0:
317,283,1344,6,0,B|265:284|255:331|255:331|224:367|183:355,1,165.749992412568,2|2,0:0|0:0,0:0:0:0:
82,299,2201,2,0,P|57:238|27:185,1,110.499994941712,2|2,0:0|0:0,0:0:0:0:
183,43,2886,2,0,P|157:79|156:121,2,76.4999976654053,0|2|2,0:0|0:0|0:0,0:0:0:0:
243,114,3915,1,0,0:0:0:0:
180,192,4258,2,0,P|142:199|106:213,1,76.4999976654053,0|2,0:0|0:0,0:0:0:0:
53,315,4944,2,0,P|90:322|126:336,1,76.4999976654053,2|0,0:0|0:0,0:0:0:0:
254,282,5629,6,0,P|254:241|271:219,1,55.2499974708558,2|0,0:0|0:0,0:0:0:0:
351,175,5972,2,0,P|393:183|438:192,1,82.8749962062838,2|0,0:0|0:0,0:0:0:0:
508,76,6315,1,2,0:0:0:0:
508,76,6486,2,0,L|434:95,1,55.2499974708558,2|0,0:0|0:0,0:0:0:0:
294,46,6829,6,0,B|286:25|263:13|263:13|286:2|327:16|340:70|329:101,1,165.749992412568,2|2,0:0|0:0,0:0:0:0:
232,186,7686,2,0,P|199:190|119:205,1,110.499994941712,2|2,0:0|0:0,0:0:0:0:
256,192,8372,12,0,10944,0:0:0:0:
93,66,11115,6,0,P|176:64|192:148,2,165.749992412568,4|2|2,0:1|0:0|0:0,0:0:0:0:
137,206,12486,1,2,0:0:0:0:
137,206,12829,2,0,P|194:223|253:242,1,110.499994941712,0|0,0:0|0:0,0:0:0:0:
326,323,13515,5,2,0:0:0:0:
341,331,13601,1,2,0:0:0:0:
358,327,13686,1,2,0:0:0:0:
373,317,13772,1,2,0:0:0:0:
381,301,13858,2,0,B|375:290|362:288|362:288|341:192,1,110.499994941712,2|2,0:0|0:0,0:0:0:0:
394,78,14715,1,2,0:0:0:0:
394,78,15229,6,0,B|369:54|327:58|299:96|299:96|291:97|291:97|292:141|264:170|225:168,1,220.999989883423,2|2,0:0|0:0,0:0:0:0:
102,34,16258,1,2,0:0:0:0:
117,45,16344,1,2,0:0:0:0:
125,61,16429,1,2,0:0:0:0:
123,78,16515,1,2,0:0:0:0:
117,93,16601,6,0,B|95:117|64:113|64:113|16:133|8:174|24:220,2,165.749992412568,2|2|2,0:0|0:0|0:0,0:0:0:0:
93,265,17972,1,2,0:0:0:0:
93,265,18315,2,0,P|151:249|204:237,1,110.499994941712,0|0,0:0|0:0,0:0:0:0:
439,235,19001,5,2,0:0:0:0:
454,241,19086,1,2,0:0:0:0:
462,255,19172,1,2,0:0:0:0:
464,271,19258,1,2,0:0:0:0:
460,287,19344,6,0,P|418:266|342:271,1,110.499994941712,2|2,0:0|0:0,0:0:0:0:
252,362,20201,1,2,0:0:0:0:
252,362,20715,6,0,P|238:290|216:187,1,165.749992412568,2|0,0:0|0:0,0:0:0:0:
346,49,21401,1,2,0:0:0:0:
361,44,21486,1,2,0:0:0:0:
377,39,21572,1,2,0:0:0:0:
392,34,21658,1,2,0:0:0:0:
408,31,21744,2,0,P|431:53|428:86,1,55.2499974708558,2|2,0:0|0:0,0:0:0:0:
336,196,22086,6,0,B|332:179|288:167|257:178|257:178|294:145|340:142|375:169|398:205,1,255,4|2,1:2|0:0,0:0:0:0:
380,298,22772,2,0,P|302:317|213:342,1,170,8|2,0:0|0:0,0:0:0:0:
121,384,23286,1,0,0:0:0:0:
34,346,23458,6,0,P|19:304|-1:267,1,85,2|0,0:0|0:0,0:0:0:0:
166,203,23801,2,0,P|179:162|199:125,1,85,0|0,1:0|0:0,0:0:0:0:
18,27,24144,2,0,P|48:64|52:104,1,85,8|0,0:0|0:0,0:0:0:0:
26,260,24486,1,2,0:0:0:0:
13,237,24572,1,2,0:0:0:0:
13,211,24658,1,2,0:0:0:0:
24,188,24744,1,2,0:0:0:0:
43,172,24829,6,0,P|115:182|222:203,1,170,0|2,1:0|0:0,0:0:0:0:
253,291,25344,1,0,0:0:0:0:
372,330,25515,1,8,0:0:0:0:
466,220,25686,2,0,P|387:235|342:168,1,170,2|0,0:0|0:0,0:0:0:0:
367,63,26201,6,0,P|321:72|188:106,1,170,2|0,0:0|1:0,0:0:0:0:
71,64,26715,1,0,0:0:0:0:
2,224,26886,2,0,P|38:196|87:194,1,85,10|0,0:0|1:0,0:0:0:0:
258,309,27229,1,2,0:0:0:0:
237,294,27315,1,2,0:0:0:0:
231,268,27401,1,2,0:0:0:0:
241,245,27486,1,2,0:0:0:0:
263,226,27572,6,0,B|305:207|351:233|321:270|359:294|410:282,1,170,0|0,1:0|0:0,0:0:0:0:
456,211,28086,1,2,0:0:0:0:
456,211,28258,2,0,P|439:160|405:40,1,170,8|2,0:0|0:0,0:0:0:0:
301,32,28772,5,0,0:0:0:0:
301,32,28944,2,0,P|273:72|223:78,1,85,2|0,0:0|0:0,0:0:0:0:
83,27,29286,2,0,P|130:41|163:101,1,85,0|0,1:0|0:0,0:0:0:0:
183,227,29629,2,0,P|168:172|208:134,1,85,8|0,0:0|0:0,0:0:0:0:
305,69,29972,1,2,0:0:0:0:
328,78,30058,1,2,0:0:0:0:
347,94,30144,1,2,0:0:0:0:
359,115,30229,1,2,0:0:0:0:
369,138,30315,6,0,B|363:157|344:170|344:170|314:207|305:234|302:304,1,170,2|2,1:2|0:0,0:0:0:0:
401,361,30829,1,0,0:0:0:0:
401,361,31001,2,0,P|442:349|483:342,1,85,8|2,0:0|0:0,0:0:0:0:
377,223,31344,2,0,P|335:215|294:204,1,85,0|2,0:0|0:0,0:0:0:0:
142,80,31686,6,0,P|196:114|204:176,1,127.5,2|0,0:0|0:0,0:0:0:0:
166,243,32029,2,0,P|144:267|138:327,1,85,0|0,1:0|0:0,0:0:0:0:
224,382,32372,5,10,0:0:0:0:
240,379,32458,1,2,0:0:0:0:
256,376,32544,1,2,1:2:0:0:
272,373,32629,1,2,0:0:0:0:
310,336,32715,5,10,0:0:0:0:
343,341,32801,1,0,1:0:0:0:
376,345,32886,1,10,0:0:0:0:
409,352,32972,1,8,0:0:0:0:
462,315,33058,6,0,B|478:306|501:306|501:306|497:248|467:213|401:203|362:223|347:251,1,255,4|2,1:2|0:0,0:0:0:0:
257,374,33744,2,0,P|229:293|189:218,1,170,8|2,0:0|0:0,0:0:0:0:
239,29,34258,1,0,0:0:0:0:
367,122,34429,2,0,P|330:163|324:200,1,85,2|0,0:0|0:0,0:0:0:0:
177,123,34772,1,0,1:0:0:0:
155,96,34858,1,0,0:0:0:0:
121,89,34944,1,0,0:0:0:0:
40,183,35115,2,0,P|69:218|82:257,1,85,8|0,0:0|0:0,0:0:0:0:
321,332,35458,1,2,0:0:0:0:
292,351,35544,1,2,0:0:0:0:
258,347,35629,1,2,0:0:0:0:
234,322,35715,1,2,0:0:0:0:
230,288,35801,6,0,P|270:247|340:251,1,127.5,0|0,1:0|0:0,0:0:0:0:
409,301,36144,2,0,L|389:393,1,85,2|0,0:0|0:0,0:0:0:0:
491,192,36486,1,8,0:0:0:0:
306,122,36658,2,0,B|285:122|253:125|253:202|328:199|357:175|383:121,1,170,2|0,0:0|0:0,0:0:0:0:
480,22,37172,6,0,P|464:64|451:107,1,85,2|0,0:0|0:0,0:0:0:0:
446,299,37515,1,0,1:0:0:0:
451,319,37601,1,0,0:0:0:0:
457,338,37686,1,0,0:0:0:0:
372,222,37858,2,0,P|330:207|276:226,1,85,10|0,0:0|1:0,0:0:0:0:
190,293,38201,1,2,0:0:0:0:
169,297,38286,1,2,0:0:0:0:
154,312,38372,1,2,0:0:0:0:
144,331,38458,1,2,0:0:0:0:
139,356,38544,6,0,P|109:261|74:182,1,170,0|0,1:0|0:0,0:0:0:0:
197,42,39058,1,2,0:0:0:0:
197,42,39229,2,0,P|217:83|272:207,1,170,8|2,0:0|0:0,0:0:0:0:
258,348,39744,1,0,0:0:0:0:
258,348,39915,6,0,P|292:317|350:308,1,85,2|0,0:0|0:0,0:0:0:0:
407,362,40258,1,0,1:0:0:0:
404,372,40343,1,0,0:0:0:0:
402,384,40429,1,0,0:0:0:0:
461,280,40601,2,0,P|450:237|443:196,1,85,8|0,0:0|0:0,0:0:0:0:
353,6,40944,1,2,0:0:0:0:
380,10,41029,1,2,0:0:0:0:
402,29,41115,1,2,0:0:0:0:
414,56,41201,1,2,0:0:0:0:
406,84,41286,6,0,P|345:112|317:185,1,127.5,2|0,1:2|0:0,0:0:0:0:
357,248,41629,2,0,P|389:269|416:330,1,85,2|0,0:0|0:0,0:0:0:0:
482,158,41972,1,8,0:0:0:0:
482,158,42144,2,0,L|388:181,1,85,2|0,0:0|0:0,0:0:0:0:
293,291,42486,1,2,0:0:0:0:
213,351,42658,6,0,P|163:339|119:331,1,85,2|0,0:0|0:0,0:0:0:0:
56,248,43001,1,0,1:0:0:0:
54,233,43087,1,0,0:0:0:0:
56,218,43172,1,0,0:0:0:0:
156,88,43344,5,10,0:0:0:0:
183,76,43429,1,2,0:0:0:0:
212,82,43515,1,2,1:2:0:0:
225,108,43601,1,2,0:0:0:0:
256,136,43686,5,10,0:0:0:0:
301,145,43772,1,0,1:0:0:0:
344,127,43858,1,10,0:0:0:0:
354,76,43944,1,8,0:0:0:0:
317,30,44029,5,2,1:2:0:0:
181,169,44544,1,2,0:0:0:0:
331,273,45058,1,2,0:0:0:0:
272,354,45401,5,2,0:0:0:0:
201,215,46429,1,2,0:0:0:0:
180,219,46515,1,2,0:0:0:0:
159,222,46601,1,2,0:0:0:0:
139,225,46686,1,2,0:0:0:0:
118,227,46772,5,2,0:0:0:0:
225,314,47115,1,2,0:0:0:0:
341,145,47629,1,2,0:0:0:0:
444,226,48144,5,2,0:0:0:0:
389,55,48829,1,2,0:0:0:0:
174,121,49172,1,2,0:0:0:0:
155,128,49258,1,2,0:0:0:0:
136,135,49344,1,2,0:0:0:0:
117,143,49429,1,2,0:0:0:0:
97,150,49515,5,2,0:0:0:0:
189,39,50029,1,2,0:0:0:0:
305,155,50544,1,2,0:0:0:0:
213,255,50886,5,2,0:0:0:0:
293,323,51915,1,2,0:0:0:0:
312,328,52001,1,2,0:0:0:0:
331,333,52086,1,2,0:0:0:0:
350,337,52172,1,2,0:0:0:0:
369,342,52258,5,2,0:0:0:0:
256,192,52344,12,0,54229,0:0:0:0:
238,30,54315,5,2,0:0:0:0:
234,49,54401,1,2,0:0:0:0:
231,69,54486,1,2,0:0:0:0:
228,89,54572,1,2,0:0:0:0:
225,109,54658,1,2,0:0:0:0:
306,212,54829,1,2,0:0:0:0:
146,270,55001,5,6,1:2:0:0:
137,304,55086,1,2,0:0:0:0:
148,338,55172,1,2,0:0:0:0:
179,354,55258,1,2,0:0:0:0:
214,355,55344,1,8,0:0:0:0:
242,335,55429,1,2,0:0:0:0:
262,305,55515,1,2,0:0:0:0:
295,291,55601,1,2,0:0:0:0:
330,294,55686,2,0,P|350:317|359:368,3,50.9999984436036,2|2|2|2,1:2|0:0|0:0|0:0,0:0:0:0:
434,384,56029,2,0,P|444:361|462:340,1,50.9999984436036,10|2,0:0|0:0,0:0:0:0:
441,241,56200,1,2,0:0:0:0:
424,253,56286,1,2,0:0:0:0:
388,259,56372,5,2,1:2:0:0:
354,245,56458,1,0,0:0:0:0:
338,212,56544,1,2,0:0:0:0:
347,177,56629,1,2,0:0:0:0:
370,150,56715,2,0,P|395:142|425:145,3,50.9999984436036,8|2|2|2,0:0|0:0|0:0|0:0,0:0:0:0:
512,12,57058,2,0,P|501:35|496:60,1,50.9999984436036,2|2,1:2|0:0,0:0:0:0:
419,143,57229,2,0,P|414:118|403:94,1,50.9999984436036,2|0,1:2|0:0,0:0:0:0:
287,30,57401,1,10,0:0:0:0:
272,26,57486,1,2,0:0:0:0:
256,28,57572,1,2,0:0:0:0:
244,37,57658,1,2,0:0:0:0:
230,64,57744,5,0,1:0:0:0:
231,99,57829,1,0,0:0:0:0:
259,128,57915,1,2,0:0:0:0:
288,163,58001,1,2,0:0:0:0:
288,213,58086,1,8,0:0:0:0:
253,250,58172,1,2,0:0:0:0:
202,257,58258,1,2,0:0:0:0:
164,221,58344,1,2,0:0:0:0:
131,176,58429,5,2,1:2:0:0:
77,158,58515,1,2,0:0:0:0:
33,193,58601,1,2,0:0:0:0:
38,248,58686,1,2,0:0:0:0:
82,282,58772,2,0,P|116:288|142:300,1,50.9999984436036,10|2,0:0|0:0,0:0:0:0:
254,350,58944,1,2,0:0:0:0:
275,356,59029,1,2,0:0:0:0:
302,365,59115,6,0,P|310:340|326:321,1,50.9999984436036,2|0,1:2|0:0,0:0:0:0:
431,231,59286,1,2,0:0:0:0:
431,231,59372,2,0,P|437:201|445:181,1,50.9999984436036,2|8,0:0|0:0,0:0:0:0:
359,114,59544,1,2,0:0:0:0:
359,114,59630,2,0,P|352:84|345:64,1,50.9999984436036,2|2,1:2|0:0,0:0:0:0:
326,202,59801,1,2,0:0:0:0:
291,231,59886,1,2,0:0:0:0:
244,232,59972,1,2,1:2:0:0:
205,206,60058,1,2,0:0:0:0:
186,163,60144,1,10,0:0:0:0:
153,130,60229,1,2,1:2:0:0:
107,122,60315,1,2,0:0:0:0:
69,148,60401,1,2,0:0:0:0:
57,192,60486,6,0,P|74:212|82:241,2,50.9999984436036,6|2|2,1:2|0:0|0:0,0:0:0:0:
45,327,60744,1,2,0:0:0:0:
45,327,60829,2,0,P|17:310|-4:310,3,50.9999984436036,8|2|2|2,0:0|0:0|0:0|0:0,0:0:0:0:
132,358,61172,1,2,1:2:0:0:
163,374,61258,1,2,0:0:0:0:
198,370,61344,1,2,0:0:0:0:
225,348,61429,1,2,0:0:0:0:
238,314,61515,1,10,0:0:0:0:
264,290,61601,1,2,0:0:0:0:
297,279,61686,1,2,0:0:0:0:
332,283,61772,1,2,0:0:0:0:
362,302,61858,6,0,P|375:324|384:366,3,50.9999984436036,2|0|2|2,1:2|0:0|0:0|0:0,0:0:0:0:
467,249,62201,2,0,P|474:224|487:202,3,50.9999984436036,8|2|2|2,0:0|0:0|0:0|0:0,0:0:0:0:
470,79,62544,2,0,P|452:99|391:113,1,50.9999984436036,2|2,1:2|0:0,0:0:0:0:
387,186,62715,2,0,P|360:190|304:162,1,50.9999984436036,2|0,1:2|0:0,0:0:0:0:
236,223,62886,1,10,0:0:0:0:
203,208,62972,1,2,0:0:0:0:
183,178,63058,1,2,0:0:0:0:
182,142,63144,1,2,0:0:0:0:
196,109,63229,6,0,P|222:95|255:98,3,50.9999984436036,0|0|2|2,1:0|0:0|0:0|0:0,0:0:0:0:
323,168,63572,2,0,P|355:180|388:176,3,50.9999984436036,8|2|2|2,0:0|0:0|0:0|0:0,0:0:0:0:
488,106,63915,1,2,1:2:0:0:
465,78,64001,1,2,0:0:0:0:
430,68,64086,1,2,0:0:0:0:
394,74,64172,1,2,0:0:0:0:
368,99,64258,1,10,0:0:0:0:
359,133,64344,1,2,0:0:0:0:
369,166,64429,1,2,0:0:0:0:
400,182,64515,1,2,0:0:0:0:
431,215,64601,5,2,1:2:0:0:
437,259,64686,1,0,0:0:0:0:
407,294,64772,1,2,0:0:0:0:
363,309,64858,1,2,0:0:0:0:
318,295,64944,2,0,P|301:266|276:256,1,50.9999984436036,8|2,0:0|0:0,0:0:0:0:
207,190,65115,2,0,P|173:191|153:209,1,50.9999984436036,2|2,1:2|0:0,0:0:0:0:
85,278,65287,1,2,0:0:0:0:
82,302,65372,1,2,0:0:0:0:
94,325,65458,1,2,1:2:0:0:
116,334,65544,1,2,0:0:0:0:
141,334,65629,6,0,P|161:316|189:307,3,50.9999984436036,10|2|2|2,0:0|1:2|0:0|0:0,0:0:0:0:
292,318,65972,6,0,P|280:340|274:365,3,50.9999984436036,6|2|2|2,1:2|0:0|0:0|0:0,0:0:0:0:
377,248,66315,2,0,P|365:225|359:200,3,50.9999984436036,8|2|2|2,0:0|0:0|0:0|0:0,0:0:0:0:
465,35,66658,1,2,1:2:0:0:
483,59,66744,1,2,0:0:0:0:
486,89,66829,1,2,0:0:0:0:
473,117,66915,1,2,0:0:0:0:
443,137,67001,1,10,0:0:0:0:
408,143,67086,1,2,0:0:0:0:
374,130,67172,1,2,0:0:0:0:
353,100,67258,1,2,0:0:0:0:
342,65,67344,6,0,P|347:33|353:15,3,50.9999984436036,2|0|2|2,1:2|0:0|0:0|0:0,0:0:0:0:
218,123,67686,2,0,P|231:145|235:169,3,50.9999984436036,8|2|2|2,0:0|0:0|0:0|0:0,0:0:0:0:
190,25,68029,2,0,P|156:16|112:37,1,50.9999984436036,2|2,1:2|0:0,0:0:0:0:
43,32,68201,2,0,P|19:58|18:106,1,50.9999984436036,2|0,1:2|0:0,0:0:0:0:
57,162,68372,2,0,P|74:180|85:203,3,50.9999984436036,10|2|2|2,0:0|0:0|0:0|0:0,0:0:0:0:
81,323,68715,5,0,1:0:0:0:
128,341,68801,1,0,0:0:0:0:
177,328,68886,1,2,0:0:0:0:
202,283,68972,1,2,0:0:0:0:
238,247,69058,1,8,0:0:0:0:
284,225,69144,1,2,0:0:0:0:
334,230,69229,1,2,0:0:0:0:
372,264,69315,1,2,0:0:0:0:
372,315,69401,1,2,1:2:0:0:
316,312,69486,1,2,0:0:0:0:
271,277,69572,1,2,0:0:0:0:
260,221,69658,1,2,0:0:0:0:
283,169,69744,1,10,0:0:0:0:
326,143,69829,1,2,0:0:0:0:
353,99,69915,1,2,0:0:0:0:
356,53,70001,1,2,0:0:0:0:
331,14,70086,6,0,P|306:5|281:7,1,50.9999984436036,2|0,1:2|0:0,0:0:0:0:
198,76,70258,1,2,0:0:0:0:
198,76,70344,2,0,P|217:92|229:114,1,50.9999984436036,2|8,0:0|0:0,0:0:0:0:
354,226,70515,1,2,0:0:0:0:
354,226,70601,2,0,P|335:243|324:266,1,50.9999984436036,2|2,1:2|0:0,0:0:0:0:
255,349,70772,1,2,0:0:0:0:
212,366,70858,1,2,0:0:0:0:
165,365,70944,1,2,1:2:0:0:
130,334,71029,1,2,0:0:0:0:
122,288,71115,2,0,P|141:261|145:217,3,50.9999984436036,10|2|2|2,0:0|1:2|0:0|0:0,0:0:0:0:
119,61,71458,5,6,1:2:0:0:
69,35,71544,1,2,0:0:0:0:
16,54,71629,1,2,0:0:0:0:
0,108,71715,1,2,0:0:0:0:
14,162,71801,1,8,0:0:0:0:
61,191,71886,1,2,0:0:0:0:
115,177,71972,1,2,0:0:0:0:
158,141,72058,1,2,0:0:0:0:
212,127,72144,2,0,P|244:135|270:169,3,50.9999984436036,2|2|2|2,1:2|0:0|0:0|0:0,0:0:0:0:
371,217,72486,2,0,P|381:245|376:288,3,50.9999984436036,10|2|2|2,0:0|0:0|0:0|0:0,0:0:0:0:
234,368,72829,5,2,1:2:0:0:
191,330,72915,1,2,0:0:0:0:
185,273,73001,1,2,0:0:0:0:
219,229,73086,1,2,0:0:0:0:
272,210,73172,1,8,0:0:0:0:
311,169,73258,1,2,0:0:0:0:
324,114,73344,1,2,0:0:0:0:
300,63,73429,1,2,0:0:0:0:
252,33,73515,2,0,P|223:35|194:58,1,50.9999984436036,2|2,1:2|0:0,0:0:0:0:
81,38,73686,2,0,P|61:59|60:97,1,50.9999984436036,2|2,1:2|0:0,0:0:0:0:
101,225,73858,1,10,0:0:0:0:
118,243,73944,1,2,0:0:0:0:
142,250,74029,1,2,0:0:0:0:
167,245,74115,1,2,0:0:0:0:
204,218,74201,5,2,1:2:0:0:
211,162,74286,1,2,0:0:0:0:
183,113,74372,1,2,0:0:0:0:
130,93,74458,1,2,0:0:0:0:
75,107,74544,1,8,0:0:0:0:
38,149,74629,1,2,0:0:0:0:
33,205,74715,1,2,0:0:0:0:
60,253,74801,1,2,0:0:0:0:
108,279,74886,1,2,1:2:0:0:
158,269,74972,1,2,0:0:0:0:
191,237,75058,1,2,0:0:0:0:
234,222,75144,1,2,0:0:0:0:
278,231,75229,1,10,0:0:0:0:
307,266,75315,1,2,0:0:0:0:
312,311,75401,1,2,0:0:0:0:
287,349,75486,1,2,0:0:0:0:
231,360,75572,5,2,1:2:0:0:
187,340,75658,1,2,0:0:0:0:
170,294,75744,1,2,0:0:0:0:
188,243,75829,1,2,0:0:0:0:
229,209,75915,5,10,0:0:0:0:
261,167,76001,1,2,0:0:0:0:
263,114,76086,1,2,1:2:0:0:
239,66,76172,1,2,0:0:0:0:
186,43,76258,5,2,0:0:0:0:
129,56,76344,1,2,0:0:0:0:
99,105,76429,1,2,1:2:0:0:
102,162,76515,1,2,0:0:0:0:
142,204,76601,5,10,0:0:0:0:
198,192,76686,1,2,1:2:0:0:
254,179,76772,1,2,0:0:0:0:
310,171,76858,1,2,0:0:0:0:
361,161,76944,6,0,L|405:154,7,42.5,4|0|0|0|0|0|0|0,0:0|0:0|0:0|0:0|0:0|0:0|0:0|0:0,0:0:0:0:
305,256,77629,1,2,0:0:0:0:
305,256,77715,2,0,P|284:245|259:241,1,42.5,2|0,0:0|0:0,0:0:0:0:
238,76,77886,1,2,0:0:0:0:
238,76,77972,2,0,P|217:87|192:91,1,42.5,2|0,0:0|0:0,0:0:0:0:
92,173,78144,1,2,0:0:0:0:
82,205,78229,1,2,0:0:0:0:
96,243,78315,6,0,P|131:258|161:298,3,50.9999984436036,2|0|2|2,1:2|0:0|0:0|0:0,0:0:0:0:
224,378,78658,2,0,P|247:368|272:361,3,50.9999984436036,8|2|2|2,0:0|0:0|0:0|0:0,0:0:0:0:
439,357,79001,1,2,1:2:0:0:
399,346,79086,1,2,0:0:0:0:
380,309,79172,1,2,1:2:0:0:
394,270,79258,1,0,0:0:0:0:
430,250,79344,2,0,P|455:254|479:261,3,50.9999984436036,10|2|2|2,0:0|0:0|0:0|0:0,0:0:0:0:
481,136,79686,5,0,1:0:0:0:
460,100,79772,1,0,0:0:0:0:
422,84,79858,1,2,0:0:0:0:
381,89,79944,1,2,0:0:0:0:
351,116,80029,1,8,0:0:0:0:
327,149,80115,1,2,0:0:0:0:
289,165,80201,1,2,0:0:0:0:
249,156,80286,1,2,0:0:0:0:
221,125,80372,5,2,1:2:0:0:
206,97,80458,1,2,0:0:0:0:
178,84,80544,1,2,0:0:0:0:
147,82,80629,1,2,0:0:0:0:
120,97,80715,2,0,P|132:124|138:147,3,50.9999984436036,10|2|2|2,0:0|0:0|0:0|0:0,0:0:0:0:
92,293,81058,6,0,P|70:282|45:280,1,50.9999984436036,2|0,1:2|0:0,0:0:0:0:
241,213,81229,1,2,0:0:0:0:
241,213,81315,2,0,P|264:200|292:204,1,50.9999984436036,2|8,0:0|0:0,0:0:0:0:
316,302,81486,1,2,0:0:0:0:
316,302,81572,2,0,P|292:314|265:311,1,50.9999984436036,2|2,1:2|0:0,0:0:0:0:
157,197,81744,5,2,0:0:0:0:
130,182,81829,1,2,0:0:0:0:
118,153,81915,1,2,1:2:0:0:
122,122,82001,1,2,0:0:0:0:
139,97,82086,1,10,0:0:0:0:
165,81,82172,2,0,P|190:81|216:91,1,50.9999984436036,2|2,1:2|0:0,0:0:0:0:
276,173,82344,1,2,0:0:0:0:
276,173,82429,6,0,P|269:198|264:229,3,50.9999984436036,6|2|2|2,1:2|0:0|0:0|0:0,0:0:0:0:
181,302,82772,2,0,P|187:327|193:358,3,50.9999984436036,8|2|2|2,0:0|0:0|0:0|0:0,0:0:0:0:
143,190,83115,2,0,P|121:181|94:174,3,50.9999984436036,2|2|2|2,1:2|0:0|0:0|0:0,0:0:0:0:
0,81,83458,2,0,P|24:74|48:65,3,50.9999984436036,10|2|2|2,0:0|0:0|0:0|0:0,0:0:0:0:
174,14,83801,5,2,1:2:0:0:
222,27,83886,1,0,0:0:0:0:
261,59,83972,1,2,0:0:0:0:
266,109,84058,1,2,0:0:0:0:
252,158,84144,1,8,0:0:0:0:
207,182,84229,1,2,0:0:0:0:
175,221,84315,1,2,0:0:0:0:
168,271,84401,1,2,0:0:0:0:
187,317,84486,6,0,P|216:335|277:329,1,50.9999984436036,2|2,1:2|0:0,0:0:0:0:
333,363,84658,2,0,P|365:351|406:308,1,50.9999984436036,2|0,1:2|0:0,0:0:0:0:
461,280,84829,2,0,P|473:248|466:188,1,50.9999984436036,10|2,0:0|0:0,0:0:0:0:
461,123,85001,1,2,0:0:0:0:
446,85,85086,1,2,0:0:0:0:
410,64,85172,6,0,P|384:61|360:68,3,50.9999984436036,0|0|2|2,1:0|0:0|0:0|0:0,0:0:0:0:
310,161,85515,2,0,P|323:183|327:209,3,50.9999984436036,8|2|2|2,0:0|0:0|0:0|0:0,0:0:0:0:
284,308,85858,1,2,1:2:0:0:
249,329,85944,1,2,0:0:0:0:
208,327,86029,1,2,0:0:0:0:
173,304,86115,1,2,0:0:0:0:
165,263,86201,2,0,P|173:231|191:214,3,50.9999984436036,10|2|2|2,0:0|0:0|0:0|0:0,0:0:0:0:
174,51,86544,5,2,1:2:0:0:
213,40,86629,1,0,0:0:0:0:
245,64,86715,1,2,0:0:0:0:
250,104,86801,1,2,0:0:0:0:
222,135,86886,2,0,P|197:126|171:126,3,50.9999984436036,8|2|2|2,0:0|0:0|1:2|0:0,0:0:0:0:
29,192,87229,5,2,0:0:0:0:
8,227,87314,1,2,0:0:0:0:
8,267,87400,1,2,1:2:0:0:
38,294,87486,1,2,0:0:0:0:
78,299,87571,2,0,P|98:282|123:275,3,50.9999984436036,10|2|2|2,0:0|1:2|0:0|0:0,0:0:0:0:
253,235,87915,6,0,P|281:236|302:245,3,50.9999984436036,6|2|2|2,1:2|0:0|0:0|0:0,0:0:0:0:
377,334,88258,2,0,P|402:333|425:324,3,50.9999984436036,8|2|2|2,0:0|0:0|0:0|0:0,0:0:0:0:
512,232,88601,1,2,1:2:0:0:
504,187,88686,1,2,0:0:0:0:
465,154,88772,1,2,0:0:0:0:
420,140,88858,1,2,0:0:0:0:
377,157,88944,1,10,0:0:0:0:
355,197,89029,1,2,0:0:0:0:
314,219,89115,1,2,0:0:0:0:
268,214,89201,1,2,0:0:0:0:
232,185,89286,6,0,P|225:159|214:135,3,50.9999984436036,2|0|2|2,1:2|0:0|0:0|0:0,0:0:0:0:
328,61,89629,2,0,P|334:35|345:11,3,50.9999984436036,8|2|2|2,0:0|0:0|0:0|0:0,0:0:0:0:
222,30,89972,2,0,P|199:23|171:20,1,50.9999984436036,2|2,1:2|0:0,0:0:0:0:
327,167,90144,2,0,P|352:164|376:157,1,50.9999984436036,2|0,1:2|0:0,0:0:0:0:
226,23,90315,2,0,P|202:12|177:10,3,50.9999984436036,10|2|2|2,0:0|0:0|0:0|0:0,0:0:0:0:
60,82,90658,5,0,1:0:0:0:
26,113,90744,1,0,0:0:0:0:
15,157,90829,1,2,0:0:0:0:
29,200,90915,1,2,0:0:0:0:
69,226,91001,1,8,0:0:0:0:
114,224,91086,1,2,0:0:0:0:
151,196,91172,1,2,0:0:0:0:
179,160,91258,1,2,0:0:0:0:
221,142,91344,1,2,1:2:0:0:
266,145,91429,1,2,0:0:0:0:
304,169,91515,1,2,0:0:0:0:
318,212,91601,1,2,0:0:0:0:
307,251,91686,1,10,0:0:0:0:
276,278,91772,1,2,0:0:0:0:
240,283,91858,1,2,0:0:0:0:
212,268,91944,1,2,0:0:0:0:
197,247,92029,6,0,P|203:215|209:192,1,50.9999984436036,2|0,1:2|0:0,0:0:0:0:
245,33,92201,1,2,0:0:0:0:
245,33,92286,2,0,P|220:42|194:47,1,50.9999984436036,2|8,0:0|0:0,0:0:0:0:
36,119,92458,1,2,0:0:0:0:
35,118,92544,2,0,P|59:123|82:136,1,50.9999984436036,2|2,1:2|0:0,0:0:0:0:
120,275,92715,1,2,0:0:0:0:
133,313,92801,1,2,0:0:0:0:
120,351,92886,1,2,1:2:0:0:
83,368,92972,1,2,0:0:0:0:
42,359,93058,1,10,0:0:0:0:
20,324,93144,1,2,1:2:0:0:
29,284,93229,2,0,P|72:275|100:250,1,50.9999984436036,2|2,0:0|0:0,0:0:0:0:
169,163,93401,5,6,1:2:0:0:
211,147,93486,1,2,0:0:0:0:
256,152,93572,1,2,0:0:0:0:
290,182,93658,1,2,0:0:0:0:
307,224,93744,1,8,0:0:0:0:
341,253,93829,1,2,0:0:0:0:
387,253,93915,1,2,0:0:0:0:
430,237,94001,1,2,0:0:0:0:
453,198,94086,2,0,P|459:169|472:132,3,50.9999984436036,2|2|2|2,1:2|0:0|0:0|0:0,0:0:0:0:
340,55,94429,2,0,P|333:26|321:-11,3,50.9999984436036,10|2|2|2,0:0|0:0|0:0|0:0,0:0:0:0:
264,143,94772,5,2,1:2:0:0:
232,183,94858,1,2,0:0:0:0:
181,192,94944,1,2,0:0:0:0:
132,176,95029,1,2,0:0:0:0:
99,136,95115,1,8,0:0:0:0:
95,84,95201,1,2,0:0:0:0:
113,36,95286,1,2,0:0:0:0:
154,6,95372,1,2,0:0:0:0:
205,2,95458,2,0,P|235:10|271:42,1,50.9999984436036,2|2,1:2|0:0,0:0:0:0:
370,111,95629,2,0,P|375:141|361:187,1,50.9999984436036,2|2,1:2|0:0,0:0:0:0:
310,277,95801,1,10,0:0:0:0:
285,284,95886,1,2,0:0:0:0:
260,291,95972,1,2,0:0:0:0:
235,297,96058,1,2,0:0:0:0:
190,286,96144,5,2,1:2:0:0:
149,248,96229,1,2,0:0:0:0:
143,191,96315,1,2,0:0:0:0:
182,150,96401,1,2,0:0:0:0:
208,101,96486,1,8,0:0:0:0:
192,46,96572,1,2,0:0:0:0:
144,15,96658,1,2,0:0:0:0:
88,23,96744,1,2,0:0:0:0:
54,67,96829,5,2,1:2:0:0:
65,122,96915,1,2,0:0:0:0:
115,147,97001,1,2,0:0:0:0:
165,146,97086,1,2,0:0:0:0:
205,114,97172,1,10,0:0:0:0:
255,106,97258,1,2,0:0:0:0:
302,125,97344,1,2,0:0:0:0:
326,169,97429,1,2,0:0:0:0:
304,219,97515,5,2,1:2:0:0:
255,242,97601,1,2,0:0:0:0:
244,294,97686,1,2,0:0:0:0:
272,340,97772,1,2,0:0:0:0:
322,359,97858,5,8,0:0:0:0:
374,351,97944,1,2,0:0:0:0:
402,305,98029,1,2,1:2:0:0:
399,250,98115,1,2,0:0:0:0:
354,219,98201,5,2,0:0:0:0:
302,227,98286,1,2,0:0:0:0:
271,271,98372,1,2,1:2:0:0:
222,294,98458,1,2,0:0:0:0:
166,275,98544,5,10,0:0:0:0:
127,224,98629,1,2,1:2:0:0:
140,161,98715,1,2,0:0:0:0:
194,129,98801,1,2,0:0:0:0:
254,150,98886,5,4,1:0:0:0:
