osu file format v14

[General]
AudioFilename: audio.mp3
AudioLeadIn: 0
PreviewTime: 54229
Countdown: 0
SampleSet: Soft
StackLeniency: 0.4
Mode: 0
LetterboxInBreaks: 0
WidescreenStoryboard: 0

[Editor]
DistanceSpacing: 1
BeatDivisor: 4
GridSize: 32
TimelineZoom: 1

[Metadata]
Title:Tower Of Heaven (You Are Slaves) (Cut Ver.)
TitleUnicode:Tower Of Heaven (You Are Slaves) (Cut Ver.)
Artist:Feint
ArtistUnicode:Feint
Creator:Strategas
Version:Acme
Source:
Tags:dnb drum and & bass electronic instrumental edm 8bit fa featured artist simple streams 3 vanila longstream deathstream kisaragi 如月 228 evth aye1337 dixaway tutis cbh Come[Back]Home mpg mappers' guild
BeatmapID:4137259
BeatmapSetID:1991315

[Difficulty]
HPDrainRate:3
CircleSize:3.9
OverallDifficulty:9.3
ApproachRate:9.4
SliderMultiplier:1.8
SliderTickRate:1

[Events]
//Background and Video events
0,0,"00061.png",0,0
//Break Periods
//Storyboard Layer 0 (Background)
//Storyboard Layer 1 (Fail)
//Storyboard Layer 2 (Pass)
//Storyboard Layer 3 (Foreground)
//Storyboard Layer 4 (Overlay)
//Storyboard Sound Samples

[TimingPoints]
144,342.857142857143,4,2,0,100,1,0
11115,-142.857142857143,4,2,25,65,0,0
22086,-100,4,2,25,70,0,0
44029,-166.666666666667,4,2,25,60,0,0
55001,-83.3333333333333,4,2,25,75,0,1
71458,-83.3333333333333,4,2,25,80,0,1
75572,-83.3333333333333,4,2,25,85,0,1
76944,-100,4,2,25,70,0,0
78315,-83.3333333333333,4,2,25,75,0,1
93401,-83.3333333333333,4,2,25,80,0,1
97515,-83.3333333333333,4,2,25,85,0,1
98886,-83.3333333333333,4,2,25,85,0,0

[Colours]
Combo1 : 79,141,171
Combo2 : 209,230,244

[HitObjects]
124,121,11115,6,0,P|222:88|313:99,2,188.999994232178,4|2|2,0:1|0:0|0:0,0:0:0:0:
79,191,12486,1,2,0:0:0:0:
79,191,13515,5,2,0:0:0:0:
79,206,13601,1,2,0:0:0:0:
80,222,13686,1,2,0:0:0:0:
81,238,13772,1,2,0:0:0:0:
82,253,13858,6,0,L|218:245,1,125.999996154785,2|2,0:0|0:0,0:0:0:0:
457,229,14715,1,2,0:0:0:0:
324,43,15229,6,0,B|188:8|215:82|74:49,1,251.999992309571,2|2,0:0|0:0,0:0:0:0:
257,116,16258,1,2,0:0:0:0:
268,137,16344,1,2,0:0:0:0:
273,160,16429,1,2,0:0:0:0:
274,183,16515,1,2,0:0:0:0:
270,206,16601,6,0,P|172:239|81:228,2,188.999994232178,2|2|2,0:0|0:0|0:0,0:0:0:0:
348,234,17972,1,2,0:0:0:0:
348,234,19001,5,2,0:0:0:0:
363,234,19086,1,2,0:0:0:0:
379,233,19172,1,2,0:0:0:0:
395,232,19258,1,2,0:0:0:0:
410,231,19344,6,0,L|402:94,1,125.999996154785,2|2,0:0|0:0,0:0:0:0:
423,359,20201,1,2,0:0:0:0:
230,204,20715,6,0,P|162:186|112:216,1,125.999996154785,2|0,0:0|0:0,0:0:0:0:
185,384,21401,1,2,0:0:0:0:
199,356,21486,1,2,0:0:0:0:
203,325,21572,1,2,0:0:0:0:
195,295,21658,1,2,0:0:0:0:
177,269,21744,1,2,0:0:0:0:
120,331,21915,1,2,0:0:0:0:
95,112,22086,6,0,B|242:77|214:154|360:118,1,270,4|2,1:2|0:0,0:0:0:0:
506,69,22772,2,0,P|464:52|421:61,1,90,8|0,0:0|0:0,0:0:0:0:
416,180,23115,2,0,P|457:196|501:188,1,90,2|0,0:0|0:0,0:0:0:0:
325,256,23458,6,0,P|308:297|316:341,1,90,2|0,0:0|0:0,0:0:0:0:
422,306,23801,1,0,1:0:0:0:
407,304,23886,1,0,0:0:0:0:
392,306,23972,1,0,0:0:0:0:
240,248,24144,2,0,P|283:239|325:256,1,90,8|0,0:0|0:0,0:0:0:0:
177,193,24486,1,2,0:0:0:0:
170,171,24572,1,2,0:0:0:0:
169,149,24658,1,2,0:0:0:0:
174,127,24744,1,2,0:0:0:0:
185,107,24829,6,0,L|322:99,1,135,0|0,1:0|0:0,0:0:0:0:
331,90,25172,2,0,L|325:0,1,90,2|0,0:0|0:0,0:0:0:0:
340,180,25515,1,8,0:0:0:0:
494,123,25686,2,0,L|405:129,2,90,2|0|0,0:0|0:0|0:0,0:0:0:0:
470,323,26201,6,0,P|428:339|384:331,1,90,2|0,0:0|0:0,0:0:0:0:
420,226,26544,1,0,1:0:0:0:
422,241,26629,1,0,0:0:0:0:
420,256,26715,1,0,0:0:0:0:
233,299,26886,1,10,0:0:0:0:
384,331,27058,1,0,1:0:0:0:
270,224,27229,1,2,0:0:0:0:
248,217,27315,1,2,0:0:0:0:
226,216,27401,1,2,0:0:0:0:
204,221,27486,1,2,0:0:0:0:
184,232,27572,6,0,B|86:255|105:204|8:227,1,180,0|0,1:0|0:0,0:0:0:0:
56,305,28086,1,2,0:0:0:0:
143,158,28258,2,0,P|151:114|134:72,1,90,8|0,0:0|0:0,0:0:0:0:
0,142,28601,2,0,P|-8:185|8:227,1,90,2|0,0:0|0:0,0:0:0:0:
184,232,28944,6,0,L|273:226,1,90,2|0,0:0|0:0,0:0:0:0:
222,312,29286,1,0,1:0:0:0:
234,311,29372,1,0,0:0:0:0:
245,311,29458,1,0,0:0:0:0:
317,144,29629,2,0,L|228:150,1,90,8|0,0:0|0:0,0:0:0:0:
381,198,29972,1,2,0:0:0:0:
403,196,30058,1,2,0:0:0:0:
425,195,30144,1,2,0:0:0:0:
448,194,30229,1,2,0:0:0:0:
470,192,30315,6,0,L|462:55,1,135,2|0,1:2|0:0,0:0:0:0:
453,46,30658,2,0,L|363:51,1,90,2|0,0:0|0:0,0:0:0:0:
176,59,31001,1,8,0:0:0:0:
295,99,31172,2,0,L|300:188,1,90,2|0,0:0|0:0,0:0:0:0:
306,272,31515,1,2,0:0:0:0:
172,163,31686,6,0,P|130:146|86:154,1,90,2|0,0:0|0:0,0:0:0:0:
122,260,32029,1,0,1:0:0:0:
124,245,32115,1,0,0:0:0:0:
122,230,32201,1,0,0:0:0:0:
189,46,32372,5,10,0:0:0:0:
218,27,32458,1,2,0:0:0:0:
251,22,32544,1,2,1:2:0:0:
283,31,32629,1,2,0:0:0:0:
308,58,32715,5,10,0:0:0:0:
364,39,32801,1,0,1:0:0:0:
398,87,32886,1,10,0:0:0:0:
364,134,32972,1,8,0:0:0:0:
308,116,33058,6,0,B|273:263|350:235|314:381,1,270,4|2,1:2|0:0,0:0:0:0:
157,304,33744,2,0,P|200:296|242:313,1,90,8|0,0:0|0:0,0:0:0:0:
108,237,34086,2,0,P|64:228|22:244,1,90,2|0,0:0|0:0,0:0:0:0:
143,68,34429,6,0,P|184:51|228:59,1,90,2|0,0:0|0:0,0:0:0:0:
193,165,34772,1,0,1:0:0:0:
191,150,34858,1,0,0:0:0:0:
193,135,34944,1,0,0:0:0:0:
302,21,35115,2,0,P|345:12|387:29,1,90,8|0,0:0|0:0,0:0:0:0:
447,87,35458,1,2,0:0:0:0:
454,109,35544,1,2,0:0:0:0:
455,131,35629,1,2,0:0:0:0:
450,153,35715,1,2,0:0:0:0:
439,173,35801,6,0,L|302:181,1,135,0|0,1:0|0:0,0:0:0:0:
293,190,36144,2,0,L|299:280,1,90,2|0,0:0|0:0,0:0:0:0:
283,101,36486,1,8,0:0:0:0:
129,159,36658,2,0,L|218:153,2,90,2|0|0,0:0|0:0|0:0,0:0:0:0:
41,265,37172,6,0,P|25:307|33:351,1,90,2|0,0:0|0:0,0:0:0:0:
138,315,37515,1,0,1:0:0:0:
123,313,37601,1,0,0:0:0:0:
108,315,37686,1,0,0:0:0:0:
208,360,37858,1,10,0:0:0:0:
194,252,38029,1,0,1:0:0:0:
289,343,38201,1,2,0:0:0:0:
311,350,38286,1,2,0:0:0:0:
333,351,38372,1,2,0:0:0:0:
355,346,38458,1,2,0:0:0:0:
375,335,38544,6,0,B|352:237|403:256|380:159,1,180,0|0,1:0|0:0,0:0:0:0:
452,292,39058,1,2,0:0:0:0:
302,207,39229,2,0,P|258:199|216:216,1,90,8|0,0:0|0:0,0:0:0:0:
80,289,39572,2,0,P|124:297|166:281,1,90,2|0,0:0|0:0,0:0:0:0:
143,146,39915,6,0,L|137:57,1,90,2|0,0:0|0:0,0:0:0:0:
57,123,40258,1,0,1:0:0:0:
56,111,40344,1,0,0:0:0:0:
56,100,40429,1,0,0:0:0:0:
225,94,40601,2,0,L|231:183,1,90,8|0,0:0|0:0,0:0:0:0:
290,325,40944,1,2,0:0:0:0:
292,303,41029,1,2,0:0:0:0:
293,281,41115,1,2,0:0:0:0:
294,258,41201,1,2,0:0:0:0:
296,236,41286,6,0,L|433:244,1,135,2|0,1:2|0:0,0:0:0:0:
442,253,41629,2,0,L|437:343,1,90,2|0,0:0|0:0,0:0:0:0:
454,163,41972,1,8,0:0:0:0:
296,236,42144,2,0,L|291:147,1,90,2|0,0:0|0:0,0:0:0:0:
286,63,42486,1,2,0:0:0:0:
159,197,42658,6,0,P|117:214|73:206,1,90,2|0,0:0|0:0,0:0:0:0:
109,100,43001,1,0,1:0:0:0:
111,115,43086,1,0,0:0:0:0:
109,130,43172,1,0,0:0:0:0:
173,305,43344,5,10,0:0:0:0:
202,324,43429,1,2,0:0:0:0:
235,329,43515,1,2,1:2:0:0:
267,320,43601,1,2,0:0:0:0:
292,293,43686,5,10,0:0:0:0:
348,312,43772,1,0,1:0:0:0:
382,264,43858,1,10,0:0:0:0:
348,217,43944,1,8,0:0:0:0:
292,235,44029,5,2,1:2:0:0:
233,179,44544,1,2,0:0:0:0:
295,125,45058,1,2,0:0:0:0:
295,125,45401,5,2,0:0:0:0:
121,55,46429,1,2,0:0:0:0:
93,46,46515,1,2,0:0:0:0:
76,70,46601,1,2,0:0:0:0:
93,93,46686,1,2,0:0:0:0:
121,84,46772,5,2,0:0:0:0:
121,84,47115,1,2,0:0:0:0:
183,138,47629,1,2,0:0:0:0:
121,194,48144,5,2,0:0:0:0:
389,55,48829,1,2,0:0:0:0:
389,55,49172,1,2,0:0:0:0:
417,46,49258,1,2,0:0:0:0:
434,70,49344,1,2,0:0:0:0:
417,93,49429,1,2,0:0:0:0:
389,84,49515,5,2,0:0:0:0:
329,140,50029,1,2,0:0:0:0:
391,194,50544,1,2,0:0:0:0:
391,194,50886,5,2,0:0:0:0:
121,329,51915,1,2,0:0:0:0:
93,338,52001,1,2,0:0:0:0:
76,314,52086,1,2,0:0:0:0:
93,291,52172,1,2,0:0:0:0:
121,300,52258,5,2,0:0:0:0:
256,192,52344,12,0,54229,0:0:0:0:
267,182,54315,5,2,0:0:0:0:
253,177,54401,1,2,0:0:0:0:
244,189,54486,1,2,0:0:0:0:
253,201,54572,1,2,0:0:0:0:
267,196,54658,1,2,0:0:0:0:
260,94,54829,1,2,0:0:0:0:
87,63,55001,5,6,1:2:0:0:
62,95,55086,1,2,0:0:0:0:
54,134,55172,1,2,0:0:0:0:
61,174,55258,1,2,0:0:0:0:
83,207,55344,1,8,0:0:0:0:
105,241,55429,1,2,0:0:0:0:
112,281,55515,1,2,0:0:0:0:
104,320,55601,1,2,0:0:0:0:
81,353,55686,2,0,L|25:356,3,53.9999983520508,2|2|2|2,1:2|0:0|0:0|0:0,0:0:0:0:
189,371,56029,2,0,L|244:367,3,53.9999983520508,10|2|2|2,0:0|0:0|0:0|0:0,0:0:0:0:
328,317,56372,5,2,1:2:0:0:
326,290,56458,1,0,0:0:0:0:
324,263,56544,1,2,0:0:0:0:
323,236,56629,1,2,0:0:0:0:
321,209,56715,2,0,L|376:205,3,53.9999983520508,8|2|2|2,0:0|0:0|0:0|0:0,0:0:0:0:
457,151,57058,2,0,L|453:95,1,53.9999983520508,2|2,1:2|0:0,0:0:0:0:
379,34,57229,2,0,L|323:37,1,53.9999983520508,2|0,1:2|0:0,0:0:0:0:
227,52,57401,1,10,0:0:0:0:
229,79,57486,1,2,0:0:0:0:
231,106,57572,1,2,0:0:0:0:
232,133,57658,1,2,0:0:0:0:
234,160,57744,5,0,1:0:0:0:
231,213,57829,1,0,0:0:0:0:
205,259,57915,1,2,0:0:0:0:
158,283,58001,1,2,0:0:0:0:
105,280,58086,1,8,0:0:0:0:
60,250,58172,1,2,0:0:0:0:
40,201,58258,1,2,0:0:0:0:
46,149,58344,1,2,0:0:0:0:
79,106,58429,1,2,1:2:0:0:
110,149,58515,1,2,0:0:0:0:
158,169,58601,1,2,0:0:0:0:
211,161,58686,1,2,0:0:0:0:
251,126,58772,1,10,0:0:0:0:
292,89,58858,1,2,0:0:0:0:
344,81,58944,1,2,0:0:0:0:
394,101,59029,1,2,0:0:0:0:
425,144,59115,6,0,P|432:171|428:198,1,53.9999983520508,2|0,1:2|0:0,0:0:0:0:
366,326,59286,1,2,0:0:0:0:
355,313,59372,2,0,P|348:287|352:261,1,53.9999983520508,2|8,0:0|0:0,0:0:0:0:
491,272,59544,1,2,0:0:0:0:
501,284,59629,2,0,P|507:309|504:336,1,53.9999983520508,2|2,1:2|0:0,0:0:0:0:
273,201,59801,1,2,0:0:0:0:
233,185,59886,1,2,0:0:0:0:
190,188,59972,1,2,1:2:0:0:
153,209,60058,1,2,0:0:0:0:
128,243,60144,1,10,0:0:0:0:
121,286,60229,2,0,P|146:292|173:289,1,53.9999983520508,2|2,1:2|0:0,0:0:0:0:
128,112,60401,1,2,0:0:0:0:
116,102,60486,6,0,L|60:105,3,53.9999983520508,6|2|2|2,1:2|0:0|0:0|0:0,0:0:0:0:
180,27,60829,2,0,L|235:23,3,53.9999983520508,8|2|2|2,0:0|0:0|0:0|0:0,0:0:0:0:
332,17,61172,2,0,L|385:13,3,53.9999983520508,2|2|2|2,1:2|0:0|0:0|0:0,0:0:0:0:
458,80,61515,2,0,L|513:76,3,53.9999983520508,10|2|2|2,0:0|0:0|0:0|0:0,0:0:0:0:
468,183,61858,5,2,1:2:0:0:
436,208,61944,1,0,0:0:0:0:
397,216,62029,1,2,0:0:0:0:
357,209,62115,1,2,0:0:0:0:
324,187,62201,1,8,0:0:0:0:
290,165,62286,1,2,0:0:0:0:
250,158,62372,1,2,0:0:0:0:
211,166,62458,1,2,0:0:0:0:
178,189,62544,6,0,L|174:244,1,53.9999983520508,2|2,1:2|0:0,0:0:0:0:
247,357,62715,2,0,L|251:304,1,53.9999983520508,2|0,1:2|0:0,0:0:0:0:
94,302,62886,2,0,L|90:357,1,53.9999983520508,10|2,0:0|0:0,0:0:0:0:
27,231,63058,1,2,0:0:0:0:
28,204,63144,1,2,0:0:0:0:
30,177,63229,6,0,L|34:122,3,53.9999983520508,0|0|2|2,1:0|0:0|0:0|0:0,0:0:0:0:
118,73,63572,2,0,L|173:77,3,53.9999983520508,8|2|2|2,0:0|0:0|0:0|0:0,0:0:0:0:
260,34,63915,1,2,1:2:0:0:
288,19,64001,1,2,0:0:0:0:
322,15,64086,1,2,0:0:0:0:
355,22,64172,1,2,0:0:0:0:
384,40,64258,1,10,0:0:0:0:
403,67,64344,1,2,0:0:0:0:
414,98,64429,1,2,0:0:0:0:
413,132,64515,1,2,0:0:0:0:
400,163,64601,5,2,1:2:0:0:
403,203,64686,1,0,0:0:0:0:
406,243,64772,1,2,0:0:0:0:
409,284,64858,1,2,0:0:0:0:
412,324,64944,2,0,L|357:328,1,53.9999983520508,8|2,0:0|0:0,0:0:0:0:
216,331,65115,5,2,1:2:0:0:
213,291,65201,1,2,0:0:0:0:
210,251,65286,1,2,0:0:0:0:
207,210,65372,1,2,0:0:0:0:
204,170,65458,2,0,L|259:166,1,53.9999983520508,2|2,1:2|0:0,0:0:0:0:
125,65,65629,5,10,0:0:0:0:
128,105,65715,2,0,L|73:109,1,53.9999983520508,2|2,1:2|0:0,0:0:0:0:
19,254,65886,1,2,0:0:0:0:
15,213,65972,6,0,L|68:209,3,53.9999983520508,6|2|2|2,1:2|0:0|0:0|0:0,0:0:0:0:
156,254,66315,2,0,L|209:250,3,53.9999983520508,8|2|2|2,0:0|0:0|0:0|0:0,0:0:0:0:
274,324,66658,1,2,1:2:0:0:
299,292,66744,1,2,0:0:0:0:
307,253,66829,1,2,0:0:0:0:
300,213,66915,1,2,0:0:0:0:
278,180,67001,1,10,0:0:0:0:
256,146,67086,1,2,0:0:0:0:
249,106,67172,1,2,0:0:0:0:
257,67,67258,1,2,0:0:0:0:
280,34,67344,6,0,L|336:31,3,53.9999983520508,2|0|2|2,1:2|0:0|0:0|0:0,0:0:0:0:
392,111,67686,2,0,L|448:108,3,53.9999983520508,8|2|2|2,0:0|0:0|0:0|0:0,0:0:0:0:
507,186,68029,2,0,L|510:242,1,53.9999983520508,2|2,1:2|0:0,0:0:0:0:
439,359,68201,2,0,L|437:306,1,53.9999983520508,2|0,1:2|0:0,0:0:0:0:
353,254,68372,2,0,L|351:201,3,53.9999983520508,10|2|2|2,0:0|0:0|0:0|0:0,0:0:0:0:
392,111,68715,5,0,1:0:0:0:
361,68,68801,1,0,0:0:0:0:
313,48,68886,1,2,0:0:0:0:
260,56,68972,1,2,0:0:0:0:
220,91,69058,1,8,0:0:0:0:
179,128,69144,1,2,0:0:0:0:
127,136,69229,1,2,0:0:0:0:
77,116,69315,1,2,0:0:0:0:
46,73,69401,1,2,1:2:0:0:
91,45,69486,1,2,0:0:0:0:
143,43,69572,1,2,0:0:0:0:
190,68,69658,1,2,0:0:0:0:
216,114,69744,1,10,0:0:0:0:
215,168,69829,1,2,0:0:0:0:
185,212,69915,1,2,0:0:0:0:
138,235,70001,1,2,0:0:0:0:
84,230,70086,6,0,P|80:203|87:177,1,53.9999983520508,2|0,1:2|0:0,0:0:0:0:
242,294,70258,1,2,0:0:0:0:
253,307,70344,2,0,P|260:333|256:359,1,53.9999983520508,2|8,0:0|0:0,0:0:0:0:
334,250,70515,1,2,0:0:0:0:
344,238,70601,2,0,P|350:213|347:186,1,53.9999983520508,2|2,1:2|0:0,0:0:0:0:
247,97,70772,1,2,0:0:0:0:
287,81,70858,1,2,0:0:0:0:
330,84,70944,1,2,1:2:0:0:
367,105,71029,1,2,0:0:0:0:
392,139,71115,1,10,0:0:0:0:
399,182,71201,2,0,P|374:188|347:185,1,53.9999983520508,2|2,1:2|0:0,0:0:0:0:
233,109,71372,1,2,0:0:0:0:
171,73,71458,5,6,1:2:0:0:
120,123,71544,1,2,0:0:0:0:
95,190,71629,1,2,0:0:0:0:
100,261,71715,1,2,0:0:0:0:
135,324,71801,1,8,0:0:0:0:
192,367,71886,1,2,0:0:0:0:
262,382,71972,1,2,0:0:0:0:
332,366,72058,1,2,0:0:0:0:
389,323,72144,2,0,L|461:320,3,53.9999983520508,2|2|2|2,1:2|0:0|0:0|0:0,0:0:0:0:
386,224,72486,2,0,L|458:221,3,53.9999983520508,10|2|2|2,0:0|0:0|0:0|0:0,0:0:0:0:
486,119,72829,5,2,1:2:0:0:
438,65,72915,1,2,0:0:0:0:
370,44,73001,1,2,0:0:0:0:
301,61,73086,1,2,0:0:0:0:
250,111,73172,1,8,0:0:0:0:
199,160,73258,1,2,0:0:0:0:
130,177,73344,1,2,0:0:0:0:
62,156,73429,1,2,0:0:0:0:
14,103,73515,2,0,L|11:31,1,53.9999983520508,2|2,1:2|0:0,0:0:0:0:
108,16,73686,2,0,L|111:70,1,53.9999983520508,2|2,1:2|0:0,0:0:0:0:
113,274,73858,1,10,0:0:0:0:
164,324,73944,1,2,0:0:0:0:
233,341,74029,1,2,0:0:0:0:
301,320,74115,1,2,0:0:0:0:
349,266,74201,5,2,1:2:0:0:
349,194,74286,1,2,0:0:0:0:
320,129,74372,1,2,0:0:0:0:
266,82,74458,1,2,0:0:0:0:
196,63,74544,1,8,0:0:0:0:
126,72,74629,1,2,0:0:0:0:
66,111,74715,1,2,0:0:0:0:
27,172,74801,1,2,0:0:0:0:
18,243,74886,1,2,1:2:0:0:
66,297,74972,1,2,0:0:0:0:
134,318,75058,1,2,0:0:0:0:
203,301,75144,1,2,0:0:0:0:
254,251,75229,1,10,0:0:0:0:
305,202,75315,1,2,0:0:0:0:
374,185,75401,1,2,0:0:0:0:
442,206,75486,1,2,0:0:0:0:
490,259,75572,5,2,1:2:0:0:
421,308,75658,1,2,0:0:0:0:
337,310,75744,1,2,0:0:0:0:
265,266,75829,1,2,0:0:0:0:
231,189,75915,1,10,0:0:0:0:
244,106,76001,1,2,0:0:0:0:
302,45,76086,1,2,1:2:0:0:
384,26,76172,1,2,0:0:0:0:
463,55,76258,1,2,0:0:0:0:
448,137,76344,1,2,0:0:0:0:
384,192,76429,1,2,1:2:0:0:
300,193,76515,1,2,0:0:0:0:
235,142,76601,1,10,0:0:0:0:
170,91,76686,1,2,1:2:0:0:
86,92,76772,1,2,0:0:0:0:
22,147,76858,1,2,0:0:0:0:
7,229,76944,6,0,L|9:297,7,45,4|0|0|0|0|0|0|0,0:0|0:0|0:0|0:0|0:0|0:0|0:0|0:0,0:0:0:0:
83,323,77629,1,2,0:0:0:0:
83,323,77715,2,0,L|85:391,1,45,2|0,0:0|0:0,0:0:0:0:
150,272,77886,1,2,0:0:0:0:
150,272,77972,2,0,L|147:203,1,45,2|0,0:0|0:0,0:0:0:0:
219,333,78144,1,2,0:0:0:0:
219,333,78229,1,2,0:0:0:0:
219,333,78315,6,0,L|291:330,3,53.9999983520508,2|0|2|2,1:2|0:0|0:0|0:0,0:0:0:0:
371,326,78658,2,0,L|443:323,3,53.9999983520508,8|2|2|2,0:0|0:0|0:0|0:0,0:0:0:0:
488,246,79001,2,0,L|485:174,1,53.9999983520508,2|2,1:2|0:0,0:0:0:0:
477,94,79172,2,0,L|474:22,1,53.9999983520508,2|0,1:2|0:0,0:0:0:0:
397,150,79344,2,0,L|325:153,3,53.9999983520508,10|2|2|2,0:0|0:0|0:0|0:0,0:0:0:0:
251,185,79686,5,0,1:0:0:0:
208,218,79772,1,0,0:0:0:0:
156,224,79858,1,2,0:0:0:0:
107,204,79944,1,2,0:0:0:0:
77,159,80029,1,8,0:0:0:0:
74,106,80115,1,2,0:0:0:0:
98,59,80201,1,2,0:0:0:0:
144,33,80286,1,2,0:0:0:0:
197,30,80372,1,2,1:2:0:0:
240,61,80458,1,2,0:0:0:0:
260,109,80544,1,2,0:0:0:0:
252,162,80629,1,2,0:0:0:0:
217,202,80715,1,10,0:0:0:0:
180,243,80801,1,2,0:0:0:0:
172,295,80886,1,2,0:0:0:0:
192,345,80972,1,2,0:0:0:0:
235,376,81058,6,0,P|262:383|289:379,1,53.9999983520508,2|0,1:2|0:0,0:0:0:0:
428,328,81229,1,2,0:0:0:0:
414,316,81315,2,0,P|388:309|362:314,1,53.9999983520508,2|8,0:0|0:0,0:0:0:0:
382,211,81486,1,2,0:0:0:0:
394,201,81572,2,0,P|419:195|446:198,1,53.9999983520508,2|2,1:2|0:0,0:0:0:0:
493,113,81744,1,2,0:0:0:0:
453,97,81829,1,2,0:0:0:0:
410,100,81915,1,2,1:2:0:0:
373,121,82001,1,2,0:0:0:0:
348,155,82086,1,10,0:0:0:0:
341,198,82172,2,0,P|366:204|393:201,1,53.9999983520508,2|2,1:2|0:0,0:0:0:0:
283,80,82344,1,2,0:0:0:0:
272,68,82429,6,0,L|216:71,3,53.9999983520508,6|2|2|2,1:2|0:0|0:0|0:0,0:0:0:0:
130,27,82772,2,0,L|76:29,3,53.9999983520508,8|2|2|2,0:0|0:0|0:0|0:0,0:0:0:0:
83,128,83115,2,0,L|137:126,3,53.9999983520508,2|2|2|2,1:2|0:0|0:0|0:0,0:0:0:0:
140,225,83458,2,0,L|86:227,3,53.9999983520508,10|2|2|2,0:0|0:0|0:0|0:0,0:0:0:0:
66,325,83801,5,2,1:2:0:0:
98,350,83886,1,0,0:0:0:0:
137,358,83972,1,2,0:0:0:0:
177,351,84058,1,2,0:0:0:0:
210,329,84144,1,8,0:0:0:0:
244,307,84229,1,2,0:0:0:0:
284,300,84315,1,2,0:0:0:0:
323,308,84401,1,2,0:0:0:0:
356,331,84486,6,0,L|360:386,1,53.9999983520508,2|2,1:2|0:0,0:0:0:0:
443,284,84658,2,0,L|439:231,1,53.9999983520508,2|0,1:2|0:0,0:0:0:0:
359,172,84829,2,0,L|305:175,1,53.9999983520508,10|2,0:0|0:0,0:0:0:0:
405,83,85001,1,2,0:0:0:0:
432,82,85086,1,2,0:0:0:0:
459,80,85172,6,0,L|514:76,3,53.9999983520508,0|0|2|2,1:0|0:0|0:0|0:0,0:0:0:0:
331,17,85515,2,0,L|276:21,3,53.9999983520508,8|2|2|2,0:0|0:0|0:0|0:0,0:0:0:0:
210,94,85858,2,0,L|214:149,3,53.9999983520508,2|2|2|2,1:2|0:0|0:0|0:0,0:0:0:0:
135,29,86201,2,0,L|80:33,3,53.9999983520508,10|2|2|2,0:0|0:0|0:0|0:0,0:0:0:0:
17,140,86544,5,2,1:2:0:0:
14,180,86629,1,0,0:0:0:0:
11,220,86715,1,2,0:0:0:0:
8,261,86801,1,2,0:0:0:0:
5,301,86886,2,0,L|60:305,1,53.9999983520508,8|2,0:0|0:0,0:0:0:0:
201,308,87058,5,2,1:2:0:0:
204,268,87144,1,2,0:0:0:0:
207,228,87229,1,2,0:0:0:0:
210,187,87315,1,2,0:0:0:0:
213,147,87401,2,0,L|158:143,1,53.9999983520508,2|2,1:2|0:0,0:0:0:0:
292,42,87572,5,10,0:0:0:0:
289,82,87658,2,0,L|344:86,1,53.9999983520508,2|2,1:2|0:0,0:0:0:0:
396,208,87829,1,2,0:0:0:0:
400,167,87915,6,0,L|453:171,3,53.9999983520508,6|2|2|2,1:2|0:0|0:0|0:0,0:0:0:0:
299,205,88258,2,0,L|295:258,3,53.9999983520508,8|2|2|2,0:0|0:0|0:0|0:0,0:0:0:0:
369,323,88601,1,2,1:2:0:0:
337,348,88686,1,2,0:0:0:0:
298,356,88772,1,2,0:0:0:0:
258,349,88858,1,2,0:0:0:0:
225,327,88944,1,10,0:0:0:0:
191,305,89029,1,2,0:0:0:0:
151,298,89115,1,2,0:0:0:0:
112,306,89201,1,2,0:0:0:0:
79,329,89286,6,0,L|76:385,3,53.9999983520508,2|0|2|2,1:2|0:0|0:0|0:0,0:0:0:0:
3,265,89629,2,0,L|6:209,3,53.9999983520508,8|2|2|2,0:0|0:0|0:0|0:0,0:0:0:0:
84,151,89972,2,0,L|140:154,1,53.9999983520508,2|2,1:2|0:0,0:0:0:0:
236,159,90144,2,0,L|292:162,1,53.9999983520508,2|0,1:2|0:0,0:0:0:0:
388,167,90315,2,0,L|444:170,3,53.9999983520508,10|2|2|2,0:0|0:0|0:0|0:0,0:0:0:0:
490,283,90658,5,0,1:0:0:0:
459,326,90744,1,0,0:0:0:0:
411,346,90829,1,2,0:0:0:0:
358,338,90915,1,2,0:0:0:0:
318,303,91001,1,8,0:0:0:0:
277,266,91086,1,2,0:0:0:0:
225,258,91172,1,2,0:0:0:0:
175,278,91258,1,2,0:0:0:0:
144,321,91344,1,2,1:2:0:0:
189,349,91429,1,2,0:0:0:0:
241,351,91515,1,2,0:0:0:0:
288,326,91601,1,2,0:0:0:0:
314,280,91686,1,10,0:0:0:0:
313,226,91772,1,2,0:0:0:0:
283,182,91858,1,2,0:0:0:0:
236,159,91944,1,2,0:0:0:0:
182,164,92029,6,0,P|178:137|185:111,1,53.9999983520508,2|0,1:2|0:0,0:0:0:0:
245,33,92201,1,2,0:0:0:0:
258,22,92286,2,0,P|284:15|310:19,1,53.9999983520508,2|8,0:0|0:0,0:0:0:0:
378,90,92458,1,2,0:0:0:0:
390,100,92544,2,0,P|415:106|442:103,3,53.9999983520508,2|2|2|2,1:2|0:0|0:0|0:0,0:0:0:0:
501,199,92886,2,0,P|475:195|449:202,1,53.9999983520508,2|2,1:2|0:0,0:0:0:0:
401,291,93058,1,10,0:0:0:0:
396,296,93144,1,2,1:2:0:0:
392,301,93229,2,0,P|365:304|339:298,1,53.9999983520508,2|2,0:0|0:0,0:0:0:0:
238,335,93401,5,6,1:2:0:0:
187,285,93486,1,2,0:0:0:0:
162,218,93572,1,2,0:0:0:0:
167,147,93658,1,2,0:0:0:0:
202,84,93744,1,8,0:0:0:0:
259,41,93829,1,2,0:0:0:0:
329,26,93915,1,2,0:0:0:0:
399,42,94001,1,2,0:0:0:0:
456,85,94086,2,0,L|528:88,3,53.9999983520508,2|2|2|2,1:2|0:0|0:0|0:0,0:0:0:0:
453,184,94429,2,0,L|525:187,3,53.9999983520508,10|2|2|2,0:0|0:0|0:0|0:0,0:0:0:0:
481,285,94772,5,2,1:2:0:0:
433,339,94858,1,2,0:0:0:0:
365,360,94944,1,2,0:0:0:0:
296,343,95029,1,2,0:0:0:0:
245,293,95115,1,8,0:0:0:0:
194,244,95201,1,2,0:0:0:0:
125,227,95286,1,2,0:0:0:0:
57,248,95372,1,2,0:0:0:0:
9,301,95458,2,0,L|6:373,1,53.9999983520508,2|2,1:2|0:0,0:0:0:0:
105,384,95629,2,0,L|108:331,1,53.9999983520508,2|2,1:2|0:0,0:0:0:0:
181,144,95801,1,10,0:0:0:0:
232,94,95886,1,2,0:0:0:0:
301,77,95972,1,2,0:0:0:0:
369,98,96058,1,2,0:0:0:0:
417,152,96144,5,2,1:2:0:0:
385,215,96229,1,2,0:0:0:0:
330,260,96315,1,2,0:0:0:0:
261,278,96401,1,2,0:0:0:0:
189,262,96486,1,8,0:0:0:0:
131,223,96572,1,2,0:0:0:0:
95,160,96658,1,2,0:0:0:0:
88,88,96744,1,2,0:0:0:0:
113,21,96829,1,2,1:2:0:0:
182,42,96915,1,2,0:0:0:0:
235,89,97001,1,2,0:0:0:0:
263,155,97086,1,2,0:0:0:0:
259,228,97172,1,10,0:0:0:0:
229,292,97258,1,2,0:0:0:0:
173,337,97344,1,2,0:0:0:0:
103,355,97429,1,2,0:0:0:0:
33,341,97516,5,2,1:2:0:0:
32,248,97601,1,2,0:0:0:0:
94,180,97687,1,2,0:0:0:0:
186,171,97773,1,2,0:0:0:0:
259,228,97859,1,10,0:0:0:0:
332,285,97944,1,2,0:0:0:0:
424,276,98030,1,2,1:2:0:0:
486,208,98116,1,2,0:0:0:0:
486,116,98201,1,2,0:0:0:0:
412,59,98286,1,2,0:0:0:0:
320,68,98372,1,2,1:2:0:0:
258,136,98458,1,2,0:0:0:0:
259,228,98544,1,10,0:0:0:0:
206,302,98629,1,2,1:2:0:0:
116,324,98715,1,2,0:0:0:0:
35,282,98801,1,2,0:0:0:0:
6,195,98886,1,6,0:0:0:0:
