osu file format v14

[General]
AudioFilename: audio.mp3
AudioLeadIn: 0
PreviewTime: 54229
Countdown: 0
SampleSet: Soft
StackLeniency: 0.7
Mode: 0
LetterboxInBreaks: 0
WidescreenStoryboard: 1

[Editor]
DistanceSpacing: 1.1
BeatDivisor: 4
GridSize: 32
TimelineZoom: 1

[Metadata]
Title:Tower Of Heaven (You Are Slaves) (Cut Ver.)
TitleUnicode:Tower Of Heaven (You Are Slaves) (Cut Ver.)
Artist:Feint
ArtistUnicode:Feint
Creator:Strategas
Version:228's Insane
Source:
Tags:dnb drum and & bass electronic instrumental edm 8bit fa featured artist simple streams 3 vanila longstream deathstream kisaragi 如月 228 evth aye1337 dixaway tutis cbh Come[Back]Home mpg mappers' guild
BeatmapID:4137825
BeatmapSetID:1991315

[Difficulty]
HPDrainRate:4
CircleSize:4
OverallDifficulty:8
ApproachRate:8.8
SliderMultiplier:1.4
SliderTickRate:1

[Events]
//Background and Video events
0,0,"00061.png",0,0
//Break Periods
//Storyboard Layer 0 (Background)
//Storyboard Layer 1 (Fail)
//Storyboard Layer 2 (Pass)
//Storyboard Layer 3 (Foreground)
//Storyboard Layer 4 (Overlay)
//Storyboard Sound Samples

[TimingPoints]
144,342.857142857143,4,2,0,100,1,0
11115,-181.818181818181,4,2,25,65,0,0
22001,-181.818181818181,4,2,25,5,0,0
22086,-133.333333333333,4,2,25,70,0,0
44029,-285.714285714284,4,2,25,60,0,0
55001,-100,4,2,25,75,0,1
71458,-100,4,2,25,80,0,1
75572,-100,4,2,25,85,0,1
76944,-100,4,2,25,70,0,0
78315,-100,4,2,25,75,0,1
93401,-100,4,2,25,80,0,1
97515,-100,4,2,25,85,0,1
98886,-100,4,2,25,85,0,0

[Colours]
Combo1 : 79,141,171
Combo2 : 209,230,244

[HitObjects]
30,186,11115,6,0,P|32:143|20:60,2,115.50000352478,4|2|2,0:1|0:0|0:0,0:0:0:0:
30,186,12486,1,2,0:0:0:0:
458,109,13515,5,2,0:0:0:0:
458,109,13601,1,2,0:0:0:0:
458,109,13686,1,2,0:0:0:0:
458,109,13772,1,2,0:0:0:0:
458,109,13858,2,0,P|414:102|368:99,2,77.0000023498536,2|2|0,0:0|0:0|0:0,0:0:0:0:
512,165,14715,1,2,0:0:0:0:
447,308,15229,2,0,P|442:337|434:393,2,77.0000023498536,2|0|2,0:0|0:0|0:0,0:0:0:0:
336,225,16258,2,0,L|304:219,3,19.2500005874634,2|2|2|2,0:0|0:0|0:0|0:0,0:0:0:0:
295,240,16601,6,0,P|273:231|211:219,1,77.0000023498536,2|0,0:0|0:0,0:0:0:0:
309,143,17115,2,0,P|289:116|247:77,1,77.0000023498536,2|0,0:0|0:0,0:0:0:0:
397,109,17629,2,0,P|400:82|399:60,1,38.5000011749268,2|0,0:0|0:0,0:0:0:0:
487,107,17972,1,2,0:0:0:0:
43,220,19001,5,2,0:0:0:0:
43,220,19086,1,2,0:0:0:0:
43,220,19172,1,2,0:0:0:0:
43,220,19258,1,2,0:0:0:0:
43,220,19344,2,0,P|76:227|120:245,2,77.0000023498536,2|2|0,0:0|0:0|0:0,0:0:0:0:
0,285,20201,1,2,0:0:0:0:
256,192,20715,12,0,22001,0:0:0:0:
64,0,22086,6,0,B|74:56|74:56|59:85|59:85|74:162,1,157.500006008148,4|2,1:2|0:0,0:0:0:0:
151,180,22772,1,8,0:0:0:0:
151,180,22944,1,0,0:0:0:0:
37,263,23115,2,0,P|67:242|92:231,1,52.5000020027161,2|0,0:0|0:0,0:0:0:0:
160,278,23458,6,0,L|278:303,2,105.000004005432,2|0|8,0:0|1:0|0:0,0:0:0:0:
153,47,24486,1,2,0:0:0:0:
169,67,24572,1,2,0:0:0:0:
190,82,24658,1,2,0:0:0:0:
213,93,24744,1,2,0:0:0:0:
237,101,24829,2,0,L|269:-19,1,105.000004005432,0|2,1:0|0:0,0:0:0:0:
456,136,25515,1,8,0:0:0:0:
371,176,25686,2,0,L|357:119,2,52.5000020027161,2|0|0,0:0|0:0|0:0,0:0:0:0:
512,261,26201,6,0,P|490:238|455:218,1,52.5000020027161,2|0,0:0|0:0,0:0:0:0:
289,219,26544,2,0,P|312:247|372:272,1,78.7500030040742,0|0,1:0|0:0,0:0:0:0:
335,282,26886,2,0,L|349:351,1,52.5000020027161,10|0,0:0|1:0,0:0:0:0:
456,136,27229,1,2,0:0:0:0:
461,110,27315,1,2,0:0:0:0:
466,84,27401,1,2,0:0:0:0:
471,58,27486,1,2,0:0:0:0:
476,32,27572,5,0,1:0:0:0:
476,32,28086,1,2,0:0:0:0:
352,0,28258,2,0,L|372:83,1,78.7500030040742,8|0,0:0|0:0,0:0:0:0:
345,60,28601,2,0,L|292:51,1,52.5000020027161,2|0,0:0|0:0,0:0:0:0:
160,103,28944,2,0,P|190:125|217:199,2,105.000004005432,2|0|8,0:0|1:0|0:0,0:0:0:0:
6,210,29972,1,2,0:0:0:0:
31,218,30058,1,2,0:0:0:0:
56,226,30144,1,2,0:0:0:0:
80,233,30229,1,2,0:0:0:0:
105,241,30315,6,0,P|116:300|111:364,1,105.000004005432,2|2,1:2|0:0,0:0:0:0:
430,296,31001,1,8,0:0:0:0:
329,238,31172,2,0,P|318:179|323:115,1,105.000004005432,2|2,0:0|0:0,0:0:0:0:
167,289,31686,5,2,0:0:0:0:
167,289,32029,1,0,1:0:0:0:
468,222,32372,1,10,0:0:0:0:
433,203,32458,1,2,0:0:0:0:
410,170,32544,1,2,1:2:0:0:
403,131,32629,1,2,0:0:0:0:
416,93,32715,1,10,0:0:0:0:
231,198,32886,1,10,0:0:0:0:
231,198,32972,1,8,0:0:0:0:
231,198,33058,6,0,B|124:192|164:225|68:224,1,157.500006008148,4|2,1:2|0:0,0:0:0:0:
2,111,33744,2,0,P|13:144|16:178,1,52.5000020027161,8|0,0:0|0:0,0:0:0:0:
174,73,34086,2,0,L|184:5,1,52.5000020027161,2|0,0:0|0:0,0:0:0:0:
77,36,34429,6,0,P|95:91|103:156,2,105.000004005432,2|0|8,0:0|1:0|0:0,0:0:0:0:
400,3,35458,1,2,0:0:0:0:
425,9,35544,1,2,0:0:0:0:
450,15,35629,1,2,0:0:0:0:
474,24,35715,1,2,0:0:0:0:
498,33,35801,2,0,P|508:75|512:158,1,105.000004005432,0|2,1:0|0:0,0:0:0:0:
271,356,36486,1,8,0:0:0:0:
184,301,36658,2,0,P|174:259|170:176,1,105.000004005432,2|0,0:0|0:0,0:0:0:0:
400,173,37172,6,0,B|428:183|428:183|442:206|442:206|495:227,2,105.000004005432,2|0|10,0:0|1:0|0:0,0:0:0:0:
293,200,38029,1,0,1:0:0:0:
231,131,38201,1,2,0:0:0:0:
206,122,38286,1,2,0:0:0:0:
180,117,38372,1,2,0:0:0:0:
153,116,38458,1,2,0:0:0:0:
126,120,38544,6,0,P|56:136|10:136,1,105.000004005432,0|0,1:0|0:0,0:0:0:0:
23,136,39058,1,2,0:0:0:0:
63,216,39229,2,0,P|71:249|75:274,1,52.5000020027161,8|0,0:0|0:0,0:0:0:0:
216,348,39572,2,0,L|242:261,1,78.7500030040742,2|0,0:0|0:0,0:0:0:0:
219,258,39915,6,0,P|187:251|147:182,2,105.000004005432,2|0|8,0:0|1:0|0:0,0:0:0:0:
305,161,40944,1,2,0:0:0:0:
330,152,41029,1,2,0:0:0:0:
356,147,41115,1,2,0:0:0:0:
383,146,41201,1,2,0:0:0:0:
410,150,41287,6,0,P|480:166|526:166,1,105.000004005432,2|2,1:2|0:0,0:0:0:0:
512,166,41972,1,8,0:0:0:0:
343,115,42144,2,0,P|295:121|229:111,1,105.000004005432,2|2,0:0|0:0,0:0:0:0:
380,308,42658,5,2,0:0:0:0:
380,308,43001,1,0,1:0:0:0:
134,384,43344,1,10,0:0:0:0:
126,345,43429,1,2,0:0:0:0:
98,317,43515,1,2,1:2:0:0:
59,310,43601,1,2,0:0:0:0:
24,328,43686,1,10,0:0:0:0:
118,190,43858,1,10,0:0:0:0:
118,190,43944,1,8,0:0:0:0:
118,190,44029,6,0,B|120:73|150:123|158:-11,1,195.999994018555,2|2,1:2|0:0,0:0:0:0:
394,194,46429,5,2,0:0:0:0:
394,194,46515,1,2,0:0:0:0:
394,194,46601,1,2,0:0:0:0:
394,194,46687,1,2,0:0:0:0:
394,194,46772,2,0,P|396:229|395:251,1,48.9999985046387,2|2,0:0|0:0,0:0:0:0:
395,242,47458,1,0,0:0:0:0:
419,330,47629,2,0,P|389:325|365:324,1,48.9999985046387,2|0,0:0|0:0,0:0:0:0:
370,324,48144,1,2,0:0:0:0:
370,324,48829,1,2,0:0:0:0:
198,218,49172,1,2,0:0:0:0:
198,218,49258,1,2,0:0:0:0:
198,218,49344,1,2,0:0:0:0:
198,218,49429,1,2,0:0:0:0:
198,218,49515,6,0,P|164:242|10:266,1,195.999994018555,2|2,0:0|0:0,0:0:0:0:
314,166,51915,1,2,0:0:0:0:
314,166,52001,1,2,0:0:0:0:
314,166,52087,1,2,0:0:0:0:
314,166,52172,1,2,0:0:0:0:
314,166,52258,5,2,0:0:0:0:
256,192,52344,12,0,53629,0:0:0:0:
28,73,54315,6,0,L|24:51,4,12.2499996261597,2|2|2|2|2,0:0|0:0|0:0|0:0|0:0,0:0:0:0:
43,148,54829,1,2,0:0:0:0:
136,27,55001,6,0,P|198:40|251:44,1,105,6|2,1:2|0:0,0:0:0:0:
239,43,55344,2,0,P|229:91|229:132,1,70,8|2,0:0|0:0,0:0:0:0:
387,201,55686,1,2,1:2:0:0:
417,194,55772,1,2,0:0:0:0:
447,187,55858,1,2,0:0:0:0:
477,181,55944,1,2,0:0:0:0:
507,175,56029,2,0,L|514:221,3,35,10|2|2|2,0:0|0:0|0:0|0:0,0:0:0:0:
489,284,56372,6,0,P|427:297|369:301,1,105,2|2,1:2|0:0,0:0:0:0:
385,300,56715,2,0,P|388:345|389:389,1,70,8|2,0:0|0:0,0:0:0:0:
214,356,57058,1,2,1:2:0:0:
179,349,57143,1,2,0:0:0:0:
144,342,57229,1,2,1:2:0:0:
109,334,57315,1,0,0:0:0:0:
74,326,57401,1,10,0:0:0:0:
162,230,57572,1,2,0:0:0:0:
162,230,57658,1,2,0:0:0:0:
162,230,57744,6,0,L|180:107,1,105,0|2,1:0|0:0,0:0:0:0:
177,126,58086,2,0,P|173:79|163:39,1,70,8|2,0:0|0:0,0:0:0:0:
0,171,58429,1,2,1:2:0:0:
24,175,58515,1,2,0:0:0:0:
45,186,58601,1,2,0:0:0:0:
61,204,58686,1,2,0:0:0:0:
66,227,58772,5,10,0:0:0:0:
85,264,58858,1,2,0:0:0:0:
115,293,58944,1,2,0:0:0:0:
154,305,59029,1,2,0:0:0:0:
195,308,59115,6,0,B|255:322|255:322|273:350|273:350|344:372,1,140,2|8,1:2|0:0,0:0:0:0:
391,343,59629,1,2,1:2:0:0:
391,111,59801,1,2,0:0:0:0:
419,130,59886,1,2,0:0:0:0:
440,157,59972,1,2,1:2:0:0:
449,190,60058,1,2,0:0:0:0:
449,225,60144,2,0,L|401:212,3,35,10|2|2|2,0:0|1:2|0:0|0:0,0:0:0:0:
345,253,60486,6,0,P|306:243|234:233,1,105,6|2,1:2|0:0,0:0:0:0:
242,233,60829,2,0,P|254:171|258:140,1,70,8|2,0:0|0:0,0:0:0:0:
135,24,61172,1,2,1:2:0:0:
141,59,61258,1,2,0:0:0:0:
147,94,61344,1,2,0:0:0:0:
154,128,61429,1,2,0:0:0:0:
162,163,61515,1,10,0:0:0:0:
314,100,61686,1,2,0:0:0:0:
314,100,61772,1,2,0:0:0:0:
314,100,61857,6,0,P|353:110|420:122,1,105,2|2,1:2|0:0,0:0:0:0:
416,121,62201,2,0,P|406:172|401:219,1,70,8|2,0:0|0:0,0:0:0:0:
316,333,62544,1,2,1:2:0:0:
281,325,62630,1,2,0:0:0:0:
247,318,62715,1,2,1:2:0:0:
212,312,62801,1,0,0:0:0:0:
177,306,62887,1,10,0:0:0:0:
0,212,63058,1,2,0:0:0:0:
0,212,63144,1,2,0:0:0:0:
0,212,63229,6,0,P|54:221|117:240,1,105,0|2,1:0|0:0,0:0:0:0:
102,234,63572,2,0,P|88:291|86:316,1,70,8|2,0:0|0:0,0:0:0:0:
233,104,63915,1,2,1:2:0:0:
208,102,64001,1,2,0:0:0:0:
184,108,64086,1,2,0:0:0:0:
167,125,64172,1,2,0:0:0:0:
166,149,64258,5,10,0:0:0:0:
151,188,64344,1,2,0:0:0:0:
112,203,64429,1,2,0:0:0:0:
71,192,64515,1,2,0:0:0:0:
51,154,64601,6,0,B|40:45|40:45|-2:13,1,140,2|8,1:2|0:0,0:0:0:0:
118,62,65115,1,2,1:2:0:0:
245,184,65286,2,0,L|298:172,3,35,2|2|2|2,0:0|0:0|1:2|0:0,0:0:0:0:
337,225,65629,2,0,L|379:219,3,35,10|2|2|2,0:0|1:2|0:0|0:0,0:0:0:0:
417,149,65972,6,0,P|457:168|486:234,1,105,6|2,1:2|0:0,0:0:0:0:
485,219,66315,2,0,P|473:270|473:310,1,70,8|2,0:0|0:0,0:0:0:0:
363,327,66658,1,2,1:2:0:0:
329,318,66744,1,2,0:0:0:0:
295,309,66829,1,2,0:0:0:0:
261,300,66915,1,2,0:0:0:0:
227,291,67001,2,0,L|218:250,3,35,10|2|2|2,0:0|0:0|0:0|0:0,0:0:0:0:
152,230,67344,6,0,P|113:210|34:197,1,105,2|2,1:2|0:0,0:0:0:0:
53,197,67686,2,0,L|38:116,1,70,8|2,0:0|0:0,0:0:0:0:
181,0,68029,1,2,1:2:0:0:
170,33,68115,1,2,0:0:0:0:
159,66,68201,1,2,1:2:0:0:
148,99,68286,1,0,0:0:0:0:
137,132,68372,1,10,0:0:0:0:
305,88,68544,1,2,0:0:0:0:
305,88,68629,1,2,0:0:0:0:
305,88,68715,6,0,B|342:81|342:81|363:55|363:55|422:42,1,105,0|2,1:0|0:0,0:0:0:0:
396,47,69058,2,0,L|485:71,1,70,8|2,0:0|0:0,0:0:0:0:
403,213,69401,1,2,1:2:0:0:
400,237,69486,1,2,0:0:0:0:
406,259,69572,1,2,0:0:0:0:
420,278,69658,1,2,0:0:0:0:
443,286,69744,5,10,0:0:0:0:
484,286,69829,1,2,0:0:0:0:
511,251,69915,1,2,0:0:0:0:
512,210,70001,1,2,0:0:0:0:
480,182,70086,6,0,B|400:200|431:225|332:241,1,140,2|8,1:2|0:0,0:0:0:0:
279,264,70601,1,2,1:2:0:0:
154,165,70772,2,0,L|148:116,3,35,2|2|2|2,0:0|0:0|1:2|0:0,0:0:0:0:
114,107,71115,2,0,L|107:51,3,35,10|2|2|2,0:0|1:2|0:0|0:0,0:0:0:0:
46,14,71459,5,6,1:2:0:0:
38,51,71544,1,2,0:0:0:0:
8,75,71630,1,2,0:0:0:0:
14,113,71716,1,2,0:0:0:0:
3,149,71801,1,8,0:0:0:0:
29,177,71887,1,2,0:0:0:0:
33,215,71973,1,2,0:0:0:0:
65,235,72059,1,2,0:0:0:0:
77,271,72144,2,0,L|67:324,3,35,2|2|2|2,1:2|0:0|0:0|0:0,0:0:0:0:
135,344,72486,2,0,L|128:391,3,35,10|2|2|2,0:0|0:0|0:0|0:0,0:0:0:0:
170,276,72829,5,2,1:2:0:0:
197,249,72914,1,2,0:0:0:0:
195,210,73000,1,2,0:0:0:0:
227,189,73086,1,2,0:0:0:0:
246,155,73171,1,8,0:0:0:0:
284,154,73257,1,2,0:0:0:0:
312,128,73343,1,2,0:0:0:0:
350,133,73429,1,2,0:0:0:0:
384,116,73515,2,0,L|394:171,3,35,2|2|2|2,1:2|0:0|1:2|0:0,0:0:0:0:
454,65,73858,2,0,L|446:25,3,35,10|2|2|2,0:0|0:0|0:0|0:0,0:0:0:0:
489,151,74201,5,2,1:2:0:0:
449,153,74287,1,2,0:0:0:0:
415,132,74373,1,2,0:0:0:0:
376,128,74459,1,2,0:0:0:0:
346,102,74545,2,0,L|356:47,3,35,8|2|2|2,0:0|0:0|0:0|0:0,0:0:0:0:
283,26,74886,1,2,1:2:0:0:
243,24,74972,1,2,0:0:0:0:
209,46,75058,1,2,0:0:0:0:
170,49,75144,1,2,0:0:0:0:
140,75,75230,2,0,L|150:129,3,35,10|2|2|2,0:0|0:0|0:0|0:0,0:0:0:0:
119,185,75572,5,2,1:2:0:0:
119,185,75658,1,2,0:0:0:0:
119,185,75744,1,2,0:0:0:0:
225,276,75915,5,8,0:0:0:0:
225,276,76001,1,2,0:0:0:0:
225,276,76086,1,2,1:2:0:0:
349,325,76258,5,2,0:0:0:0:
349,325,76344,1,2,0:0:0:0:
349,325,76429,1,2,1:2:0:0:
480,349,76601,5,10,0:0:0:0:
480,349,76687,1,2,1:2:0:0:
480,349,76772,1,2,0:0:0:0:
512,277,76944,5,4,0:0:0:0:
9,110,78315,6,0,P|62:112|132:112,1,105,2|2,1:2|0:0,0:0:0:0:
113,112,78658,2,0,P|118:70|111:28,1,70,8|2,0:0|0:0,0:0:0:0:
254,0,79001,1,2,1:2:0:0:
245,37,79086,1,2,0:0:0:0:
236,74,79172,1,2,1:2:0:0:
228,111,79258,1,0,0:0:0:0:
220,148,79344,1,10,0:0:0:0:
348,241,79515,1,2,0:0:0:0:
348,241,79601,1,2,0:0:0:0:
348,241,79686,6,0,P|404:238|458:245,1,105,0|2,1:0|0:0,0:0:0:0:
452,243,80029,2,0,P|454:291|450:343,1,70,8|2,0:0|0:0,0:0:0:0:
417,156,80372,1,2,1:2:0:0:
423,117,80458,1,2,0:0:0:0:
430,79,80544,1,2,0:0:0:0:
436,41,80629,1,2,0:0:0:0:
442,2,80715,2,0,L|491:8,3,35,10|2|2|2,0:0|0:0|0:0|0:0,0:0:0:0:
357,30,81058,6,0,L|199:8,1,140,2|8,1:2|0:0,0:0:0:0:
157,66,81572,1,2,1:2:0:0:
13,12,81744,1,2,0:0:0:0:
34,23,81829,1,2,0:0:0:0:
50,41,81915,1,2,1:2:0:0:
53,65,82001,1,2,0:0:0:0:
46,88,82086,5,10,0:0:0:0:
48,130,82172,1,2,1:2:0:0:
75,161,82258,1,2,0:0:0:0:
114,175,82344,1,2,0:0:0:0:
158,170,82429,6,0,P|159:219|157:297,1,105,6|2,1:2|0:0,0:0:0:0:
158,275,82772,2,0,P|114:277|70:283,1,70,8|2,0:0|0:0,0:0:0:0:
279,384,83115,1,2,1:2:0:0:
279,345,83201,1,2,0:0:0:0:
280,306,83286,1,2,0:0:0:0:
281,267,83372,1,2,0:0:0:0:
282,228,83458,1,10,0:0:0:0:
470,336,83629,1,2,0:0:0:0:
470,336,83715,1,2,0:0:0:0:
470,336,83801,6,0,P|422:332|359:337,1,105,2|2,1:2|0:0,0:0:0:0:
365,335,84144,2,0,P|362:284|360:239,1,70,8|2,0:0|0:0,0:0:0:0:
289,147,84486,1,2,1:2:0:0:
251,139,84572,1,2,0:0:0:0:
212,132,84658,1,2,1:2:0:0:
173,127,84744,1,0,0:0:0:0:
135,122,84829,2,0,L|128:186,3,35,10|2|2|2,0:0|0:0|0:0|0:0,0:0:0:0:
54,182,85172,6,0,P|32:215|26:329,1,140,0|8,1:0|0:0,0:0:0:0:
88,368,85686,1,2,0:0:0:0:
201,269,85858,1,2,1:2:0:0:
224,262,85944,1,2,0:0:0:0:
248,262,86029,1,2,0:0:0:0:
271,269,86115,1,2,0:0:0:0:
288,286,86201,5,10,0:0:0:0:
299,329,86286,1,2,0:0:0:0:
336,355,86372,1,2,0:0:0:0:
381,358,86458,1,2,0:0:0:0:
417,330,86544,6,0,B|424:240|451:285|462:190,1,140,2|8,1:2|0:0,0:0:0:0:
398,151,87058,1,2,1:2:0:0:
449,2,87229,1,2,0:0:0:0:
449,2,87315,1,2,0:0:0:0:
449,2,87401,1,2,1:2:0:0:
484,127,87572,1,10,0:0:0:0:
459,96,87658,1,2,1:2:0:0:
425,77,87744,1,2,0:0:0:0:
387,69,87829,1,2,0:0:0:0:
349,77,87915,6,0,P|297:85|228:85,1,105,6|2,1:2|0:0,0:0:0:0:
244,86,88258,2,0,P|247:146|245:180,1,70,8|2,0:0|0:0,0:0:0:0:
118,214,88601,1,2,1:2:0:0:
118,175,88686,1,2,0:0:0:0:
120,136,88772,1,2,0:0:0:0:
123,97,88858,1,2,0:0:0:0:
127,58,88944,1,10,0:0:0:0:
8,139,89115,1,2,0:0:0:0:
8,139,89201,1,2,0:0:0:0:
8,139,89286,6,0,P|9:205|7:259,1,105,2|2,1:2|0:0,0:0:0:0:
7,243,89629,2,0,B|17:276|17:276|27:287|27:287|36:328,1,70,8|2,0:0|0:0,0:0:0:0:
169,384,89972,1,2,1:2:0:0:
177,346,90058,1,2,0:0:0:0:
185,308,90144,1,2,1:2:0:0:
190,270,90229,1,0,0:0:0:0:
193,231,90315,2,0,L|237:221,3,35,10|2|2|2,0:0|0:0|0:0|0:0,0:0:0:0:
286,268,90658,6,0,P|318:316|419:350,1,140,0|8,1:0|0:0,0:0:0:0:
464,310,91172,1,2,0:0:0:0:
371,150,91344,1,2,1:2:0:0:
383,129,91429,1,2,0:0:0:0:
405,119,91515,1,2,0:0:0:0:
429,119,91601,1,2,0:0:0:0:
452,126,91686,5,10,0:0:0:0:
476,164,91772,1,2,0:0:0:0:
470,209,91858,1,2,0:0:0:0:
433,235,91944,1,2,0:0:0:0:
388,228,92029,6,0,B|302:194|360:172|256:139,1,140,2|8,1:2|0:0,0:0:0:0:
219,81,92544,1,2,1:2:0:0:
352,0,92715,2,0,L|338:55,3,35,2|2|2|2,0:0|0:0|1:2|0:0,0:0:0:0:
394,87,93058,2,0,L|383:135,3,35,10|2|2|2,0:0|1:2|0:0|0:0,0:0:0:0:
388,198,93401,5,6,1:2:0:0:
350,192,93486,1,2,0:0:0:0:
321,218,93572,1,2,0:0:0:0:
295,189,93658,1,2,0:0:0:0:
257,199,93744,1,8,0:0:0:0:
260,161,93829,1,2,0:0:0:0:
224,145,93915,1,2,0:0:0:0:
252,119,94001,1,2,0:0:0:0:
239,83,94086,2,0,L|213:38,3,35,2|2|2|2,1:2|0:0|0:0|0:0,0:0:0:0:
143,40,94429,2,0,L|127:8,3,35,10|2|2|2,0:0|0:0|0:0|0:0,0:0:0:0:
91,92,94772,5,2,1:2:0:0:
53,102,94858,1,2,0:0:0:0:
80,129,94944,1,2,0:0:0:0:
53,155,95029,1,2,0:0:0:0:
69,189,95115,1,8,0:0:0:0:
43,217,95201,1,2,0:0:0:0:
46,255,95286,1,2,0:0:0:0:
30,290,95372,1,2,0:0:0:0:
25,328,95458,2,0,L|13:380,3,35,2|2|2|2,1:2|0:0|1:2|0:0,0:0:0:0:
96,363,95801,2,0,L|152:375,3,35,10|2|2|2,0:0|0:0|0:0|0:0,0:0:0:0:
219,362,96144,5,2,1:2:0:0:
222,323,96229,1,2,0:0:0:0:
189,298,96315,1,2,0:0:0:0:
178,262,96401,1,2,0:0:0:0:
140,255,96486,2,0,L|133:208,3,35,8|2|2|2,0:0|0:0|0:0|0:0,0:0:0:0:
183,159,96829,1,2,1:2:0:0:
222,156,96914,1,2,0:0:0:0:
244,189,97000,1,2,0:0:0:0:
283,200,97086,1,2,0:0:0:0:
290,238,97171,2,0,L|337:245,3,35,10|2|2|2,0:0|0:0|0:0|0:0,0:0:0:0:
380,295,97515,5,2,1:2:0:0:
407,273,97600,1,2,0:0:0:0:
414,240,97686,1,2,0:0:0:0:
444,214,97772,1,2,0:0:0:0:
453,180,97857,1,8,0:0:0:0:
467,142,97943,1,2,0:0:0:0:
446,111,98029,1,2,1:2:0:0:
432,79,98115,1,2,0:0:0:0:
397,62,98200,1,2,0:0:0:0:
385,29,98286,1,2,0:0:0:0:
354,12,98372,1,2,1:2:0:0:
309,17,98457,1,2,0:0:0:0:
286,1,98543,1,10,0:0:0:0:
251,7,98629,1,2,1:2:0:0:
205,11,98715,1,2,0:0:0:0:
190,40,98800,1,2,0:0:0:0:
149,65,98886,5,4,1:0:0:0:
