osu file format v14

[General]
AudioFilename: audio.mp3
AudioLeadIn: 0
PreviewTime: 178629
Countdown: 1
SampleSet: Soft
StackLeniency: 0.4
Mode: 0
LetterboxInBreaks: 0
WidescreenStoryboard: 0

[Editor]
Bookmarks: 44676,67001,312583,341885
DistanceSpacing: 1.7
BeatDivisor: 4
GridSize: 32
TimelineZoom: 1

[Metadata]
Title:The Journey (feat. Veela)
TitleUnicode:The Journey (feat. Veela)
Artist:Feint
ArtistUnicode:Feint
Creator:Strategas
Version:Goodbye
Source:
Tags:dnb drum & and bass liquicity memoirs
BeatmapID:1614042
BeatmapSetID:767797

[Difficulty]
HPDrainRate:6
CircleSize:3.7
OverallDifficulty:8.7
ApproachRate:9.3
SliderMultiplier:1.8
SliderTickRate:1

[Events]
//Background and Video events
0,0,"L15.jpg",0,0
//Break Periods
2,44876,63611
2,134178,152913
//Storyboard Layer 0 (Background)
//Storyboard Layer 1 (Fail)
//Storyboard Layer 2 (Pass)
//Storyboard Layer 3 (Foreground)
//Storyboard Sound Samples

[TimingPoints]
25,348.837209302326,4,2,25,70,1,0
25,-200,4,2,25,35,0,0
635,-200,4,2,25,5,0,0
809,-200,4,2,25,35,0,0
2030,-200,4,2,25,5,0,0
2204,-200,4,2,25,35,0,0
3426,-200,4,2,25,5,0,0
3600,-200,4,2,25,35,0,0
4821,-200,4,2,25,5,0,0
4995,-200,4,2,25,35,0,0
6216,-200,4,2,25,5,0,0
6390,-200,4,2,25,35,0,0
7612,-200,4,2,25,5,0,0
7786,-200,4,2,25,35,0,0
9007,-200,4,2,25,5,0,0
9181,-200,4,2,25,35,0,0
9705,-200,4,2,25,5,0,0
9879,-200,4,2,25,35,0,0
10402,-200,4,2,25,5,0,0
10576,-200,4,2,25,35,0,0
12495,-200,4,2,25,5,0,0
12669,-200,4,2,25,35,0,0
13193,-200,4,2,25,5,0,0
13367,-200,4,2,25,35,0,0
14588,-200,4,2,25,5,0,0
14762,-200,4,2,25,35,0,0
15286,-200,4,2,25,5,0,0
15460,-200,4,2,25,35,0,0
22350,-333.333333333333,4,2,25,35,0,0
22437,-333.333333333333,4,2,25,5,0,0
25141,-333.333333333333,4,2,25,35,0,0
25228,-333.333333333333,4,2,25,5,0,0
27931,-333.333333333333,4,2,25,35,0,0
28018,-333.333333333333,4,2,25,5,0,0
29327,-333.333333333333,4,2,25,35,0,0
29414,-333.333333333333,4,2,25,5,0,0
30722,-333.333333333333,4,2,25,35,0,0
30809,-333.333333333333,4,2,25,5,0,0
33513,-333.333333333333,4,2,25,35,0,0
33600,-333.333333333333,4,2,25,5,0,0
36304,-333.333333333333,4,2,25,35,0,0
36391,-333.333333333333,4,2,25,5,0,0
39094,-333.333333333333,4,2,25,35,0,0
39181,-333.333333333333,4,2,25,5,0,0
40490,-333.333333333333,4,2,25,35,0,0
40577,-333.333333333333,4,2,25,5,0,0
41885,-333.333333333333,4,2,25,35,0,0
67001,-111.111111111111,4,2,0,55,0,0
89327,-50,4,2,25,70,0,1
92118,-100,4,2,25,70,0,1
94908,-40,4,2,25,70,0,1
97699,-50,4,2,25,70,0,1
100490,-100,4,2,25,70,0,1
103280,-40,4,2,25,70,0,1
106071,-66.6666666666667,4,2,25,70,0,1
111652,-50,4,2,25,70,0,1
114443,-100,4,2,25,70,0,1
117234,-40,4,2,25,70,0,1
120025,-50,4,2,25,70,0,1
122815,-100,4,2,25,70,0,1
125606,-40,4,2,25,70,0,1
128397,-66.6666666666667,4,2,25,70,0,1
133978,-200,4,2,25,70,0,0
153513,-200,4,2,25,40,0,0
178629,-50,4,2,25,75,0,1
181420,-100,4,2,25,75,0,1
184210,-40,4,2,25,75,0,1
187001,-50,4,2,25,75,0,1
189792,-100,4,2,25,75,0,1
192582,-40,4,2,25,75,0,1
195373,-66.6666666666667,4,2,25,75,0,1
200954,-50,4,2,25,75,0,1
203745,-100,4,2,25,75,0,1
206536,-40,4,2,25,75,0,1
209327,-50,4,2,25,75,0,1
212117,-100,4,2,25,75,0,1
214908,-40,4,2,25,75,0,1
217699,-66.6666666666667,4,2,25,75,0,1
223106,-100,4,2,25,70,0,0
223280,-50,4,2,25,70,0,1
226071,-100,4,2,25,70,0,1
228861,-40,4,2,25,70,0,1
231652,-50,4,2,25,70,0,1
234443,-100,4,2,25,70,0,1
237233,-40,4,2,25,70,0,1
240024,-66.6666666666667,4,2,25,70,0,1
245605,-50,4,2,25,70,0,1
248396,-100,4,2,25,70,0,1
251187,-40,4,2,25,70,0,1
253978,-50,4,2,25,70,0,1
256768,-100,4,2,25,70,0,1
259559,-40,4,2,25,70,0,1
262350,-66.6666666666667,4,2,25,70,0,1
267931,-200,4,2,25,50,0,0
272030,-200,4,2,25,5,0,0
272554,-200,4,2,25,50,0,0
274821,-200,4,2,25,5,0,0
275345,-200,4,2,25,50,0,0
276391,-200,4,2,25,5,0,0
276915,-200,4,2,25,50,0,0
277437,-200,4,2,25,5,0,0
277961,-200,4,2,25,50,0,0
283019,-200,4,2,25,5,0,0
283543,-200,4,2,25,50,0,0
290257,-200,4,2,25,55,0,0
291740,-200,4,2,25,5,0,0
292263,-200,4,2,25,55,0,0
336740,-200,4,2,25,5,0,0

[Colours]
Combo1 : 121,124,236
Combo2 : 248,185,54
Combo3 : 255,128,0
Combo4 : 243,22,78
Combo5 : 251,57,91
Combo6 : 255,0,255
Combo7 : 223,21,133
Combo8 : 60,60,255

[HitObjects]
193,222,25,101,4,0:0:0:0:
120,152,373,2,0,P|166:129|186:227,1,180,0|0,0:0|0:0,0:0:0:0:
193,222,1769,2,0,P|188:300|267:292,1,180,0|0,0:0|0:0,0:0:0:0:
193,222,2815,5,2,0:0:0:0:
17,221,3164,2,0,B|116:247|94:189|194:222,1,180,0|0,0:0|0:0,0:0:0:0:
192,221,4559,2,0,B|290:253|268:195|367:221,1,180,0|0,0:0|0:0,0:0:0:0:
192,221,5606,101,2,0:0:0:0:
261,146,5955,2,0,P|183:141|191:220,1,180,0|0,0:0|0:0,0:0:0:0:
36,202,7001,6,0,B|41:186|-14:206|-3:316|156:332|193:216,1,270,2|0,0:0|0:0,0:0:0:0:
506,96,8397,102,0,B|411:182|265:113|265:113|158:112|104:155|104:155|167:129|249:131|309:167,1,630,2|0,0:0|0:0,0:0:0:0:
505,185,11187,6,0,P|511:140|506:96,1,90,2|0,0:0|0:0,0:0:0:0:
446,37,11885,1,0,0:0:0:0:
366,67,12234,2,0,P|308:50|185:63,2,180,0|0|0,0:0|0:0|0:0,0:0:0:0:
190,61,13978,101,2,0:0:0:0:
126,116,14327,2,0,B|94:214|152:192|126:291,2,180,0|0|0,0:0|0:0|0:0,0:0:0:0:
36,116,16071,2,0,P|80:121|125:115,1,90,0|0,0:0|0:0,0:0:0:0:
226,71,16769,5,2,0:0:0:0:
200,153,18164,101,2,0:0:0:0:
226,235,19559,5,2,0:0:0:0:
200,317,20955,101,2,0:0:0:0:
256,192,21042,12,0,22001,0:0:0:0:
107,129,22350,6,0,B|235:84|221:160|366:121|366:121|331:139|304:162|298:214,1,377.999988464356,2|0,0:0|0:0,0:0:0:0:
299,208,25141,102,0,B|315:118|431:106|431:106|417:164|417:164|434:218|434:218|420:298,1,377.999988464356,2|0,0:0|0:0,0:0:0:0:
420,297,27931,6,0,P|351:322|263:295,1,161.999995056153,2|0,0:0|0:0,0:0:0:0:
268,298,29327,2,0,P|191:274|115:298,1,161.999995056153,2|0,0:0|0:0,0:0:0:0:
115,298,30722,102,0,B|195:250|268:299|268:299|354:348|425:294,1,323.999990112305,2|0,0:0|0:0,0:0:0:0:
115,298,33513,6,0,B|25:282|13:166|13:166|71:180|71:180|125:163|125:163|205:177,1,377.999988464356,2|0,0:0|0:0,0:0:0:0:
463,169,36304,102,0,B|335:214|349:138|204:177|204:177|239:159|266:136|272:84,1,377.999988464356,2|0,0:0|0:0,0:0:0:0:
204,177,39094,6,0,P|180:254|205:330,1,161.999995056153,2|0,0:0|0:0,0:0:0:0:
204,177,40490,2,0,P|135:153|47:180,1,161.999995056153,2|0,0:0|0:0,0:0:0:0:
204,177,41885,2,0,P|228:108|201:20,1,161.999995056153,2|0,0:0|0:0,0:0:0:0:
204,177,43280,2,0,P|273:201|361:174,1,161.999995056153,2|0,0:0|0:0,0:0:0:0:
464,43,44676,5,4,0:0:0:0:
256,192,64211,12,0,66827,0:0:0:0:
156,143,67001,6,0,P|204:122|331:137,1,161.999995056153,4|8,0:0|0:0,0:0:0:0:
369,191,67525,1,2,0:0:0:0:
368,203,67612,1,0,3:0:0:0:
367,215,67699,1,2,0:0:0:0:
366,227,67786,1,0,3:0:0:0:
365,239,67873,1,2,0:3:0:0:
496,146,68048,2,0,P|459:128|420:123,1,80.9999975280763,8|0,0:0|0:0,0:0:0:0:
209,66,68397,102,0,L|211:23,2,40.4999987640381,2|2|2,0:3|0:0|0:0,0:0:0:0:
143,120,68745,2,0,L|100:118,2,40.4999987640381,8|2|2,0:0|0:0|0:0,0:0:0:0:
203,179,69094,2,0,L|201:222,2,40.4999987640381,2|0|2,0:0|3:0|0:3,0:0:0:0:
270,126,69443,2,0,L|313:128,2,40.4999987640381,8|2|2,0:0|0:0|0:0,0:0:0:0:
379,178,69792,6,0,P|395:227|383:342,1,161.999995056153,2|8,0:3|0:0,0:0:0:0:
226,312,70315,1,2,0:0:0:0:
246,313,70402,1,0,3:0:0:0:
265,317,70489,1,2,0:0:0:0:
284,325,70576,1,0,3:0:0:0:
302,335,70664,1,2,0:3:0:0:
154,268,70838,2,0,P|159:228|177:191,1,80.9999975280763,8|0,0:0|0:0,0:0:0:0:
345,74,71187,102,0,P|347:52|343:31,2,40.4999987640381,2|2|2,0:3|0:0|0:0,0:0:0:0:
411,128,71536,2,0,P|431:123|454:126,2,40.4999987640381,8|2|2,0:0|0:0|0:0,0:0:0:0:
351,187,71885,2,0,P|348:207|353:230,2,40.4999987640381,2|0|2,0:0|3:0|0:3,0:0:0:0:
284,134,72234,2,0,P|263:138|241:136,2,40.4999987640381,8|2|2,0:0|0:0|0:0,0:0:0:0:
182,80,72583,5,2,0:3:0:0:
107,116,72757,1,0,0:0:0:0:
0,47,72931,1,8,0:0:0:0:
32,152,73106,1,2,0:0:0:0:
31,164,73193,1,0,3:0:0:0:
30,176,73280,2,0,B|21:216|21:216|28:259,1,80.9999975280763,2|2,0:0|0:3,0:0:0:0:
185,220,73629,2,0,B|145:211|145:211|106:218,1,80.9999975280763,8|2,0:0|0:0,0:0:0:0:
260,179,73978,69,2,0:3:0:0:
261,167,74065,1,2,0:0:0:0:
262,155,74152,1,2,0:0:0:0:
336,114,74327,21,8,0:0:0:0:
337,96,74414,1,2,0:0:0:0:
339,78,74501,1,2,0:0:0:0:
397,172,74676,21,2,0:0:0:0:
395,196,74763,1,0,3:0:0:0:
393,220,74850,1,2,0:3:0:0:
474,69,75025,21,8,0:0:0:0:
471,99,75112,1,2,0:0:0:0:
469,129,75199,1,2,0:0:0:0:
269,29,75373,54,0,P|220:13|105:25,1,161.999995056153,2|8,0:3|0:0,0:0:0:0:
53,102,75897,1,2,0:0:0:0:
54,122,75984,1,0,3:0:0:0:
58,141,76071,2,0,P|94:158|134:163,1,80.9999975280763,2|2,0:0|0:3,0:0:0:0:
204,208,76333,1,0,0:0:0:0:
196,225,76420,2,0,P|159:242|119:247,1,80.9999975280763,8|0,0:0|0:0,0:0:0:0:
269,154,76769,85,2,0:3:0:0:
289,155,76856,1,2,0:0:0:0:
308,159,76943,1,2,0:0:0:0:
417,226,77118,21,8,0:0:0:0:
392,225,77205,1,2,0:0:0:0:
367,220,77292,1,2,0:0:0:0:
370,103,77466,21,2,0:0:0:0:
369,71,77553,1,0,3:0:0:0:
362,40,77640,1,2,0:3:0:0:
303,275,77815,21,8,0:0:0:0:
304,312,77902,1,2,0:0:0:0:
312,349,77989,1,2,0:0:0:0:
246,205,78164,54,0,B|162:187|170:224|83:201,1,161.999995056153,2|8,0:3|0:0,0:0:0:0:
136,42,78688,1,2,0:0:0:0:
141,61,78775,1,0,3:0:0:0:
143,80,78862,1,2,0:0:0:0:
141,101,78949,1,0,3:0:0:0:
137,121,79036,1,2,0:3:0:0:
269,34,79211,6,0,P|348:43|418:83,1,161.999995056153,8|2,0:0|0:3,0:0:0:0:
426,95,79647,1,2,0:0:0:0:
431,107,79734,1,2,0:0:0:0:
269,160,79908,2,0,P|305:143|346:138,1,80.9999975280763,8|0,0:0|0:0,0:0:0:0:
491,167,80257,2,0,P|494:186|495:207,2,40.4999987640381,2|0|2,0:0|3:0|0:3,0:0:0:0:
336,224,80606,1,8,0:0:0:0:
338,243,80693,1,2,0:0:0:0:
343,262,80780,1,2,0:0:0:0:
269,160,80955,102,0,B|189:150|189:150|101:164,2,161.999995056153,2|8|2,0:3|0:0|0:0,0:0:0:0:
269,160,82001,86,0,B|349:147|349:147|429:157,1,161.999995056153,8|2,0:0|0:3,0:0:0:0:
446,160,82437,1,2,0:0:0:0:
462,163,82525,1,2,0:0:0:0:
404,242,82699,22,0,L|363:238,2,40.4999987640381,8|2|2,0:0|0:0|0:0,0:0:0:0:
269,160,83048,21,2,0:0:0:0:
249,161,83135,1,0,3:0:0:0:
230,165,83222,1,2,0:3:0:0:
121,232,83397,21,8,0:0:0:0:
146,231,83484,1,2,0:0:0:0:
171,226,83571,1,2,0:0:0:0:
173,102,83745,54,0,B|93:92|93:92|5:106,2,161.999995056153,2|8|2,0:3|0:0|0:0,0:0:0:0:
173,102,84792,2,0,B|234:112|234:112|325:104,1,121.499996292114,8|0,0:0|0:0,0:0:0:0:
307,95,85141,85,2,0:0:0:0:
308,77,85228,1,0,3:0:0:0:
310,59,85315,1,2,0:3:0:0:
214,189,85490,21,8,0:0:0:0:
212,213,85577,1,2,0:0:0:0:
210,237,85664,1,2,0:0:0:0:
173,102,85839,21,2,0:0:0:0:
174,84,85926,1,0,3:0:0:0:
176,66,86013,1,2,0:3:0:0:
122,175,86187,21,8,0:0:0:0:
121,187,86274,1,2,0:0:0:0:
120,199,86361,1,2,0:0:0:0:
291,146,86536,53,2,0:3:0:0:
173,102,86711,1,2,0:0:0:0:
162,306,86885,1,8,0:0:0:0:
280,262,87059,1,2,0:0:0:0:
280,262,87147,1,0,3:0:0:0:
280,262,87234,1,2,0:0:0:0:
280,262,87321,1,0,3:0:0:0:
280,262,87408,1,2,0:3:0:0:
173,102,87583,1,8,0:0:0:0:
291,146,87757,1,2,0:0:0:0:
291,146,87844,1,0,3:0:0:0:
291,146,87931,5,2,0:3:0:0:
409,102,88106,1,2,0:0:0:0:
173,102,88280,1,8,0:0:0:0:
291,46,88455,1,2,0:0:0:0:
291,46,88542,1,0,3:0:0:0:
291,46,88629,1,2,0:0:0:0:
291,46,88716,1,0,3:0:0:0:
291,46,88804,1,2,0:3:0:0:
291,146,88978,2,0,L|293:203,1,40.4999987640381,8|0,0:0|0:0,0:0:0:0:
296,286,89152,1,2,0:0:0:0:
147,184,89327,6,0,B|182:141|189:104|189:104|207:263|177:387,1,360,4|8,0:0|0:1,0:0:0:0:
304,293,89850,1,2,0:0:0:0:
304,293,89937,1,0,3:0:0:0:
304,293,90025,1,2,0:0:0:0:
87,98,90199,1,2,0:3:0:0:
398,55,90373,2,0,B|416:109|416:109|400:231,1,180,8|0,0:1|0:0,0:0:0:0:
510,285,90722,6,0,P|431:308|400:232,1,180,2|0,0:3|0:0,0:0:0:0:
199,128,91071,2,0,P|278:105|309:181,1,180,8|0,0:1|0:0,0:0:0:0:
132,202,91333,1,2,0:3:0:0:
132,202,91420,2,0,P|107:165|100:108,1,90,2|0,0:0|0:0,0:0:0:0:
152,36,91594,1,2,0:3:0:0:
420,128,91769,2,0,P|340:105|309:181,1,180,8|0,0:1|0:0,0:0:0:0:
318,323,92118,38,0,L|183:315,1,135,2|0,0:3|0:0,0:0:0:0:
132,378,92466,2,0,B|163:282|109:296|134:188,1,180,8|2,0:1|0:0,0:0:0:0:
152,36,92990,1,2,0:3:0:0:
311,213,93164,2,0,P|270:230|226:239,1,90,8|0,0:1|0:0,0:0:0:0:
45,226,93513,6,0,P|86:208|130:200,1,90,2|0,0:3|0:0,0:0:0:0:
402,258,93862,1,8,0:1:0:0:
311,213,94036,1,2,0:0:0:0:
311,200,94123,2,0,L|314:143,1,45,2|2,0:3|0:0,0:0:0:0:
379,81,94298,1,0,3:0:0:0:
379,68,94385,1,2,0:3:0:0:
31,131,94559,1,8,0:1:0:0:
402,258,94734,1,2,0:3:0:0:
11,380,94908,70,0,B|30:131|30:131|126:184|126:184|120:282,1,450,4|8,0:0|0:1,0:0:0:0:
129,87,95431,1,2,0:0:0:0:
206,55,95518,1,0,3:0:0:0:
290,62,95605,1,2,0:0:0:0:
361,104,95692,1,0,3:0:0:0:
407,174,95779,1,2,0:3:0:0:
55,258,95955,2,0,B|84:135|20:145|50:29,1,225,8|0,0:1|0:0,0:0:0:0:
346,325,96304,6,0,B|263:336|263:336|209:315|209:315|127:328,1,225,2|0,0:3|0:0,0:0:0:0:
267,11,96652,2,0,B|238:134|302:124|274:233,1,225,8|0,0:1|0:0,0:0:0:0:
55,258,96914,1,2,0:3:0:0:
72,181,97001,2,0,P|127:172|183:181,1,112.5,2|0,0:0|0:0,0:0:0:0:
242,328,97176,1,2,0:3:0:0:
403,174,97350,2,0,B|280:145|290:209|181:180,1,225,8|0,0:1|0:0,0:0:0:0:
156,101,97612,1,0,3:0:0:0:
160,89,97699,70,0,P|229:70|177:178,1,270,2|0,0:3|0:0,0:0:0:0:
275,59,98048,2,0,P|357:51|458:69,1,180,8|0,0:1|0:0,0:0:0:0:
502,141,98309,1,0,3:0:0:0:
502,141,98397,1,2,0:0:0:0:
181,180,98571,1,2,0:3:0:0:
499,377,98745,6,0,B|512:259|500:136|500:136|494:199|464:248,1,360,8|2,0:1|0:0,0:0:0:0:
368,377,99269,1,2,0:3:0:0:
146,309,99443,2,0,B|133:191|145:68|145:68|151:131|181:180,1,360,8|2,0:1|0:0,0:0:0:0:
368,377,99966,1,2,0:3:0:0:
251,94,100141,1,8,0:1:0:0:
52,343,100315,1,2,0:3:0:0:
436,305,100490,38,0,P|453:244|439:171,1,135,4|0,0:0|0:0,0:0:0:0:
360,203,100838,1,8,0:1:0:0:
251,94,101013,1,2,0:0:0:0:
283,82,101100,1,0,0:0:0:0:
316,77,101187,1,2,0:0:0:0:
350,80,101274,1,0,0:0:0:0:
382,90,101361,1,2,0:3:0:0:
168,38,101536,2,0,P|102:25|37:42,1,135,8|0,0:1|0:0,0:0:0:0:
0,117,101885,6,0,L|2:216,1,90,2|0,0:3|0:0,0:0:0:0:
77,362,102234,2,0,L|76:273,1,90,8|0,0:1|0:0,0:0:0:0:
138,218,102495,1,2,0:3:0:0:
150,211,102583,2,0,L|152:152,1,45,2|0,0:0|0:0,0:0:0:0:
209,293,102757,1,2,0:3:0:0:
362,102,102931,2,0,P|296:89|232:107,1,135,8|0,0:1|0:0,0:0:0:0:
287,8,103280,70,0,B|306:257|306:257|402:204|402:204|396:106,1,450,2|8,0:3|0:1,0:0:0:0:
153,38,103804,1,2,0:0:0:0:
68,65,103891,1,0,3:0:0:0:
68,155,103978,1,2,0:0:0:0:
153,183,104065,1,0,3:0:0:0:
206,110,104152,1,2,0:3:0:0:
403,334,104327,2,0,B|432:211|368:221|398:105,1,225,8|0,0:1|0:0,0:0:0:0:
93,274,104676,6,0,B|176:285|176:285|230:264|230:264|312:277,1,225,2|0,0:3|0:0,0:0:0:0:
8,106,105024,2,0,B|37:229|-27:219|1:328,1,225,8|0,0:1|0:0,0:0:0:0:
231,352,105286,1,2,0:3:0:0:
203,274,105373,2,0,P|148:265|93:274,1,112.5,2|0,0:0|0:0,0:0:0:0:
5,325,105548,1,2,0:3:0:0:
394,222,105722,1,8,0:1:0:0:
8,106,105897,1,2,0:3:0:0:
453,24,106071,38,0,B|459:87|459:87|466:97|466:97|469:157,1,135.000005149842,4|0,0:0|0:0,0:0:0:0:
482,353,106420,1,8,0:1:0:0:
394,222,106594,1,2,0:0:0:0:
369,223,106681,1,0,0:0:0:0:
344,224,106769,1,2,0:0:0:0:
319,225,106855,1,0,0:0:0:0:
294,226,106943,1,2,0:3:0:0:
469,157,107118,1,8,0:1:0:0:
216,289,107292,1,2,0:0:0:0:
191,290,107379,1,0,3:0:0:0:
166,291,107467,5,2,0:3:0:0:
34,235,107641,1,2,0:0:0:0:
59,234,107728,1,0,3:0:0:0:
84,233,107816,1,8,0:1:0:0:
296,350,107990,1,2,0:0:0:0:
297,361,108077,1,2,0:3:0:0:
235,148,108251,1,0,3:0:0:0:
234,137,108338,1,2,0:3:0:0:
443,252,108513,2,0,B|334:293|355:223|222:264,1,202.500007724762,8|0,0:1|0:0,0:0:0:0:
252,269,108862,102,0,P|338:196|235:148,1,270.000010299683,2|8,0:3|0:1,0:0:0:0:
433,154,109385,1,2,0:0:0:0:
437,150,109472,1,0,3:0:0:0:
440,145,109559,2,0,P|423:116|401:91,1,67.5000025749208,2|0,0:0|0:0,0:0:0:0:
167,75,109734,1,2,0:3:0:0:
190,356,109908,2,0,B|299:397|278:327|411:368,1,202.500007724762,8|0,0:1|0:0,0:0:0:0:
471,383,110257,5,2,0:0:0:0:
252,269,110431,2,0,L|262:171,1,67.5000025749208,2|0,0:3|0:0,0:0:0:0:
273,103,110606,1,8,0:1:0:0:
198,363,110780,1,2,0:0:0:0:
198,363,110868,1,2,0:0:0:0:
198,363,110955,1,2,0:0:0:0:
512,293,111129,1,2,0:3:0:0:
181,138,111304,1,8,0:1:0:0:
503,75,111478,1,2,0:3:0:0:
161,237,111652,6,0,P|82:127|252:66,1,360,4|8,0:0|0:1,0:0:0:0:
257,268,112176,1,2,0:0:0:0:
246,311,112263,1,0,0:0:0:0:
220,348,112350,1,2,0:0:0:0:
183,373,112437,1,0,0:0:0:0:
140,383,112524,1,2,0:3:0:0:
331,191,112699,2,0,B|413:194|413:194|431:188|431:188|515:193,1,180,8|0,0:1|0:0,0:0:0:0:
64,270,113048,6,0,B|62:202|62:202|86:166|86:166|82:83,1,180,2|0,0:3|0:0,0:0:0:0:
339,231,113397,2,0,B|257:234|257:234|239:228|239:228|161:233,1,180,8|0,0:1|0:0,0:0:0:0:
255,112,113658,1,2,0:3:0:0:
276,133,113745,2,0,L|370:129,1,90,2|0,0:0|0:0,0:0:0:0:
457,90,113920,1,2,0:3:0:0:
82,97,114094,1,8,0:1:0:0:
161,233,114269,1,2,0:0:0:0:
169,309,114356,1,2,0:0:0:0:
156,384,114443,38,0,P|91:378|11:339,1,135,2|0,0:3|0:0,0:0:0:0:
169,309,114792,2,0,P|234:303|314:264,1,135,8|0,0:1|0:0,0:0:0:0:
161,233,115141,1,2,0:0:0:0:
318,353,115315,1,2,0:3:0:0:
368,26,115490,1,8,0:1:0:0:
433,116,115664,1,2,0:0:0:0:
433,116,115751,1,0,3:0:0:0:
433,116,115838,5,2,0:3:0:0:
272,55,116013,1,2,0:0:0:0:
318,353,116187,1,8,0:1:0:0:
462,335,116362,1,2,0:0:0:0:
454,318,116449,2,0,L|398:312,1,45,2|2,0:3|0:0,0:0:0:0:
184,319,116623,1,0,3:0:0:0:
192,302,116710,2,0,L|248:296,1,45,2|0,0:3|0:0,0:0:0:0:
328,252,116885,1,8,0:1:0:0:
174,20,117059,1,2,0:3:0:0:
68,129,117234,70,0,B|317:110|317:110|264:14|264:14|166:20,1,450,4|8,0:0|0:1,0:0:0:0:
121,263,117757,1,2,0:0:0:0:
148,348,117844,1,0,3:0:0:0:
238,348,117931,1,2,0:0:0:0:
266,263,118018,1,0,3:0:0:0:
193,210,118105,1,2,0:3:0:0:
481,257,118280,2,0,B|486:173|486:173|461:121|461:121|468:38,1,225,8|0,0:1|0:0,0:0:0:0:
240,121,118629,6,0,B|131:92|141:156|18:127,1,225,2|0,0:3|0:0,0:0:0:0:
319,277,118978,2,0,B|313:193|313:193|338:141|338:141|331:58,1,225,8|0,0:1|0:0,0:0:0:0:
476,170,119240,1,2,0:3:0:0:
414,216,119327,2,0,L|421:333,1,112.5,2|0,0:0|0:0,0:0:0:0:
484,372,119501,1,2,0:3:0:0:
240,121,119676,2,0,B|156:115|156:115|104:140|104:140|21:133,1,225,8|0,0:1|0:0,0:0:0:0:
149,315,120025,70,0,P|254:290|169:223,1,270,2|0,0:3|0:0,0:0:0:0:
245,350,120373,2,0,B|311:348|311:348|344:330|344:330|423:328,1,180,8|0,0:1|0:0,0:0:0:0:
504,355,120635,1,0,3:0:0:0:
512,355,120722,1,2,0:0:0:0:
452,156,120897,1,2,0:3:0:0:
152,315,121071,2,0,P|46:290|131:223,1,270,8|0,0:1|0:0,0:0:0:0:
250,294,121420,5,2,0:0:0:0:
252,322,121507,1,0,3:0:0:0:
245,350,121594,1,2,0:3:0:0:
306,210,121769,2,0,B|371:212|371:212|406:196|406:196|485:200,1,180,8|0,0:1|0:0,0:0:0:0:
510,104,122030,1,0,3:0:0:0:
502,103,122118,2,0,L|411:98,1,90,2|0,0:0|0:0,0:0:0:0:
145,134,122292,2,0,L|235:139,1,90,2|0,0:3|0:0,0:0:0:0:
512,307,122466,2,0,L|422:302,1,90,8|0,0:1|0:0,0:0:0:0:
155,345,122641,2,0,L|244:349,1,90,2|0,0:3|0:0,0:0:0:0:
306,210,122815,37,4,0:0:0:0:
235,139,122990,1,2,0:0:0:0:
155,345,123164,1,8,0:1:0:0:
101,261,123338,2,0,L|56:264,2,45,2|2|2,0:0|0:0|0:0,0:0:0:0:
164,68,123687,1,2,0:3:0:0:
377,281,123862,1,8,0:1:0:0:
377,281,124211,6,0,B|435:276|435:276|445:283|445:283|519:277,1,135,2|0,0:3|0:0,0:0:0:0:
390,196,124559,2,0,P|371:236|376:280,1,90,8|0,0:1|0:0,0:0:0:0:
328,367,124821,1,2,0:3:0:0:
321,379,124908,2,0,P|264:372|236:361,1,45,2|0,0:0|0:0,0:0:0:0:
199,313,125083,1,2,0:3:0:0:
356,103,125257,2,0,B|414:98|414:98|424:105|424:105|498:99,1,135,8|0,0:1|0:0,0:0:0:0:
492,79,125606,70,0,B|243:102|243:102|298:197|298:197|395:189,1,450,2|8,0:3|0:1,0:0:0:0:
281,280,126129,1,2,0:0:0:0:
204,312,126216,1,0,3:0:0:0:
120,305,126303,1,2,0:0:0:0:
49,263,126390,1,0,3:0:0:0:
3,193,126477,1,2,0:3:0:0:
281,20,126652,2,0,B|295:193|295:193|263:137,1,225,8|0,0:1|0:0,0:0:0:0:
383,358,127001,6,0,B|376:275|376:275|400:222|400:222|392:140,1,225,2|0,0:3|0:0,0:0:0:0:
183,2,127350,2,0,B|189:85|189:85|165:138|165:138|174:220,1,225,8|0,0:1|0:0,0:0:0:0:
120,305,127612,1,2,0:3:0:0:
70,365,127699,2,0,L|60:248,1,112.5,2|0,0:0|0:0,0:0:0:0:
270,150,127873,1,2,0:3:0:0:
477,296,128048,1,8,0:1:0:0:
277,154,128222,1,2,0:3:0:0:
496,4,128397,38,0,P|513:64|482:138,1,135.000005149842,4|0,0:0|0:0,0:0:0:0:
395,6,128745,1,8,0:1:0:0:
402,182,128920,1,2,0:0:0:0:
369,189,129007,1,0,0:0:0:0:
335,187,129094,1,2,0:0:0:0:
303,176,129181,1,0,0:0:0:0:
277,154,129268,1,2,0:3:0:0:
476,249,129443,2,0,B|482:312|482:312|489:322|489:322|492:382,1,135.000005149842,8|0,0:1|0:0,0:0:0:0:
150,146,129792,6,0,P|210:129|284:160,1,135.000005149842,2|0,0:3|0:0,0:0:0:0:
395,361,130141,1,8,0:1:0:0:
201,319,130315,1,2,0:0:0:0:
204,273,130402,1,0,3:0:0:0:
207,227,130490,1,2,0:0:0:0:
298,341,130664,1,2,0:3:0:0:
104,297,130838,1,8,0:1:0:0:
304,249,131013,1,2,0:0:0:0:
301,295,131100,1,0,3:0:0:0:
298,341,131187,102,0,B|413:373|391:314|502:331,1,202.500007724762,2|0,0:3|0:0,0:0:0:0:
504,336,131536,2,0,B|498:273|498:273|491:263|491:263|488:203,1,135.000005149842,8|0,0:1|0:0,0:0:0:0:
423,127,131798,1,0,3:0:0:0:
422,109,131885,1,2,0:0:0:0:
304,249,132059,1,2,0:3:0:0:
488,203,132234,1,8,0:1:0:0:
403,259,132408,1,2,0:0:0:0:
404,277,132495,1,0,3:0:0:0:
405,295,132583,5,2,0:0:0:0:
320,349,132757,1,0,3:0:0:0:
227,312,132931,1,8,0:0:0:0:
91,357,133106,1,2,0:0:0:0:
91,357,133193,1,2,0:0:0:0:
91,357,133280,1,2,0:0:0:0:
42,260,133455,1,0,3:0:0:0:
77,165,133629,1,8,0:0:0:0:
29,38,133804,1,2,0:0:0:0:
29,38,133891,1,2,0:0:0:0:
29,38,133978,69,2,0:0:0:0:
256,192,153513,12,2,156304,0:0:0:0:
308,141,156652,5,0,0:0:0:0:
308,141,157001,2,0,P|263:135|215:146,1,90,0|2,0:0|0:0,0:0:0:0:
151,193,157699,102,0,P|106:199|58:188,2,90,0|0|2,0:0|0:0|0:0,0:0:0:0:
212,252,158745,1,0,0:0:0:0:
351,20,159094,5,2,0:0:0:0:
351,20,159443,1,0,0:0:0:0:
369,102,159618,1,0,0:0:0:0:
287,119,159792,1,2,0:0:0:0:
305,201,159967,1,0,0:0:0:0:
451,85,160141,1,2,0:0:0:0:
205,136,160315,102,0,P|161:143|115:123,2,90
170,59,161187,1,2,0:0:0:0:
86,49,161362,1,0,0:0:0:0:
205,136,161536,1,0,0:0:0:0:
289,146,161711,1,0,0:0:0:0:
130,267,161885,6,0,P|87:280|35:270,1,90,2|0,0:0|0:0,0:0:0:0:
205,308,162408,2,0,P|179:344|131:368,1,90,0|0,0:0|0:0,0:0:0:0:
283,274,162931,102,0,B|328:260|369:289|369:289|418:300|459:271,1,180,2|0,0:0|0:0,0:0:0:0:
475,46,163978,1,2,0:0:0:0:
475,46,164327,1,2,0:0:0:0:
219,71,164676,6,0,P|176:84|124:74,1,90,2|0,0:0|0:0,0:0:0:0:
294,112,165199,2,0,P|268:148|220:172,1,90,0|0,0:0|0:0,0:0:0:0:
379,103,165722,2,0,P|381:147|358:195,1,90,2|0,0:0|0:0,0:0:0:0:
48,216,166420,101,0,0:0:0:0:
130,234,166595,1,0,0:0:0:0:
147,152,166769,1,2,0:0:0:0:
229,170,166944,1,0,0:0:0:0:
195,334,167118,1,0,0:0:0:0:
113,316,167292,1,0,0:0:0:0:
306,209,167466,6,0,P|342:234|366:282,1,90,2|0,0:0|0:0,0:0:0:0:
265,284,167990,2,0,P|278:327|268:379,1,90,0|0,0:0|0:0,0:0:0:0:
195,334,168513,1,2,0:0:0:0:
137,80,168862,101,0,0:0:0:0:
137,80,169559,1,2,0:0:0:0:
252,66,169908,1,0,0:0:0:0:
367,52,170257,6,0,L|372:88,2,22.5,2|0|0,0:0|0:0|0:0,0:0:0:0:
336,152,170606,2,0,L|331:188,2,22.5,0|0|0,0:0|0:0|0:0,0:0:0:0:
387,240,170955,1,2,0:0:0:0:
387,240,171304,1,2,0:0:0:0:
322,294,171478,102,0,P|278:296|224:273,1,90
189,99,172001,5,0,0:0:0:0:
171,181,172176,1,0,0:0:0:0:
253,198,172350,1,2,0:0:0:0:
235,280,172525,1,0,0:0:0:0:
89,164,172699,1,2,0:0:0:0:
71,246,172873,1,0,0:0:0:0:
189,99,173048,102,0,P|232:86|284:96,1,90,2|0,0:0|0:0,0:0:0:0:
114,58,173571,2,0,P|139:21|187:-2,1,90,0|0,0:0|0:0,0:0:0:0:
48,3,174094,6,0,B|22:39|33:88|33:88|62:129|48:174,1,180,2|0,0:0|0:0,0:0:0:0:
323,285,175838,102,0,P|280:298|228:288,1,90
398,326,176362,2,0,P|372:362|324:386,1,90,0|0,0:0|0:0,0:0:0:0:
464,381,176885,6,0,B|489:344|478:295|478:295|449:254|463:209,1,180,2|0,0:0|0:0,0:0:0:0:
256,192,177670,12,0,178455,0:0:0:0:
386,137,178629,38,0,B|323:162|260:139|260:139|159:174|73:122|73:122|123:119,1,360,4|8,0:0|0:1,0:0:0:0:
320,47,179152,1,2,0:0:0:0:
260,247,179327,1,2,0:0:0:0:
411,0,179501,1,2,0:3:0:0:
478,334,179676,1,8,0:1:0:0:
472,119,179850,6,0,B|517:137|517:137|456:124|387:136,1,180,2|2,0:0|0:3,0:0:0:0:
200,157,180199,2,0,B|155:175|155:175|216:162|285:174,1,180,2|8,0:0|0:1,0:0:0:0:
458,230,180548,1,2,0:0:0:0:
393,283,180635,1,2,0:3:0:0:
378,282,180722,1,2,0:0:0:0:
219,277,180897,1,2,0:3:0:0:
60,272,181071,1,8,0:1:0:0:
134,361,181245,1,2,0:0:0:0:
244,126,181420,38,0,P|176:111|97:126,1,135,2|0,0:3|0:0,0:0:0:0:
56,187,181769,1,8,0:1:0:0:
210,293,181943,1,2,0:0:0:0:
176,15,182118,1,2,0:0:0:0:
134,361,182292,1,2,0:3:0:0:
455,225,182466,1,8,0:1:0:0:
332,124,182641,6,0,B|288:117|288:117|241:126,1,90,2|2,0:0|0:3,0:0:0:0:
210,293,182990,2,0,B|254:300|254:300|301:291,1,90,2|8,0:0|0:1,0:0:0:0:
145,141,183338,1,2,0:0:0:0:
133,141,183426,2,0,L|73:137,1,45,2|2,0:3|0:0,0:0:0:0:
97,267,183600,1,0,3:0:0:0:
112,268,183687,1,2,0:3:0:0:
374,212,183862,1,8,0:1:0:0:
13,207,184036,1,2,0:3:0:0:
369,45,184211,70,0,B|497:52|497:52|374:211|374:211|494:220,1,450,4|8,0:0|0:1,0:0:0:0:
371,379,184734,2,0,B|251:370|251:370|374:211|374:211|246:204,1,450,2|0,0:0|0:0,0:0:0:0:
27,355,185257,2,0,L|252:370,1,225,8|0,0:1|0:0,0:0:0:0:
78,209,185606,6,0,B|85:80|85:80|244:203|244:203|253:84,1,450,2|8,0:3|0:1,0:0:0:0:
346,222,186129,1,2,0:0:0:0:
304,287,186216,1,2,0:3:0:0:
293,293,186304,1,2,0:0:0:0:
282,299,186391,1,0,3:0:0:0:
205,298,186478,1,2,0:3:0:0:
253,83,186652,2,0,B|321:57|394:68|394:68|474:97|474:97|422:84|362:109,1,337.5,8|0,0:1|0:0,0:0:0:0:
238,76,187001,70,0,P|155:64|41:103,1,180,2|0,0:3|0:0,0:0:0:0:
21,163,187263,1,0,3:0:0:0:
56,240,187350,2,0,P|139:252|253:213,1,180,8|0,0:1|0:0,0:0:0:0:
327,23,187699,1,2,0:0:0:0:
327,23,187786,1,0,3:0:0:0:
327,23,187873,2,0,B|370:26|370:26|384:71,1,90,2|0,0:3|0:0,0:0:0:0:
466,352,188048,1,8,0:1:0:0:
408,231,188222,6,0,B|325:224|325:224|313:232|313:232|230:226,1,180,2|0,0:0|0:0,0:0:0:0:
82,154,188484,1,0,3:0:0:0:
75,139,188571,2,0,L|165:146,1,90,2|0,0:3|0:0,0:0:0:0:
488,167,188745,1,8,0:1:0:0:
296,335,188920,2,0,B|213:328|213:328|201:336|201:336|118:330,1,180,2|2,0:0|0:0,0:0:0:0:
388,382,189269,1,2,0:3:0:0:
29,282,189443,1,8,0:1:0:0:
337,241,189618,1,2,0:3:0:0:
17,86,189792,38,0,P|64:23|117:90,1,180,4|8,0:0|0:1,0:0:0:0:
80,180,190315,1,2,0:0:0:0:
80,180,190402,1,0,3:0:0:0:
80,180,190490,1,2,0:0:0:0:
211,18,190664,1,2,0:3:0:0:
325,342,190838,1,8,0:1:0:0:
404,192,191013,6,0,P|410:147|405:92,1,90,2|2,0:0|0:3,0:0:0:0:
325,342,191362,2,0,P|319:297|324:242,1,90,2|8,0:0|0:1,0:0:0:0:
358,12,191711,1,2,0:0:0:0:
305,77,191798,1,2,0:3:0:0:
306,92,191885,1,2,0:0:0:0:
322,252,192059,1,2,0:3:0:0:
475,369,192234,1,8,0:1:0:0:
421,281,192408,1,2,0:0:0:0:
140,219,192583,70,0,B|67:221|67:221|10:253|10:253|327:251,1,450,4|8,0:0|0:1,0:0:0:0:
234,349,193106,1,2,0:0:0:0:
93,118,193280,1,2,0:0:0:0:
411,199,193455,1,2,0:3:0:0:
11,254,193629,1,8,0:1:0:0:
234,349,193804,6,0,B|243:264|243:264|232:240|232:240|247:216|247:216|256:129,1,225,2|2,0:0|0:3,0:0:0:0:
315,354,194152,2,0,B|323:269|323:269|338:245|338:245|327:221|327:221|336:136,1,225,2|8,0:0|0:1,0:0:0:0:
459,18,194501,1,2,0:0:0:0:
426,92,194588,1,2,0:3:0:0:
419,101,194676,1,2,0:0:0:0:
412,110,194763,1,0,3:0:0:0:
335,136,194850,2,0,P|344:195|371:280,1,112.5,2|0,0:3|0:0,0:0:0:0:
505,269,195025,2,0,P|493:210|463:126,1,112.5,8|0,0:1|0:0,0:0:0:0:
271,250,195199,2,0,P|291:306|333:384,1,112.5,2|0,0:3|0:0,0:0:0:0:
71,112,195373,38,0,B|243:87|163:159|335:135,1,270.000010299683,4|8,0:0|0:1,0:0:0:0:
211,0,195897,2,0,B|235:172|163:92|187:264,1,270.000010299683,2|2,0:0|0:3,0:0:0:0:
448,27,196420,2,0,B|367:16|393:45|315:37,1,135.000005149842,8|0,0:1|0:0,0:0:0:0:
437,384,196769,6,0,B|462:212|390:292|414:121,1,270.000010299683,2|8,0:3|0:1,0:0:0:0:
273,316,197292,1,2,0:0:0:0:
287,316,197380,2,0,L|355:320,1,67.5000025749208,2|0,0:3|0:0,0:0:0:0:
512,184,197554,1,0,3:0:0:0:
495,183,197641,1,2,0:3:0:0:
460,35,197815,2,0,B|323:15|386:73|262:55,1,202.500007724762,8|0,0:1|0:0,0:0:0:0:
343,29,198164,102,0,P|353:102|280:202,1,202.500007724762,2|0,0:3|0:0,0:0:0:0:
217,144,198513,2,0,P|166:133|71:148,1,135.000005149842,8|0,0:1|0:0,0:0:0:0:
72,151,198775,1,0,3:0:0:0:
65,164,198862,1,2,0:0:0:0:
438,166,199036,1,2,0:3:0:0:
138,35,199211,1,8,0:1:0:0:
71,267,199385,1,2,0:0:0:0:
263,55,199559,5,2,0:0:0:0:
371,318,199734,1,2,0:3:0:0:
138,35,199908,1,8,0:1:0:0:
396,41,200083,1,2,0:0:0:0:
396,41,200170,1,2,0:0:0:0:
396,41,200257,101,2,0:0:0:0:
59,100,200431,1,2,0:3:0:0:
472,289,200606,5,8,0:1:0:0:
49,362,200780,1,2,0:3:0:0:
489,12,200955,6,0,B|514:75|491:138|491:138|526:239|474:325|474:325|471:275,1,360,4|8,0:0|0:1,0:0:0:0:
401,77,201478,1,2,0:0:0:0:
512,140,201653,1,2,0:0:0:0:
489,12,201827,1,2,0:3:0:0:
471,288,202002,1,8,0:1:0:0:
315,59,202176,6,0,B|270:77|270:77|331:64|400:76,1,180,2|2,0:0|0:3,0:0:0:0:
471,288,202525,2,0,B|516:270|516:270|455:283|386:271,1,180,2|8,0:0|0:1,0:0:0:0:
92,194,202874,1,2,0:0:0:0:
157,141,202961,1,2,0:3:0:0:
172,142,203048,1,2,0:0:0:0:
312,142,203223,1,2,0:3:0:0:
452,146,203397,1,8,0:1:0:0:
385,270,203571,1,2,0:0:0:0:
241,66,203746,38,0,P|307:39|384:68,1,135,2|0,0:3|0:0,0:0:0:0:
384,68,204095,1,8,0:1:0:0:
312,142,204269,1,2,0:0:0:0:
157,7,204444,1,2,0:0:0:0:
461,0,204618,1,2,0:3:0:0:
313,245,204792,1,8,0:1:0:0:
148,109,204966,6,0,B|104:102|104:102|57:111,1,90,2|2,0:0|0:3,0:0:0:0:
26,278,205315,2,0,B|70:285|70:285|117:276,1,90,2|8,0:0|0:1,0:0:0:0:
246,210,205664,1,2,0:0:0:0:
234,210,205752,2,0,L|174:206,1,45,2|2,0:3|0:0,0:0:0:0:
198,336,205926,1,0,3:0:0:0:
213,337,206013,1,2,0:3:0:0:
475,281,206188,1,8,0:1:0:0:
114,276,206362,1,2,0:3:0:0:
481,153,206536,70,0,B|474:281|474:281|315:158|315:158|306:278,1,450,4|8,0:0|0:1,0:0:0:0:
147,155,207059,2,0,B|156:35|156:35|315:158|315:158|322:30,1,450,2|2,0:0|0:3,0:0:0:0:
147,155,207582,2,0,L|132:380,1,225,8|0,0:1|0:0,0:0:0:0:
314,157,207931,6,0,B|443:164|443:164|320:323|320:323|439:332,1,450,2|8,0:3|0:1,0:0:0:0:
248,357,208454,1,2,0:0:0:0:
171,341,208541,1,2,0:3:0:0:
162,331,208629,1,2,0:0:0:0:
156,319,208716,1,0,3:0:0:0:
165,240,208804,1,2,0:3:0:0:
345,143,208978,2,0,B|277:117|204:128|204:128|125:161|125:161|179:146|233:176,1,337.5,8|0,0:1|0:0,0:0:0:0:
339,226,209327,70,0,P|250:214|164:239,1,180,2|0,0:3|0:0,0:0:0:0:
162,331,209589,1,0,3:0:0:0:
171,341,209676,2,0,P|256:365|345:354,1,180,8|0,0:1|0:0,0:0:0:0:
431,196,210025,1,2,0:0:0:0:
435,192,210112,1,0,3:0:0:0:
439,188,210199,2,0,B|420:146|420:146|374:142,1,90,2|0,0:3|0:0,0:0:0:0:
162,137,210374,1,8,0:1:0:0:
264,186,210548,6,0,B|271:103|271:103|263:91|263:91|269:8,1,180,2|0,0:0|0:0,0:0:0:0:
376,43,210810,1,0,3:0:0:0:
383,52,210897,2,0,L|376:142,1,90,2|0,0:3|0:0,0:0:0:0:
353,382,211071,1,8,0:1:0:0:
223,281,211246,2,0,B|306:288|306:288|318:280|318:280|401:286,1,180,2|2,0:0|0:0,0:0:0:0:
140,340,211595,1,2,0:3:0:0:
502,293,211769,1,8,0:1:0:0:
145,213,211944,1,2,0:3:0:0:
484,46,212118,38,0,P|437:109|384:42,1,180,4|8,0:0|0:1,0:0:0:0:
512,202,212641,1,2,0:0:0:0:
512,202,212728,1,0,3:0:0:0:
512,202,212816,1,2,0:0:0:0:
484,46,212990,1,2,0:3:0:0:
444,279,213164,1,8,0:1:0:0:
289,203,213339,6,0,P|244:197|199:199,1,90,2|2,0:0|0:3,0:0:0:0:
444,279,213687,2,0,P|399:285|344:280,1,90,2|8,0:0|0:1,0:0:0:0:
453,117,214036,1,2,0:0:0:0:
506,182,214124,1,2,0:3:0:0:
505,197,214211,1,2,0:0:0:0:
501,363,214385,1,2,0:3:0:0:
290,364,214559,1,8,0:1:0:0:
294,198,214733,1,2,0:0:0:0:
110,229,214908,70,0,B|38:227|38:227|-19:195|-19:195|292:197,1,450,2|8,0:3|0:1,0:0:0:0:
193,299,215431,1,2,0:0:0:0:
218,95,215605,1,2,0:0:0:0:
395,200,215780,1,2,0:3:0:0:
10,196,215954,1,8,0:1:0:0:
295,306,216129,6,0,B|304:221|304:221|293:197|293:197|308:173|308:173|317:86,1,225,2|2,0:1|0:3,0:0:0:0:
372,310,216477,2,0,B|380:225|380:225|395:201|395:201|384:177|384:177|393:92,1,225,2|8,0:1|0:1,0:0:0:0:
242,88,216826,1,2,0:0:0:0:
166,88,216913,1,2,0:3:0:0:
159,79,217001,1,2,0:0:0:0:
152,70,217088,1,0,3:0:0:0:
80,98,217175,2,0,P|89:157|116:242,1,112.5,2|0,0:3|0:0,0:0:0:0:
199,346,217350,2,0,P|190:287|163:202,1,112.5,8|0,0:1|0:0,0:0:0:0:
17,367,217524,2,0,P|26:308|53:223,1,112.5,2|0,0:3|0:0,0:0:0:0:
175,236,217699,38,0,B|347:211|267:283|439:259,1,270.000010299683,4|8,0:0|0:1,0:0:0:0:
319,121,218223,2,0,B|343:293|271:213|295:385,1,270.000010299683,2|0,0:0|0:0,0:0:0:0:
344,22,218745,2,0,B|263:11|289:40|211:32,1,135.000005149842,8|0,0:1|0:0,0:0:0:0:
74,104,219095,6,0,B|49:276|121:196|97:367,1,270.000010299683,2|8,0:3|0:1,0:0:0:0:
171,168,219618,1,2,0:0:0:0:
185,168,219705,2,0,L|253:172,1,67.5000025749208,2|2,0:3|0:0,0:0:0:0:
348,239,219880,1,0,3:0:0:0:
331,238,219967,1,2,0:3:0:0:
427,78,220141,2,0,B|407:215|465:152|447:276,1,202.500007724762,8|0,0:1|0:0,0:0:0:0:
512,347,220490,102,0,P|418:315|328:357,1,202.500007724762,2|0,0:3|0:0,0:0:0:0:
248,384,220838,2,0,P|216:342|188:251,1,135.000005149842,8|0,0:1|0:0,0:0:0:0:
197,183,221101,1,0,3:0:0:0:
197,183,221188,1,2,0:0:0:0:
447,274,221362,1,2,0:3:0:0:
114,355,221537,1,8,0:1:0:0:
152,86,221711,1,2,0:0:0:0:
38,285,221885,5,2,0:0:0:0:
0,16,222060,1,2,0:3:0:0:
365,338,222234,1,8,0:1:0:0:
410,37,222409,1,2,0:0:0:0:
410,37,222496,1,2,0:0:0:0:
410,37,222583,101,2,0:0:0:0:
15,118,222757,1,2,0:3:0:0:
460,302,222932,5,8,0:1:0:0:
1,377,223106,1,2,0:3:0:0:
142,46,223280,6,0,B|250:19|409:37|409:37|372:44|329:79,1,360,4|8,0:0|0:1,0:0:0:0:
331,249,223804,1,2,0:0:0:0:
342,292,223891,1,0,0:0:0:0:
368,329,223978,1,2,0:0:0:0:
405,354,224065,1,0,0:0:0:0:
448,364,224152,1,2,0:3:0:0:
262,160,224327,2,0,B|180:163|180:163|162:157|162:157|78:162,1,180,8|0,0:1|0:0,0:0:0:0:
360,119,224676,6,0,B|362:187|362:187|338:223|338:223|342:306,1,180,2|0,0:3|0:0,0:0:0:0:
304,25,225025,2,0,B|386:22|386:22|404:28|404:28|482:23,1,180,8|0,0:1|0:0,0:0:0:0:
381,140,225286,1,2,0:3:0:0:
360,119,225373,2,0,L|266:123,1,90,2|0,0:0|0:0,0:0:0:0:
167,127,225548,1,2,0:3:0:0:
429,304,225722,1,8,0:1:0:0:
207,373,225897,1,2,0:0:0:0:
199,297,225984,1,2,0:0:0:0:
212,222,226071,38,0,P|277:228|357:267,1,135,2|0,0:3|0:0,0:0:0:0:
429,304,226420,2,0,P|364:310|284:349,1,135,8|0,0:1|0:0,0:0:0:0:
259,379,226769,1,2,0:0:0:0:
486,302,226943,1,2,0:3:0:0:
154,219,227118,1,8,0:1:0:0:
193,127,227292,1,2,0:0:0:0:
193,127,227379,1,0,3:0:0:0:
193,127,227466,5,2,0:3:0:0:
255,206,227641,1,0,0:0:0:0:
87,141,227815,1,8,0:1:0:0:
268,53,227990,1,2,0:0:0:0:
285,61,228077,2,0,L|291:117,1,45,2|2,0:3|0:0,0:0:0:0:
276,258,228251,1,0,3:0:0:0:
259,250,228338,2,0,L|253:194,1,45,2|0,0:3|0:0,0:0:0:0:
87,141,228513,1,8,0:1:0:0:
448,172,228687,1,2,0:3:0:0:
105,384,228862,70,0,B|87:141|87:141|162:172|162:172|172:301,1,450,4|8,0:0|0:1,0:0:0:0:
307,277,229385,1,2,0:0:0:0:
392,250,229472,1,0,3:0:0:0:
392,160,229559,1,2,0:0:0:0:
307,132,229646,1,0,3:0:0:0:
254,205,229733,1,2,0:3:0:0:
483,219,229908,2,0,B|490:136|490:136|465:84|465:84|470:0,1,225,8|0,0:1|0:0,0:0:0:0:
221,44,230257,6,0,B|112:15|122:79|-1:50,1,225,2|0,0:3|0:0,0:0:0:0:
154,349,230606,2,0,B|148:265|148:265|173:213|173:213|166:130,1,225,8|0,0:1|0:0,0:0:0:0:
332,88,230868,1,2,0:3:0:0:
270,134,230955,2,0,L|277:251,1,112.5,2|0,0:0|0:0,0:0:0:0:
336,331,231129,1,2,0:3:0:0:
221,44,231304,2,0,B|137:38|137:38|85:63|85:63|2:56,1,225,8|0,0:1|0:0,0:0:0:0:
423,106,231652,70,0,P|398:1|331:86,1,270,2|0,0:3|0:0,0:0:0:0:
221,44,232001,2,0,B|223:110|223:110|241:143|241:143|243:222,1,180,8|0,0:1|0:0,0:0:0:0:
313,293,232262,1,0,3:0:0:0:
313,301,232349,1,2,0:0:0:0:
331,87,232524,1,2,0:3:0:0:
155,276,232699,2,0,P|49:251|134:184,1,270,8|0,0:1|0:0,0:0:0:0:
153,113,233047,5,2,0:0:0:0:
155,141,233134,1,0,3:0:0:0:
148,169,233221,1,2,0:3:0:0:
17,32,233396,2,0,B|82:34|82:34|117:18|117:18|196:22,1,180,8|0,0:1|0:0,0:0:0:0:
381,82,233657,1,0,3:0:0:0:
373,81,233745,2,0,L|282:76,1,90,2|0,0:0|0:0,0:0:0:0:
65,136,233919,2,0,L|155:141,1,90,2|0,0:3|0:0,0:0:0:0:
429,188,234093,2,0,L|339:183,1,90,8|0,0:1|0:0,0:0:0:0:
0,237,234268,2,0,L|89:241,1,90,2|0,0:3|0:0,0:0:0:0:
492,290,234443,37,4,0:0:0:0:
429,188,234618,1,2,0:0:0:0:
158,322,234792,1,8,0:1:0:0:
230,249,234966,2,0,L|228:204,2,45,2|2|2,0:0|0:0|0:0,0:0:0:0:
301,132,235315,1,2,0:3:0:0:
0,64,235490,1,8,0:1:0:0:
0,64,235838,6,0,B|5:122|5:122|-2:132|-2:132|4:206,1,135,2|0,0:3|0:0,0:0:0:0:
187,167,236187,2,0,P|145:152|101:158,1,90,8|0,0:1|0:0,0:0:0:0:
125,307,236448,1,2,0:3:0:0:
136,299,236535,2,0,P|136:277|133:255,1,45,2|0,0:0|0:0,0:0:0:0:
128,49,236710,1,2,0:3:0:0:
285,131,236885,2,0,B|290:189|290:189|283:199|283:199|289:273,1,135,8|0,0:1|0:0,0:0:0:0:
312,265,237234,70,0,B|289:16|289:16|194:71|194:71|202:168,1,450,2|8,0:3|0:1,0:0:0:0:
38,301,237757,1,2,0:0:0:0:
6,224,237844,1,0,3:0:0:0:
13,140,237931,1,2,0:0:0:0:
55,69,238018,1,0,3:0:0:0:
125,23,238105,1,2,0:3:0:0:
166,312,238280,2,0,B|-7:326|-7:326|49:294,1,225,8|0,0:1|0:0,0:0:0:0:
326,223,238629,6,0,B|243:230|243:230|190:206|190:206|107:215,1,225,2|0,0:3|0:0,0:0:0:0:
265,332,238978,2,0,B|348:326|348:326|401:350|401:350|483:341,1,225,8|0,0:1|0:0,0:0:0:0:
439,267,239240,1,2,0:3:0:0:
499,317,239327,2,0,L|382:327,1,112.5,2|0,0:0|0:0,0:0:0:0:
164,338,239501,1,2,0:3:0:0:
315,31,239676,1,8,0:1:0:0:
499,317,239850,1,2,0:3:0:0:
184,167,240025,38,0,B|247:161|247:161|257:154|257:154|317:151,1,135.000005149842,4|0,0:0|0:0,0:0:0:0:
499,139,240374,1,8,0:1:0:0:
382,226,240548,1,2,0:0:0:0:
383,251,240635,1,0,0:0:0:0:
384,276,240723,1,2,0:0:0:0:
385,301,240809,1,0,0:0:0:0:
386,326,240897,1,2,0:3:0:0:
316,151,241071,1,8,0:1:0:0:
499,139,241245,1,2,0:0:0:0:
500,164,241332,1,0,3:0:0:0:
501,189,241420,5,2,0:3:0:0:
316,151,241595,1,2,0:0:0:0:
315,126,241682,1,0,3:0:0:0:
314,101,241770,1,8,0:1:0:0:
233,38,241944,1,2,0:0:0:0:
222,39,242031,1,2,0:3:0:0:
397,40,242205,1,0,3:0:0:0:
408,39,242292,1,2,0:3:0:0:
373,243,242467,2,0,B|261:281|282:211|171:245,1,202.500007724762,8|0,0:1|0:0,0:0:0:0:
54,261,242815,102,0,P|127:347|175:244,1,270.000010299683,2|8,0:3|0:1,0:0:0:0:
69,141,243338,1,2,0:0:0:0:
65,137,243425,1,0,3:0:0:0:
60,134,243512,2,0,P|31:151|6:173,1,67.5000025749208,2|0,0:0|0:0,0:0:0:0:
0,384,243687,1,2,0:3:0:0:
174,243,243861,2,0,B|283:202|262:272|395:231,1,202.500007724762,8|0,0:1|0:0,0:0:0:0:
450,201,244210,5,2,0:0:0:0:
328,75,244384,2,0,P|319:109|322:143,1,67.5000025749208,2|0,0:3|0:0,0:0:0:0:
238,324,244559,1,8,0:1:0:0:
174,243,244733,1,2,0:0:0:0:
174,243,244821,1,2,0:0:0:0:
174,243,244908,1,2,0:0:0:0:
465,305,245082,1,2,0:3:0:0:
93,307,245257,1,8,0:1:0:0:
510,214,245431,1,2,0:3:0:0:
83,186,245606,6,0,B|40:151|3:144|3:144|162:126|286:156,1,360,4|8,0:0|0:1,0:0:0:0:
174,243,246129,1,2,0:0:0:0:
174,243,246216,1,0,3:0:0:0:
174,243,246304,1,2,0:0:0:0:
92,45,246478,1,2,0:3:0:0:
349,87,246652,2,0,B|367:141|367:141|351:263,1,180,8|0,0:1|0:0,0:0:0:0:
239,33,247001,6,0,P|318:10|349:86,1,180,2|0,0:3|0:0,0:0:0:0:
38,154,247350,2,0,P|15:75|91:44,1,180,8|0,0:1|0:0,0:0:0:0:
116,230,247612,1,2,0:3:0:0:
116,230,247699,2,0,P|79:255|22:262,1,90,2|0,0:0|0:0,0:0:0:0:
0,359,247873,1,2,0:3:0:0:
265,371,248048,2,0,P|288:292|213:260,1,180,8|0,0:1|0:0,0:0:0:0:
332,201,248309,1,0,3:0:0:0:
326,208,248397,38,0,L|334:73,1,135,2|0,0:3|0:0,0:0:0:0:
389,259,248745,2,0,B|293:228|307:282|199:257,1,180,8|2,0:1|0:0,0:0:0:0:
8,237,249269,1,2,0:3:0:0:
108,109,249443,2,0,P|135:147|145:201,1,90,8|0,0:1|0:0,0:0:0:0:
297,233,249792,6,0,P|256:251|212:259,1,90,2|0,0:3|0:0,0:0:0:0:
8,237,250141,1,8,0:1:0:0:
122,324,250315,1,2,0:0:0:0:
122,337,250402,2,0,L|119:394,1,45,2|2,0:3|0:0,0:0:0:0:
211,272,250577,1,0,3:0:0:0:
211,259,250664,1,2,0:3:0:0:
8,237,250838,1,8,0:1:0:0:
422,186,251013,1,2,0:3:0:0:
312,80,251187,70,0,B|331:329|331:329|427:276|427:276|421:178,1,450,4|8,0:0|0:1,0:0:0:0:
239,44,251710,1,2,0:0:0:0:
160,73,251797,1,0,3:0:0:0:
104,135,251884,1,2,0:0:0:0:
80,214,251971,1,0,3:0:0:0:
95,297,252058,1,2,0:3:0:0:
18,37,252234,2,0,B|126:8|116:72|239:43,1,225,8|0,0:1|0:0,0:0:0:0:
486,141,252583,6,0,B|499:223|499:223|478:277|478:277|489:360,1,225,2|0,0:3|0:0,0:0:0:0:
185,211,252931,2,0,B|307:182|297:246|406:219,1,225,8|0,0:1|0:0,0:0:0:0:
486,141,253193,1,2,0:3:0:0:
469,64,253280,2,0,P|414:55|358:64,1,112.5,2|0,0:0|0:0,0:0:0:0:
393,312,253455,1,2,0:3:0:0:
137,57,253629,2,0,B|260:28|250:92|359:63,1,225,8|0,0:1|0:0,0:0:0:0:
239,236,253978,70,0,P|130:237|198:152,1,270,2|0,0:3|0:0,0:0:0:0:
315,206,254327,2,0,P|330:294|323:383,1,180,8|0,0:1|0:0,0:0:0:0:
252,341,254588,1,0,3:0:0:0:
252,341,254676,1,2,0:0:0:0:
376,155,254850,1,2,0:3:0:0:
90,91,255024,6,0,B|77:209|89:332|89:332|95:269|125:220,1,360,8|2,0:1|0:0,0:0:0:0:
170,27,255548,1,2,0:3:0:0:
410,25,255722,2,0,B|423:143|411:266|411:266|405:203|375:154,1,360,8|2,0:1|0:0,0:0:0:0:
170,27,256245,1,2,0:3:0:0:
512,99,256420,1,8,0:1:0:0:
309,242,256594,1,2,0:3:0:0:
170,27,256769,38,0,P|109:10|36:24,1,135,4|0,0:0|0:0,0:0:0:0:
0,91,257117,1,8,0:1:0:0:
54,180,257292,1,2,0:0:0:0:
86,192,257379,1,0,0:0:0:0:
119,197,257466,1,2,0:0:0:0:
153,194,257553,1,0,0:0:0:0:
185,184,257640,1,2,0:3:0:0:
384,103,257815,2,0,P|318:90|254:107,1,135,8|0,0:1|0:0,0:0:0:0:
241,103,258164,6,0,L|239:4,1,90,2|0,0:3|0:0,0:0:0:0:
324,274,258513,2,0,L|323:185,1,90,8|0,0:1|0:0,0:0:0:0:
403,119,258775,1,2,0:3:0:0:
415,112,258862,2,0,L|417:53,1,45,2|0,0:0|0:0,0:0:0:0:
494,180,259036,1,2,0:3:0:0:
166,303,259210,2,0,L|164:169,1,135,8|0,0:1|0:0,0:0:0:0:
80,222,259559,70,0,B|80:131|80:131|180:85|180:85|182:335,1,450,2|8,0:3|0:1,0:0:0:0:
425,222,260083,1,2,0:0:0:0:
398,137,260170,1,0,3:0:0:0:
308,137,260257,1,2,0:0:0:0:
280,222,260344,1,0,3:0:0:0:
353,275,260431,1,2,0:3:0:0:
352,52,260606,2,0,B|243:23|253:87|130:58,1,225,8|0,0:1|0:0,0:0:0:0:
133,271,260955,6,0,B|216:282|216:282|270:261|270:261|352:274,1,225,2|0,0:3|0:0,0:0:0:0:
49,103,261303,2,0,B|78:226|14:216|42:325,1,225,8|0,0:1|0:0,0:0:0:0:
272,349,261565,1,2,0:3:0:0:
244,271,261652,2,0,P|189:262|134:271,1,112.5,2|0,0:0|0:0,0:0:0:0:
46,322,261827,1,2,0:3:0:0:
435,219,262001,1,8,0:1:0:0:
49,103,262176,1,2,0:3:0:0:
489,3,262350,38,0,P|506:63|475:137,1,135.000005149842,4|0,0:0|0:0,0:0:0:0:
388,5,262698,1,8,0:1:0:0:
305,67,262873,1,2,0:0:0:0:
272,74,262960,1,0,0:0:0:0:
238,72,263047,1,2,0:0:0:0:
206,61,263134,1,0,0:0:0:0:
180,39,263221,1,2,0:3:0:0:
397,108,263396,2,0,B|403:171|403:171|410:181|410:181|413:241,1,135.000005149842,8|0,0:1|0:0,0:0:0:0:
186,162,263745,6,0,P|121:145|59:169,1,135.000005149842,2|0,0:3|0:0,0:0:0:0:
257,235,264094,1,8,0:1:0:0:
170,330,264268,1,2,0:0:0:0:
128,266,264355,1,2,0:3:0:0:
129,247,264443,1,2,0:0:0:0:
298,341,264617,1,2,0:3:0:0:
0,364,264791,1,8,0:1:0:0:
257,235,264966,1,2,0:0:0:0:
260,189,265053,1,0,3:0:0:0:
263,143,265140,102,0,B|148:111|170:170|59:153,1,202.500007724762,2|0,0:3|0:0,0:0:0:0:
48,142,265490,2,0,B|54:205|54:205|61:215|61:215|64:275,1,135.000005149842,8|0,0:1|0:0,0:0:0:0:
129,351,265752,1,0,3:0:0:0:
130,369,265839,1,2,0:0:0:0:
205,232,266013,1,2,0:3:0:0:
6,355,266188,1,8,0:1:0:0:
63,274,266362,1,2,0:0:0:0:
62,256,266449,1,0,3:0:0:0:
61,238,266537,5,2,0:0:0:0:
129,351,266711,1,0,3:0:0:0:
228,332,266885,1,8,0:0:0:0:
361,318,267060,1,2,0:0:0:0:
361,318,267147,1,2,0:0:0:0:
361,318,267234,1,2,0:0:0:0:
205,232,267409,1,0,3:0:0:0:
185,129,267583,1,8,0:0:0:0:
163,3,267758,1,2,0:0:0:0:
163,3,267844,1,2,0:0:0:0:
163,3,267932,69,2,0:0:0:0:
256,192,268019,12,2,270722,0:0:0:0:
145,138,271769,6,0,B|287:96|265:180|411:139,1,270,2|2,0:0|0:0,0:0:0:0:
409,139,273513,101,2,0:0:0:0:
409,150,273862,1,2,0:0:0:0:
409,161,274211,1,2,0:0:0:0:
357,241,274559,2,0,B|212:281|234:197|92:239,1,270,2|2,0:0|0:0,0:0:0:0:
89,250,275955,1,2,0:0:0:0:
3,122,276304,6,0,P|69:110|184:159,1,180,2|2,0:0|0:0,0:0:0:0:
411,76,277350,2,0,P|322:65|241:102,1,180,2|0,0:0|0:0,0:0:0:0:
241,113,278397,1,2,0:0:0:0:
214,214,279094,102,0,B|358:173|336:257|478:215,2,270,2|2|2,0:0|0:0|0:0,0:0:0:0:
214,214,281885,6,0,P|219:167|207:122,1,90,2|0,0:0|0:0,0:0:0:0:
202,118,282583,1,2,0:0:0:0:
192,111,282931,2,0,P|273:74|362:85,1,180,2|2,0:0|0:0,0:0:0:0:
367,95,283978,1,2,0:0:0:0:
369,106,284327,1,2,0:0:0:0:
387,260,284676,101,2,0:0:0:0:
377,255,285025,1,2,0:0:0:0:
366,253,285373,1,2,0:0:0:0:
355,253,285722,1,2,0:0:0:0:
276,289,286071,1,2,0:0:0:0:
188,29,287466,5,2,0:0:0:0:
325,150,288862,101,2,0:0:0:0:
188,271,290257,5,2,0:0:0:0:
146,192,290955,2,0,L|143:142,1,45
205,91,291304,1,2,0:0:0:0:
205,91,291478,2,0,B|274:97|309:61|309:61|375:63|424:100,1,225,0|2,0:0|0:0,0:0:0:0:
422,102,292699,2,0,L|424:146,1,45,0|0,0:0|0:0,0:0:0:0:
459,215,293048,102,0,P|425:198|369:204,1,90,2|0,0:0|0:0,0:0:0:0:
297,236,293571,1,0,0:0:0:0:
142,201,293745,2,0,P|176:184|232:190,1,90,2|2,0:0|0:0,0:0:0:0:
297,236,294269,1,0,0:0:0:0:
281,67,294618,2,0,L|277:23,2,45,0|0|0,0:0|0:0|0:0,0:0:0:0:
250,141,295141,2,0,P|290:122|334:127,1,90,2|0,0:0|0:0,0:0:0:0:
407,174,295664,1,0,0:0:0:0:
160,214,295838,5,2,0:0:0:0:
159,205,296187,1,0,0:0:0:0:
242,228,296362,1,0,0:0:0:0:
325,251,296536,1,2,0:0:0:0:
390,308,296711,2,0,L|450:320,1,45,0|2,0:0|0:0,0:0:0:0:
320,356,297059,2,0,P|287:336|220:340,1,90
236,334,297931,2,0,P|281:334|320:356,1,90,2|2,0:0|0:0,0:0:0:0:
156,383,298629,102,0,B|137:280|179:307|159:203,1,180,2|2,0:0|0:0,0:0:0:0:
155,195,299501,2,0,L|254:190,2,90,0|0|0,0:0|0:0|0:0,0:0:0:0:
15,204,300548,1,0,0:0:0:0:
16,197,300897,1,0,0:0:0:0:
83,77,301071,1,0,0:0:0:0:
154,194,301245,1,0,0:0:0:0:
83,311,301420,5,2,0:0:0:0:
295,111,302466,1,2,0:0:0:0:
295,111,302815,2,0,P|340:175|372:109,1,180,2|2,0:0|0:0,0:0:0:0:
512,109,303862,1,0,0:0:0:0:
445,229,304036,1,0,0:0:0:0:
374,112,304210,101,2,0:0:0:0:
90,103,304908,1,2,0:0:0:0:
101,188,305083,1,0,0:0:0:0:
125,360,305257,1,2,0:0:0:0:
29,297,305432,1,0,0:0:0:0:
180,157,305606,1,0,0:0:0:0:
114,275,305781,1,0,0:0:0:0:
101,188,305955,1,0,0:0:0:0:
272,258,306129,1,0,0:0:0:0:
283,256,306478,1,0,0:0:0:0:
294,254,306827,1,0,0:0:0:0:
371,288,307001,6,0,B|387:240|364:202|364:202|378:151|362:113|362:113|386:68|364:18,1,270,2|2,0:0|0:0,0:0:0:0:
290,65,308222,1,0,0:0:0:0:
219,18,308397,2,0,L|175:13,2,45,2|0|0,0:0|0:0|0:0,0:0:0:0:
105,55,308920,2,0,L|110:153,2,90,0|0|0,0:0|0:0|0:0,0:0:0:0:
42,198,309792,102,0,B|143:178|116:220|219:201,1,180,2|2,0:0|0:0,0:0:0:0:
230,199,310838,1,0,0:0:0:0:
240,196,311187,1,2,0:0:0:0:
256,192,311275,12,2,312583,0:0:0:0:
204,141,312931,5,0,0:0:0:0:
204,141,313280,2,0,P|249:135|297:146,1,90,0|2,0:0|0:0,0:0:0:0:
361,193,313978,102,0,P|406:199|454:188,2,90,0|0|2,0:0|0:0|0:0,0:0:0:0:
300,252,315024,1,0,0:0:0:0:
161,20,315373,5,2,0:0:0:0:
161,20,315722,1,0,0:0:0:0:
143,102,315897,1,0,0:0:0:0:
225,119,316071,1,2,0:0:0:0:
207,201,316246,1,0,0:0:0:0:
61,85,316420,1,2,0:0:0:0:
307,136,316594,102,0,P|351:143|397:123,2,90
342,59,317466,1,2,0:0:0:0:
426,49,317641,1,0,0:0:0:0:
307,136,317815,1,0,0:0:0:0:
223,146,317990,1,0,0:0:0:0:
382,267,318164,6,0,P|425:280|477:270,1,90,2|0,0:0|0:0,0:0:0:0:
307,308,318687,2,0,P|333:344|381:368,1,90,0|0,0:0|0:0,0:0:0:0:
229,274,319210,102,0,B|184:260|143:289|143:289|94:300|53:271,1,180,2|0,0:0|0:0,0:0:0:0:
37,46,320257,1,2,0:0:0:0:
37,46,320606,1,2,0:0:0:0:
293,71,320955,6,0,P|336:84|388:74,1,90,2|0,0:0|0:0,0:0:0:0:
218,112,321478,2,0,P|244:148|292:172,1,90,0|0,0:0|0:0,0:0:0:0:
133,103,322001,2,0,P|131:147|154:195,1,90,2|0,0:0|0:0,0:0:0:0:
464,216,322699,101,0,0:0:0:0:
382,234,322874,1,0,0:0:0:0:
365,152,323048,1,2,0:0:0:0:
283,170,323223,1,0,0:0:0:0:
317,334,323397,1,0,0:0:0:0:
399,316,323571,1,0,0:0:0:0:
206,209,323745,6,0,P|170:234|146:282,1,90,2|0,0:0|0:0,0:0:0:0:
247,284,324269,2,0,P|234:327|244:379,1,90,0|0,0:0|0:0,0:0:0:0:
317,334,324792,1,2,0:0:0:0:
375,80,325141,101,0,0:0:0:0:
375,80,325838,1,2,0:0:0:0:
260,66,326187,1,0,0:0:0:0:
145,52,326536,6,0,P|125:73|111:100,1,45,2|0,0:0|0:0,0:0:0:0:
169,157,326885,2,0,P|187:174|200:210,1,45,0|0,0:0|0:0,0:0:0:0:
125,240,327234,1,2,0:0:0:0:
125,240,327583,1,2,0:0:0:0:
190,294,327757,102,0,P|234:296|288:273,1,90
323,99,328280,5,0,0:0:0:0:
341,181,328455,1,0,0:0:0:0:
259,198,328629,1,2,0:0:0:0:
277,280,328804,1,0,0:0:0:0:
423,164,328978,1,2,0:0:0:0:
441,246,329152,1,0,0:0:0:0:
323,99,329327,102,0,P|280:86|228:96,1,90,2|0,0:0|0:0,0:0:0:0:
398,58,329850,2,0,P|373:21|325:-2,1,90,0|0,0:0|0:0,0:0:0:0:
464,3,330373,6,0,B|490:39|479:88|479:88|450:129|464:174,1,180,2|0,0:0|0:0,0:0:0:0:
189,285,332117,102,0,P|232:298|284:288,1,90
114,326,332641,2,0,P|140:362|188:386,1,90,0|0,0:0|0:0,0:0:0:0:
48,381,333164,6,0,B|23:344|34:295|34:295|63:254|49:209,1,180,2|0,0:0|0:0,0:0:0:0:
197,34,334908,101,0,0:0:0:0:
332,95,335257,1,0,0:0:0:0:
197,156,335606,1,0,0:0:0:0:
332,217,335955,1,2,0:0:0:0:
332,217,336652,1,2,0:0:0:0:
256,192,336740,12,0,341885,0:0:0:0:
