osu file format v14

[General]
AudioFilename: audio.mp3
AudioLeadIn: 0
PreviewTime: 49867
Countdown: 0
SampleSet: Soft
StackLeniency: 0.7
Mode: 0
LetterboxInBreaks: 0
WidescreenStoryboard: 1

[Editor]
DistanceSpacing: 1
BeatDivisor: 4
GridSize: 8
TimelineZoom: 1

[Metadata]
Title:The Journey (feat. Veela)
TitleUnicode:The Journey (feat. Veela)
Artist:Feint
ArtistUnicode:Feint
Creator:A r M i N
Version:Turtle's Normal
Source:
Tags:drum and bass electronic vocal dnb liquicity Armin A_r_M_i_N Shmiklak Marvollo M_a_r_v_o_l_l_o xchorse yamicchi plaudible _dt3 turtle
BeatmapID:1641089
BeatmapSetID:770668

[Difficulty]
HPDrainRate:4
CircleSize:3
OverallDifficulty:4
ApproachRate:5
SliderMultiplier:0.999999999999999
SliderTickRate:1

[Events]
//Background and Video events
0,0,"ku.jpg",0,0
//Break Periods
//Storyboard Layer 0 (Background)
//Storyboard Layer 1 (Fail)
//Storyboard Layer 2 (Pass)
//Storyboard Layer 3 (Foreground)
//Storyboard Sound Samples

[TimingPoints]
5304,348.837209302326,4,2,2,30,1,0
5304,-200,4,2,2,30,0,0
5914,-200,4,2,2,5,0,0
6001,-200,4,2,2,30,0,0
7757,348.837209302326,4,2,2,30,1,0
8105,348.837209302326,4,2,2,30,1,0
8105,-200,4,2,2,30,0,0
8366,-200,4,2,2,5,0,0
8453,-200,4,2,2,30,0,0
9587,-200,4,2,2,5,0,0
9674,-200,4,2,2,30,0,0
10459,-200,4,2,2,5,0,0
10546,-200,4,2,2,30,0,0
11157,-200,4,2,2,5,0,0
11244,-200,4,2,2,30,0,0
14296,-200,4,2,2,5,0,0
14384,-200,4,2,2,30,0,0
15168,-200,4,2,2,5,0,0
15255,-200,4,2,2,30,0,0
15866,-200,4,2,2,5,0,0
15953,-200,4,2,2,30,0,0
18482,-200,4,2,2,5,0,0
18569,-200,4,2,2,30,0,0
20184,348.837209302326,4,2,2,30,1,0
20707,348.837209302326,4,2,2,30,1,0
20707,-200,4,2,2,30,0,0
22102,-200,4,2,2,30,0,0
23192,340.909090909091,4,2,2,30,1,0
24896,348.837209302326,4,2,2,30,1,0
27629,348.837209302326,4,2,2,30,1,0
27629,-200,4,2,2,30,0,0
27977,-200,4,2,2,37,0,0
29983,-200,4,2,2,5,0,0
30070,-200,4,2,2,37,0,0
30681,-200,4,2,2,5,0,0
30768,-200,4,2,2,37,0,0
32251,-200,4,2,2,5,0,0
32338,-200,4,2,2,37,0,0
41582,-100,4,2,2,37,0,0
43413,-100,4,2,2,5,0,0
43501,-100,4,2,2,37,0,0
49944,348.837209302326,4,2,1,60,1,1
49944,-100,4,2,1,60,0,1
50031,-100,4,2,1,60,0,0
50205,-100,4,2,1,5,0,0
50292,-100,4,2,1,60,0,0
61106,-100,4,2,1,60,0,1
61194,-100,4,2,1,60,0,0
61368,-100,4,2,1,5,0,0
61455,-100,4,2,1,60,0,0
72269,-100,4,2,1,60,0,1
72356,-100,4,2,1,60,0,0
72531,-100,4,2,1,5,0,0
72618,-100,4,2,1,60,0,0
83432,-100,4,2,1,60,0,1
83519,-100,4,2,1,60,0,0
83694,-100,4,2,1,5,0,0
83781,-100,4,2,1,60,0,0
94595,-100,4,2,1,60,0,0

[Colours]
Combo1 : 128,0,64
Combo2 : 110,183,215
Combo3 : 188,84,86
Combo4 : 0,128,255

[HitObjects]
24,248,5304,6,0,B|4:24|4:24|100:112,1,351.6,0|0,3:2|0:0,0:0:0:0:
166,178,8105,2,0,B|214:210|278:218|326:178|326:178|326:107|395:58|463:85,1,350,2|2,0:0|0:0,0:0:0:0:
425,177,10895,6,0,B|413:241|413:241|437:281|437:281|425:353,1,175,2|2,0:0|0:0,0:0:0:0:
426,343,13686,2,0,B|322:367|354:303|250:327,1,175,2|2,0:0|0:0,0:0:0:0:
256,325,16477,6,0,B|415:250|415:250|272:150,1,350,0|0,0:0|0:0,0:0:0:0:
216,232,19267,1,0,0:0:0:0:
216,232,20707,6,0,B|303:252|276:198|363:218,1,150,2|0,0:0|0:0,0:0:0:0:
430,287,22102,2,0,B|522:371|522:371|501:131,1,351.5
256,192,24896,12,4,27629,0:0:0:0:
171,187,29024,6,0,P|217:171|264:185,1,99.9999999999999,2|2,0:0|0:0,0:0:0:0:
334,256,30070,1,2,0:0:0:0:
403,186,30419,6,0,B|413:123|413:123|389:83|389:83|401:19,1,175,2|2,0:0|0:0,0:0:0:0:
227,195,32512,1,2,0:0:0:0:
157,125,32861,1,2,0:0:0:0:
87,195,33210,6,0,L|93:269,2,74.9999999999999,2|2|2,0:0|0:0|0:0,0:0:0:0:
93,269,36001,6,0,L|86:194,2,74.9999999999999,2|2|2,0:0|0:0|0:0,0:0:0:0:
233,129,37745,1,2,0:0:0:0:
303,199,38094,1,2,0:0:0:0:
443,59,38791,5,2,0:0:0:0:
303,199,39489,1,0,0:0:0:0:
443,339,40187,6,0,P|427:292|441:245,1,99.9999999999999,2|2,0:0|0:0,0:0:0:0:
512,177,41233,1,2,0:0:0:0:
442,108,41582,6,0,B|385:98|385:98|349:120|349:120|299:110,2,150,2|2|2,0:0|0:0|0:0,0:0:0:0:
231,315,43675,2,0,L|221:211,1,99.9999999999999,2|2,0:0|0:0,0:0:0:0:
213,115,44373,6,0,B|156:105|156:105|120:127|120:127|70:117,2,150,2|2|2,0:0|0:0|0:0,0:0:0:0:
213,115,47163,6,0,B|117:99|149:147|61:131,2,150,2|2|2,0:0|0:0|0:0,0:0:0:0:
283,184,48559,1,0,0:0:0:0:
283,184,49944,6,0,L|394:174,2,99.9999999999999,6|8|2,3:2|0:0|0:0,0:0:0:0:
248,150,50816,1,2,3:2:0:0:
239,50,51164,1,2,0:0:0:0:
139,58,51513,1,2,0:0:0:0:
146,158,51862,1,2,0:0:0:0:
146,158,52037,2,0,P|125:204|137:253,1,99.9999999999999,2|10,0:0|0:0,0:0:0:0:
169,287,52560,1,2,0:0:0:0:
206,319,52734,6,0,L|317:328,1,99.9999999999999,6|10,3:2|0:0,0:0:0:0:
341,292,53257,1,2,0:0:0:0:
341,292,53432,2,0,L|390:287,1,50,2|2,0:0|3:2,0:0:0:0:
482,326,53955,2,0,P|492:277|472:232,1,99.9999999999999,2|2,0:0|0:0,0:0:0:0:
437,198,54478,2,0,P|426:149|446:104,1,99.9999999999999,8|0,0:0|0:0,0:0:0:0:
370,40,55176,1,10,0:0:0:0:
294,104,55525,6,0,L|183:94,1,99.9999999999999,4|8,3:2|0:0,0:0:0:0:
159,60,56048,2,0,L|48:70,1,99.9999999999999,2|0,0:0|3:0,0:0:0:0:
24,104,56571,1,10,0:0:0:0:
99,168,56920,2,0,P|109:217|89:262,1,99.9999999999999,2|8,3:2|0:0,0:0:0:0:
8,320,57618,2,0,P|1:344|2:368,2,50,0|0|10,0:0|3:0|0:0,0:0:0:0:
89,261,58316,6,0,L|200:271,1,99.9999999999999,6|10,3:2|0:0,0:0:0:0:
252,193,59013,2,0,L|152:184,1,99.9999999999999,2|10,0:0|0:0,0:0:0:0:
117,149,59537,2,0,P|107:100|127:55,1,99.9999999999999,2|2,0:0|3:2,0:0:0:0:
209,0,60234,1,2,0:0:0:0:
209,0,60409,2,0,P|228:45|218:93,1,99.9999999999999,0|8,0:0|0:0,0:0:0:0:
250,131,60932,1,0,3:0:0:0:
282,168,61106,6,0,L|393:177,1,99.9999999999999,6|8,3:2|0:0,0:0:0:0:
481,189,61804,2,0,L|476:238,1,50,2|2,0:0|3:2,0:0:0:0:
400,304,62327,1,2,0:0:0:0:
300,295,62676,1,2,0:0:0:0:
200,288,63025,1,2,0:0:0:0:
200,288,63200,2,0,P|154:309|105:297,1,99.9999999999999,2|8,0:0|0:0,0:0:0:0:
71,265,63723,1,2,0:0:0:0:
35,232,63897,6,0,L|45:121,1,99.9999999999999,6|10,3:2|0:0,0:0:0:0:
53,83,64420,1,2,0:0:0:0:
53,83,64595,2,0,L|102:78,1,50,2|2,0:0|3:2,0:0:0:0:
202,72,65118,2,0,P|192:121|212:166,1,99.9999999999999,2|2,0:0|0:0,0:0:0:0:
247,200,65641,2,0,P|258:249|238:294,1,99.9999999999999,8|0,0:0|0:0,0:0:0:0:
314,358,66339,1,10,0:0:0:0:
389,293,66688,6,0,L|399:182,1,99.9999999999999,4|8,3:2|0:0,0:0:0:0:
433,158,67211,2,0,L|423:47,1,99.9999999999999,2|0,0:0|3:0,0:0:0:0:
389,23,67734,1,10,0:0:0:0:
314,88,68083,2,0,P|265:98|221:77,2,99.9999999999999,2|8|0,3:2|0:0|0:0,0:0:0:0:
389,23,69130,1,10,0:0:0:0:
464,88,69478,6,0,L|455:187,1,99.9999999999999,6|10,3:2|0:0,0:0:0:0:
380,252,70176,2,0,L|281:244,1,99.9999999999999,2|10,0:0|0:0,0:0:0:0:
236,268,70699,2,0,P|255:222|245:174,1,99.9999999999999,2|2,0:0|3:2,0:0:0:0:
166,112,71396,1,2,0:0:0:0:
166,112,71571,2,0,P|147:67|157:19,1,99.9999999999999,0|8,0:0|0:0,0:0:0:0:
207,11,72095,1,0,3:0:0:0:
256,3,72269,6,0,L|367:12,1,99.9999999999999,6|8,3:2|0:0,0:0:0:0:
380,108,72967,2,0,L|331:103,1,50,2|2,0:0|3:2,0:0:0:0:
228,110,73490,1,2,0:0:0:0:
237,210,73838,1,2,0:0:0:0:
337,202,74187,1,2,0:0:0:0:
337,202,74362,2,0,P|356:247|346:295,1,99.9999999999999,2|10,0:0|0:0,0:0:0:0:
296,303,74886,1,2,0:0:0:0:
247,311,75060,6,0,L|136:302,1,99.9999999999999,6|10,3:2|0:0,0:0:0:0:
112,267,75582,1,2,0:0:0:0:
112,267,75757,2,0,L|63:272,1,50,2|2,0:0|3:2,0:0:0:0:
74,172,76281,2,0,P|123:162|168:182,1,99.9999999999999,2|2,0:0|0:0,0:0:0:0:
202,217,76804,2,0,P|251:228|296:208,1,99.9999999999999,8|0,0:0|0:0,0:0:0:0:
370,273,77502,1,10,0:0:0:0:
445,209,77850,6,0,L|435:98,1,99.9999999999999,4|8,3:2|0:0,0:0:0:0:
401,74,78374,2,0,L|290:84,1,99.9999999999999,2|0,0:0|3:0,0:0:0:0:
266,118,78897,1,10,0:0:0:0:
174,78,79246,2,0,P|164:127|184:172,1,99.9999999999999,2|8,3:2|0:0,0:0:0:0:
265,230,79944,2,0,P|289:228|313:235,2,50,0|0|10,0:0|3:0|0:0,0:0:0:0:
279,328,80641,6,0,L|168:338,1,99.9999999999999,6|10,3:2|0:0,0:0:0:0:
165,238,81339,2,0,L|265:229,1,99.9999999999999,2|10,0:0|0:0,0:0:0:0:
300,194,81863,2,0,P|310:145|290:100,1,99.9999999999999,2|2,0:0|3:2,0:0:0:0:
208,45,82560,1,2,0:0:0:0:
208,45,82735,2,0,P|189:90|199:138,1,99.9999999999999,0|8,0:0|0:0,0:0:0:0:
167,176,83258,1,0,3:0:0:0:
135,213,83432,6,0,L|24:222,1,99.9999999999999,6|8,3:2|0:0,0:0:0:0:
69,315,84130,2,0,L|118:310,1,50,2|2,0:0|3:2,0:0:0:0:
221,302,84653,1,2,0:0:0:0:
323,294,85002,1,2,0:0:0:0:
425,286,85350,1,2,0:0:0:0:
425,286,85525,2,0,P|446:240|434:191,1,99.9999999999999,2|10,0:0|0:0,0:0:0:0:
402,157,86048,1,2,0:0:0:0:
369,121,86223,6,0,L|258:130,1,99.9999999999999,6|10,3:2|0:0,0:0:0:0:
234,94,86746,2,0,L|185:89,1,50,2|2,0:0|0:0,0:0:0:0:
148,124,87095,1,2,3:2:0:0:
53,90,87444,2,0,P|43:139|63:184,1,99.9999999999999,2|2,0:0|0:0,0:0:0:0:
98,218,87967,2,0,P|109:267|89:312,1,99.9999999999999,8|0,0:0|0:0,0:0:0:0:
165,376,88665,1,10,0:0:0:0:
240,311,89014,6,0,L|250:200,1,99.9999999999999,4|8,3:2|0:0,0:0:0:0:
284,176,89537,2,0,L|274:65,1,99.9999999999999,2|0,0:0|3:0,0:0:0:0:
240,43,90060,1,10,0:0:0:0:
165,108,90409,2,0,P|116:118|72:97,2,99.9999999999999,2|8|0,3:2|0:0|0:0,0:0:0:0:
240,43,91456,1,10,0:0:0:0:
315,108,91804,6,0,L|306:207,1,99.9999999999999,6|10,3:2|0:0,0:0:0:0:
343,300,92502,2,0,L|244:292,1,99.9999999999999,2|10,0:0|0:0,0:0:0:0:
193,283,93025,2,0,P|212:237|202:189,1,99.9999999999999,2|2,0:0|3:2,0:0:0:0:
123,127,93722,1,2,0:0:0:0:
123,127,93897,2,0,P|104:82|114:34,1,99.9999999999999,0|8,0:0|0:0,0:0:0:0:
164,26,94421,1,0,3:0:0:0:
213,18,94595,5,4,3:2:0:0:
