osu file format v14

[General]
AudioFilename: audio.mp3
AudioLeadIn: 0
PreviewTime: 49867
Countdown: 0
SampleSet: Soft
StackLeniency: 0.5
Mode: 0
LetterboxInBreaks: 0
WidescreenStoryboard: 1

[Editor]
DistanceSpacing: 1.4
BeatDivisor: 4
GridSize: 4
TimelineZoom: 1

[Metadata]
Title:The Journey (feat. Veela)
TitleUnicode:The Journey (feat. Veela)
Artist:Feint
ArtistUnicode:Feint
Creator:A r M i N
Version:Plaudible's Another
Source:
Tags:drum and bass electronic vocal dnb liquicity Armin A_r_M_i_N Shmiklak Marvollo M_a_r_v_o_l_l_o xchorse yamicchi plaudible _dt3 turtle
BeatmapID:1630671
BeatmapSetID:770668

[Difficulty]
HPDrainRate:5.7
CircleSize:4.3
OverallDifficulty:8
ApproachRate:9
SliderMultiplier:1.7
SliderTickRate:1

[Events]
//Background and Video events
0,0,"plaudible.jpg",0,0
//Break Periods
//Storyboard Layer 0 (Background)
//Storyboard Layer 1 (Fail)
//Storyboard Layer 2 (Pass)
//Storyboard Layer 3 (Foreground)
//Storyboard Sound Samples

[TimingPoints]
5304,348.837209302326,4,2,2,30,1,0
5304,-133.333333333333,4,2,2,30,0,0
5914,-133.333333333333,4,2,2,5,0,0
6001,-133.333333333333,4,2,2,30,0,0
7757,348.837209302326,4,2,2,30,1,0
7757,-133.333333333333,4,2,2,30,0,0
8105,348.837209302326,4,2,2,30,1,0
8105,-133.333333333333,4,2,2,30,0,0
8366,-133.333333333333,4,2,2,5,0,0
8453,-133.333333333333,4,2,2,30,0,0
9587,-133.333333333333,4,2,2,5,0,0
9674,-133.333333333333,4,2,2,30,0,0
10459,-133.333333333333,4,2,2,5,0,0
10546,-133.333333333333,4,2,2,30,0,0
11157,-133.333333333333,4,2,2,5,0,0
11244,-133.333333333333,4,2,2,30,0,0
14296,-133.333333333333,4,2,2,5,0,0
14384,-133.333333333333,4,2,2,30,0,0
15168,-133.333333333333,4,2,2,5,0,0
15255,-133.333333333333,4,2,2,30,0,0
15866,-133.333333333333,4,2,2,5,0,0
15953,-133.333333333333,4,2,2,30,0,0
18482,-133.333333333333,4,2,2,5,0,0
18569,-133.333333333333,4,2,2,30,0,0
20184,348.837209302326,4,2,2,30,1,0
20184,-133.333333333333,4,2,2,30,0,0
20707,348.837209302326,4,2,2,30,1,0
20707,-133.333333333333,4,2,2,30,0,0
23192,340.909090909091,4,2,2,30,1,0
23192,-133.333333333333,4,2,2,30,0,0
24896,348.837209302326,4,2,2,30,1,0
24896,-133.333333333333,4,2,2,30,0,0
27629,348.837209302326,4,2,2,30,1,0
27977,-133.333333333333,4,2,2,37,0,0
29983,-133.333333333333,4,2,2,5,0,0
30070,-133.333333333333,4,2,2,37,0,0
30332,-133.333333333333,4,2,2,5,0,0
30419,-133.333333333333,4,2,2,37,0,0
30681,-133.333333333333,4,2,2,5,0,0
30768,-133.333333333333,4,2,2,37,0,0
32251,-133.333333333333,4,2,2,5,0,0
32338,-133.333333333333,4,2,2,37,0,0
36001,-133.333333333333,4,2,2,37,0,0
36524,-166.666666666667,4,2,2,37,0,0
37047,-200,4,2,2,37,0,0
38791,-133.333333333333,4,2,2,37,0,0
41582,-133.333333333333,4,2,2,37,0,0
43413,-133.333333333333,4,2,2,5,0,0
43501,-133.333333333333,4,2,2,37,0,0
44896,-166.666666666667,4,2,2,37,0,0
45419,-200,4,2,2,37,0,0
47163,-133.333333333333,4,2,2,37,0,0
47687,-166.666666666667,4,2,2,37,0,0
48210,-200,4,2,2,37,0,0
48559,-153.846153846154,4,2,2,37,0,0
48908,-125,4,2,2,37,0,0
49256,-105.263157894737,4,2,2,37,0,0
49605,-90.9090909090909,4,2,2,37,0,0
49944,348.837209302326,4,2,1,60,1,1
49944,-83.3333333333333,4,2,1,60,0,1
50031,-83.3333333333333,4,2,1,60,0,0
50205,-83.3333333333333,4,2,1,5,0,0
50292,-83.3333333333333,4,2,1,60,0,0
61106,-83.3333333333333,4,2,1,60,0,1
61194,-83.3333333333333,4,2,1,60,0,0
61368,-83.3333333333333,4,2,1,5,0,0
61455,-83.3333333333333,4,2,1,60,0,0
72269,-83.3333333333333,4,2,1,60,0,1
72356,-83.3333333333333,4,2,1,60,0,0
72531,-83.3333333333333,4,2,1,5,0,0
72618,-83.3333333333333,4,2,1,60,0,0
83432,-83.3333333333333,4,2,1,60,0,1
83519,-83.3333333333333,4,2,1,60,0,0
83694,-83.3333333333333,4,2,1,5,0,0
83781,-83.3333333333333,4,2,1,60,0,0
94595,-83.3333333333333,4,2,1,60,0,0

[Colours]
Combo1 : 198,140,255
Combo2 : 140,140,255
Combo3 : 255,147,147
Combo4 : 255,213,170

[HitObjects]
185,85,5304,6,0,P|233:81|312:195,1,191.250007295609,0|0,3:2|0:0,0:0:0:0:
296,273,6001,2,0,P|342:264|370:271,2,63.7500024318696,2|2|0,0:0|0:0|0:0,0:0:0:0:
277,353,6524,1,2,0:0:0:0:
277,353,7757,1,2,0:0:0:0:
173,323,7931,1,2,0:0:0:0:
277,353,8105,6,0,L|416:328,1,127.500004863739,2|2,0:0|0:0,0:0:0:0:
479,195,8628,1,2,0:0:0:0:
500,274,8802,2,0,P|459:273|431:258,2,63.7500024318696,2|2|2,0:0|0:0|0:0,0:0:0:0:
402,330,9325,2,0,B|375:316|340:328|340:328|306:342|257:317,1,127.500004863739,2|2,0:0|0:0,0:0:0:0:
289,195,9849,2,0,P|308:239|304:272,1,63.7500024318696,2|2,0:0|0:0,0:0:0:0:
193,358,10198,2,0,P|193:295|231:246,1,127.500004863739,2|2,0:0|0:0,0:0:0:0:
277,326,10721,1,2,0:0:0:0:
392,242,10895,6,0,B|408:202|408:202|392:113,1,127.500004863739,2|2,0:0|0:0,0:0:0:0:
288,26,11418,1,2,0:0:0:0:
234,86,11593,2,0,P|212:58|204:26,2,63.7500024318696,2|2|0,0:0|0:0|0:0,0:0:0:0:
393,119,12116,1,2,0:0:0:0:
393,119,13337,1,2,0:0:0:0:
393,119,13686,6,0,B|369:107|356:83|356:83|385:159|345:233,1,191.250007295609,2|0,0:0|0:0,0:0:0:0:
211,140,14384,1,2,0:0:0:0:
281,177,14558,2,0,P|290:141|282:104,1,63.7500024318696,2|0,0:0|0:0,0:0:0:0:
143,183,14907,2,0,P|169:208|205:220,1,63.7500024318696,2|0,0:0|0:0,0:0:0:0:
206,61,15256,2,0,P|170:71|142:96,1,63.7500024318696,2|0,0:0|0:0,0:0:0:0:
17,161,15605,2,0,L|155:185,1,127.500004863739,2|2,0:0|0:0,0:0:0:0:
264,210,16128,2,0,P|227:186|211:155,2,63.7500024318696,2|2|0,0:0|0:0|0:0,0:0:0:0:
264,210,17523,5,2,0:0:0:0:
296,85,17872,2,0,B|313:27|389:47|394:110|358:150|301:161,1,191.250007295609,2|0,0:0|0:0,0:0:0:0:
264,210,18570,2,0,P|231:197|189:200,2,63.7500024318696,2|0|0,0:0|0:0|0:0,0:0:0:0:
294,319,19093,1,2,0:0:0:0:
294,319,20184,6,0,P|328:323|368:312,2,63.7500024318696,2|2|0,0:0|0:0|0:0,0:0:0:0:
183,196,20707,1,2,0:0:0:0:
319,240,20881,1,2,0:0:0:0:
294,319,21055,1,2,0:0:0:0:
263,178,21230,2,0,P|261:139|272:110,1,63.7500024318696,2|0,0:0|0:0,0:0:0:0:
400,135,21579,2,0,P|367:155|336:160,1,63.7500024318696,2|0,0:0|0:0,0:0:0:0:
215,61,21927,2,0,B|182:21|182:21|347:51,1,191.250007295609,2|0,0:0|0:0,0:0:0:0:
320,46,23192,6,0,P|330:84|322:126,1,63.7500024318696,2|2,0:0|0:0,0:0:0:0:
228,162,23532,1,2,0:0:0:0:
172,100,23703,1,2,0:0:0:0:
253,83,23873,1,2,0:0:0:0:
146,177,24044,2,0,P|117:162|95:134,1,63.7500024318696,2|0,0:0|0:0,0:0:0:0:
228,162,24385,2,0,P|229:194|216:227,1,63.7500024318696,2|0,0:0|0:0,0:0:0:0:
83,314,24726,2,0,B|47:276|65:222|65:222|81:235|99:244,1,129,2|2,0:0|0:0,0:0:0:0:
256,192,25244,12,4,27629,0:0:0:0:
148,215,27977,5,2,0:0:0:0:
208,324,28326,2,0,B|258:331|335:309|338:163|220:186|219:254,1,255.000009727478,2|2,0:0|0:0,0:0:0:0:
220,245,29722,1,2,0:0:0:0:
220,245,30070,2,0,P|244:197|226:140,1,95.6250036478044,2|0,0:0|0:0,0:0:0:0:
179,102,30419,6,0,L|328:127,1,127.500004863739,2|2,0:0|0:0,0:0:0:0:
423,18,30942,1,2,0:0:0:0:
362,72,31117,2,0,P|345:41|344:5,2,63.7500024318696,2|2|2,0:0|0:0|0:0,0:0:0:0:
476,146,31640,2,0,L|410:135,1,63.7500024318696,2|0,0:0|0:0,0:0:0:0:
314,232,31989,2,0,P|325:202|347:180,1,63.7500024318696,2|0,0:0|0:0,0:0:0:0:
394,251,32338,1,2,0:0:0:0:
262,292,32512,2,0,P|242:267|234:236,2,63.7500024318696,2|2|2,0:0|0:0|0:0,0:0:0:0:
314,232,33035,1,2,0:0:0:0:
194,169,33210,6,0,B|159:158|128:169|128:169|98:182|59:167,1,127.500004863739,2|0,0:0|0:0,0:0:0:0:
18,108,33733,2,0,B|-3:61|27:15|27:15|45:41,1,127.500004863739,2|0,0:0|0:0,0:0:0:0:
194,169,34256,2,0,B|216:186|225:209|225:209|259:172|234:66|120:51|36:151|112:229,1,382.500014591218,2|0,0:0|0:0,0:0:0:0:
111,227,36001,6,0,P|154:204|240:232,1,127.500004863739,2|0,0:0|0:0,0:0:0:0:
219,368,36524,2,0,P|183:335|181:268,1,101.999996887207,2|0,0:0|0:0,0:0:0:0:
302,237,37047,2,0,P|289:277|254:300,1,85,2|0,0:0|0:0,0:0:0:0:
175,165,37745,1,2,0:0:0:0:
103,198,37919,1,2,0:0:0:0:
227,223,38094,1,2,0:0:0:0:
87,194,38268,1,2,0:0:0:0:
175,165,38443,1,2,0:0:0:0:
143,313,38617,1,2,0:0:0:0:
276,294,38791,6,0,P|304:262|295:174,1,127.500004863739,2|0,0:0|0:0,0:0:0:0:
196,39,39315,2,0,L|173:172,1,127.500004863739,2|0,0:0|0:0,0:0:0:0:
227,223,39838,1,2,0:0:0:0:
423,199,40187,2,0,P|360:204|301:182,1,127.500004863739,2|0,0:0|0:0,0:0:0:0:
256,33,40884,2,0,P|293:33|321:46,1,63.7500024318696,2|0,0:0|0:0,0:0:0:0:
403,131,41233,2,0,P|366:131|338:118,1,63.7500024318696,2|0,0:0|0:0,0:0:0:0:
490,86,41582,6,0,L|467:211,1,127.500004863739,2|0,0:0|0:0,0:0:0:0:
503,321,42105,2,0,P|465:291|379:291,1,127.500004863739,2|0,0:0|0:0,0:0:0:0:
430,368,42629,1,2,0:0:0:0:
311,329,42803,2,0,L|298:260,1,63.7500024318696,2|0,0:0|0:0,0:0:0:0:
409,161,43152,2,0,L|387:288,1,127.500004863739,2|2,0:0|0:0,0:0:0:0:
311,329,43675,1,2,0:0:0:0:
387,286,43849,1,2,0:0:0:0:
326,152,44024,1,2,0:0:0:0:
311,238,44198,1,2,0:0:0:0:
393,98,44373,6,0,P|336:65|270:85,1,127.500004863739,2|0,0:0|0:0,0:0:0:0:
450,160,44896,2,0,P|476:111|460:52,1,101.999996887207,2|0,0:0|0:0,0:0:0:0:
326,152,45419,2,0,L|295:326,1,170,2|0,0:0|0:0,0:0:0:0:
296,319,47163,6,0,P|281:279|315:178,1,127.500004863739,2|0,0:0|0:0,0:0:0:0:
184,61,47687,2,0,P|224:107|231:163,1,101.999996887207,2|0,0:0|0:0,0:0:0:0:
296,319,48210,6,0,P|268:318|240:304,1,42.5,2|0,0:0|0:0,0:0:0:0:
197,367,48559,6,0,P|181:340|176:309,1,55.2499974708558,0|0,0:0|0:0,0:0:0:0:
83,290,48908,6,0,P|95:256|132:229,1,68,0|0,0:0|0:0,0:0:0:0:
93,121,49256,6,0,P|136:117|171:134,1,80.7499978437424,0|0,0:0|0:0,0:0:0:0:
285,43,49605,6,0,P|319:88|322:145,1,93.5000028533936,0|0,0:0|0:0,0:0:0:0:
176,274,49944,5,6,3:2:0:0:
240,116,50118,1,0,0:0:0:0:
27,170,50292,2,0,P|70:201|137:194,1,101.999996887207,8|0,0:0|0:0,0:0:0:0:
240,116,50641,1,2,0:0:0:0:
92,125,50816,1,2,3:2:0:0:
176,274,50990,1,10,0:0:0:0:
162,84,51164,6,0,P|131:53|66:44,1,101.999996887207,2|0,0:0|3:0,0:0:0:0:
209,195,51513,1,2,0:0:0:0:
20,163,51688,2,0,P|51:194|116:203,1,101.999996887207,8|2,0:0|0:0,0:0:0:0:
92,125,51949,1,0,3:0:0:0:
92,125,52037,1,2,0:0:0:0:
209,195,52211,1,2,3:2:0:0:
19,81,52385,1,10,0:0:0:0:
183,34,52560,1,2,0:0:0:0:
209,195,52734,6,0,B|227:224|227:224|216:302,1,101.999996887207,6|0,3:2|0:0,0:0:0:0:
86,358,53083,1,10,0:0:0:0:
217,291,53257,1,2,0:0:0:0:
74,191,53432,1,2,0:0:0:0:
89,375,53606,1,2,3:2:0:0:
164,208,53781,1,8,0:0:0:0:
310,280,53955,6,0,L|424:261,1,101.999996887207,2|0,0:0|3:0,0:0:0:0:
164,208,54304,1,2,0:0:0:0:
89,375,54478,2,0,P|57:323|68:266,1,101.999996887207,8|0,0:0|0:0,0:0:0:0:
136,312,54740,1,0,3:0:0:0:
136,312,54827,1,0,0:0:0:0:
110,125,55002,1,0,3:0:0:0:
286,198,55176,1,10,0:0:0:0:
164,208,55350,1,0,3:0:0:0:
367,192,55525,6,0,L|351:292,1,101.999996887207,4|0,3:2|0:0,0:0:0:0:
288,363,55874,1,8,0:0:0:0:
136,312,56048,2,0,P|76:302|28:331,1,101.999996887207,2|0,0:0|0:0,0:0:0:0:
202,377,56397,1,0,3:0:0:0:
328,277,56571,2,0,P|381:248|435:259,1,101.999996887207,10|0,0:0|0:0,0:0:0:0:
210,54,56920,6,0,B|192:86|192:86|207:173,1,101.999996887207,2|0,3:2|0:0,0:0:0:0:
328,277,57269,2,0,P|320:213|283:183,1,101.999996887207,8|0,0:0|0:0,0:0:0:0:
204,150,57531,1,0,3:0:0:0:
204,150,57618,2,0,L|98:168,1,101.999996887207,0|0,0:0|3:0,0:0:0:0:
81,341,57967,1,10,0:0:0:0:
328,277,58141,1,0,0:0:0:0:
88,259,58316,6,0,P|78:209|109:161,1,101.999996887207,6|0,3:2|0:0,0:0:0:0:
233,191,58664,2,0,P|242:240|211:288,1,101.999996887207,10|0,0:0|0:0,0:0:0:0:
81,341,59013,1,2,0:0:0:0:
14,199,59188,1,2,3:2:0:0:
164,225,59362,1,10,0:0:0:0:
15,284,59537,1,2,0:0:0:0:
15,116,59711,6,0,P|8:60|31:12,1,101.999996887207,0|2,0:0|3:2,0:0:0:0:
242,53,60060,1,8,0:0:0:0:
82,84,60234,1,2,0:0:0:0:
143,258,60409,1,0,0:0:0:0:
170,108,60583,1,0,3:2:0:0:
15,284,60757,6,0,P|40:282|63:270,1,50.9999984436036,8|0,0:0|0:0,0:0:0:0:
249,326,60932,2,0,P|226:315|209:296,1,50.9999984436036,0|0,3:0|0:0,0:0:0:0:
170,108,61106,6,0,L|140:277,1,152.999995330811,6|0,3:2|0:0,0:0:0:0:
125,359,61455,2,0,L|143:254,1,101.999996887207,8|0,0:0|0:0,0:0:0:0:
170,108,61804,1,2,0:0:0:0:
231,271,61978,1,2,3:2:0:0:
71,191,62153,1,10,0:0:0:0:
213,43,62327,6,0,P|246:83|243:138,1,101.999996887207,2|0,0:0|3:0,0:0:0:0:
71,191,62676,1,2,0:0:0:0:
246,130,62850,2,0,B|296:112|296:112|351:128,1,101.999996887207,8|2,0:0|0:0,0:0:0:0:
418,152,63112,1,0,3:0:0:0:
418,152,63199,1,2,0:0:0:0:
213,43,63374,1,2,3:2:0:0:
416,148,63548,1,10,0:0:0:0:
301,194,63723,1,2,0:0:0:0:
491,110,63897,6,0,P|452:72|392:68,1,101.999996887207,6|0,3:2|0:0,0:0:0:0:
206,91,64246,1,10,0:0:0:0:
340,124,64420,1,2,0:0:0:0:
182,84,64595,1,2,0:0:0:0:
416,148,64769,1,2,3:2:0:0:
248,195,64944,1,8,0:0:0:0:
88,64,65118,6,0,P|137:57|181:83,1,101.999996887207,2|0,0:0|3:0,0:0:0:0:
248,195,65467,1,2,0:0:0:0:
42,140,65641,2,0,P|58:187|100:214,1,101.999996887207,8|0,0:0|0:0,0:0:0:0:
122,140,65903,1,0,3:0:0:0:
122,140,65990,1,0,0:0:0:0:
24,262,66164,1,0,3:0:0:0:
200,283,66338,1,10,0:0:0:0:
100,214,66512,1,0,3:0:0:0:
248,195,66688,6,0,L|348:176,1,101.999996887207,4|0,3:2|0:0,0:0:0:0:
485,48,67037,1,8,0:0:0:0:
511,139,67211,2,0,P|447:133|408:100,1,101.999996887207,2|0,0:0|0:0,0:0:0:0:
233,100,67560,1,0,3:0:0:0:
248,195,67734,2,0,P|303:162|324:116,1,101.999996887207,10|0,0:0|0:0,0:0:0:0:
74,62,68083,6,0,B|64:117|64:117|83:168,1,101.999996887207,2|0,3:2|0:0,0:0:0:0:
247,195,68432,2,0,L|138:214,1,101.999996887207,8|0,0:0|0:0,0:0:0:0:
100,277,68694,1,0,3:0:0:0:
100,277,68781,2,0,P|99:341|126:381,1,101.999996887207,0|0,0:0|3:0,0:0:0:0:
194,129,69130,1,10,0:0:0:0:
177,308,69304,1,0,0:0:0:0:
151,64,69478,6,0,P|217:53|255:79,1,101.999996887207,6|0,3:2|0:0,0:0:0:0:
42,142,69827,2,0,P|0:90|2:44,1,101.999996887207,10|0,0:0|0:0,0:0:0:0:
194,129,70176,1,2,0:0:0:0:
75,73,70350,1,2,3:2:0:0:
53,285,70525,1,10,0:0:0:0:
128,193,70699,1,2,0:0:0:0:
199,369,70874,6,0,L|98:351,1,101.999996887207,0|2,0:0|3:2,0:0:0:0:
194,129,71222,1,8,0:0:0:0:
165,289,71396,1,2,0:0:0:0:
87,61,71571,1,0,0:0:0:0:
329,103,71745,1,0,3:2:0:0:
194,129,71920,6,0,P|192:103|201:79,1,50.9999984436036,8|0,0:0|0:0,0:0:0:0:
254,214,72095,2,0,P|255:239|246:263,1,50.9999984436036,0|0,3:0|0:0,0:0:0:0:
274,41,72269,6,0,B|312:20|312:20|452:45,1,152.999995330811,6|0,3:2|0:0,0:0:0:0:
474,96,72618,2,0,P|501:46|487:-3,1,101.999996887207,8|0,0:0|0:0,0:0:0:0:
327,103,72967,2,0,L|311:203,2,101.999996887207,2|2|10,0:0|3:2|0:0,0:0:0:0:
177,41,73490,6,0,P|226:79|236:131,1,101.999996887207,2|0,0:0|3:0,0:0:0:0:
338,18,73839,1,2,0:0:0:0:
489,98,74013,2,0,P|426:113|397:154,1,101.999996887207,8|2,0:0|0:0,0:0:0:0:
480,184,74275,1,0,3:0:0:0:
480,184,74362,1,2,0:0:0:0:
337,202,74537,1,2,3:2:0:0:
367,364,74711,1,10,0:0:0:0:
417,248,74885,1,2,0:0:0:0:
269,149,75060,6,0,P|250:95|264:43,1,101.999996887207,6|0,3:2|0:0,0:0:0:0:
398,145,75409,1,10,0:0:0:0:
258,52,75583,1,2,0:0:0:0:
337,202,75757,1,2,0:0:0:0:
330,97,75932,1,2,3:2:0:0:
275,257,76106,1,8,0:0:0:0:
193,106,76281,6,0,P|123:110|93:134,1,101.999996887207,2|0,0:0|3:0,0:0:0:0:
275,257,76630,1,2,0:0:0:0:
403,139,76804,2,0,L|382:26,1,101.999996887207,8|0,0:0|0:0,0:0:0:0:
307,0,77066,1,0,3:0:0:0:
307,0,77153,1,0,0:0:0:0:
479,77,77327,1,0,3:0:0:0:
307,98,77502,1,10,0:0:0:0:
403,139,77676,1,0,3:0:0:0:
218,54,77850,6,0,L|115:72,1,101.999996887207,4|0,3:2|0:0,0:0:0:0:
43,193,78199,1,8,0:0:0:0:
258,257,78374,2,0,P|264:204|228:148,1,101.999996887207,2|0,0:0|0:0,0:0:0:0:
114,151,78723,1,0,3:0:0:0:
269,343,78898,2,0,P|317:321|345:262,1,101.999996887207,10|0,0:0|0:0,0:0:0:0:
254,66,79246,6,0,B|232:102|232:102|248:192,1,101.999996887207,2|0,3:2|0:0,0:0:0:0:
342,281,79595,2,0,P|399:305|451:286,1,101.999996887207,8|0,0:0|0:0,0:0:0:0:
398,219,79856,1,0,3:0:0:0:
398,219,79944,2,0,P|340:194|288:213,1,101.999996887207,0|0,0:0|3:0,0:0:0:0:
319,361,80292,1,10,0:0:0:0:
216,165,80467,1,0,0:0:0:0:
471,194,80641,6,0,P|469:255|442:285,1,101.999996887207,6|0,3:2|0:0,0:0:0:0:
395,68,80990,2,0,P|448:39|488:47,1,101.999996887207,10|0,0:0|0:0,0:0:0:0:
398,219,81339,1,2,0:0:0:0:
258,146,81513,1,2,3:2:0:0:
452,118,81688,1,10,0:0:0:0:
234,149,81862,1,2,0:0:0:0:
397,219,82037,6,0,P|408:274|386:317,1,101.999996887207,0|2,0:0|3:2,0:0:0:0:
154,156,82385,1,8,0:0:0:0:
373,128,82560,1,2,0:0:0:0:
262,303,82734,1,0,0:0:0:0:
235,38,82909,1,0,3:2:0:0:
373,128,83083,6,0,P|406:130|436:113,1,50.9999984436036,8|0,0:0|0:0,0:0:0:0:
381,4,83257,2,0,P|378:37|396:67,1,50.9999984436036,0|0,3:0|0:0,0:0:0:0:
485,169,83432,6,0,B|530:232|483:278|483:278|472:257|450:243,1,152.999995330811,6|0,3:2|0:0,0:0:0:0:
414,315,83781,2,0,L|298:294,1,101.999996887207,8|0,0:0|0:0,0:0:0:0:
233,146,84130,2,0,L|250:246,2,101.999996887207,2|2|10,0:0|3:2|0:0,0:0:0:0:
77,278,84653,6,0,P|127:261|185:274,1,101.999996887207,2|0,0:0|3:0,0:0:0:0:
274,383,85002,1,2,0:0:0:0:
397,316,85176,2,0,L|414:215,1,101.999996887207,8|2,0:0|0:0,0:0:0:0:
427,139,85438,1,0,3:0:0:0:
427,139,85525,1,2,0:0:0:0:
265,161,85699,1,2,3:2:0:0:
323,18,85874,1,10,0:0:0:0:
341,118,86048,1,2,0:0:0:0:
285,247,86223,6,0,P|223:238|193:206,1,101.999996887207,6|0,3:2|0:0,0:0:0:0:
323,18,86571,1,10,0:0:0:0:
341,118,86746,1,2,0:0:0:0:
459,44,86920,1,2,0:0:0:0:
261,77,87095,1,2,3:2:0:0:
388,231,87269,1,8,0:0:0:0:
195,266,87444,6,0,L|91:247,1,101.999996887207,2|0,0:0|3:0,0:0:0:0:
247,378,87792,1,2,0:0:0:0:
388,231,87967,2,0,P|320:210|272:237,1,101.999996887207,8|0,0:0|0:0,0:0:0:0:
335,293,88228,1,0,3:0:0:0:
335,293,88316,1,0,0:0:0:0:
509,275,88490,1,0,3:0:0:0:
429,147,88664,1,10,0:0:0:0:
453,336,88839,1,0,3:0:0:0:
467,73,89013,6,0,P|413:64|368:87,1,101.999996887207,4|0,3:2|0:0,0:0:0:0:
275,228,89362,1,8,0:0:0:0:
447,232,89537,2,0,P|393:221|358:184,1,101.999996887207,2|0,0:0|0:0,0:0:0:0:
295,39,89886,1,0,3:0:0:0:
275,228,90060,2,0,L|168:247,1,101.999996887207,10|0,0:0|0:0,0:0:0:0:
8,189,90409,6,0,P|62:203|94:253,1,101.999996887207,2|0,3:2|0:0,0:0:0:0:
0,372,90757,2,0,L|19:263,1,101.999996887207,8|0,0:0|0:0,0:0:0:0:
93,242,91019,1,0,3:0:0:0:
93,242,91106,2,0,P|140:280|198:282,1,101.999996887207,0|0,0:0|3:0,0:0:0:0:
376,179,91455,1,10,0:0:0:0:
165,202,91630,1,0,0:0:0:0:
275,355,91804,6,0,B|289:305|289:305|274:253,1,101.999996887207,6|0,3:2|0:0,0:0:0:0:
468,134,92153,2,0,B|454:184|454:184|469:236,1,101.999996887207,10|0,0:0|0:0,0:0:0:0:
386,351,92502,1,2,0:0:0:0:
250,165,92676,1,2,3:2:0:0:
348,94,92850,1,10,0:0:0:0:
321,258,93025,1,2,0:0:0:0:
313,20,93199,6,0,P|370:15|419:52,1,101.999996887207,0|2,0:0|3:2,0:0:0:0:
321,258,93548,1,8,0:0:0:0:
348,94,93723,1,2,0:0:0:0:
443,359,93897,1,0,0:0:0:0:
163,312,94071,1,0,3:2:0:0:
394,237,94246,6,0,P|404:200|399:174,1,50.9999984436036,8|0,0:0|0:0,0:0:0:0:
247,280,94420,2,0,P|237:317|242:343,1,50.9999984436036,0|0,3:0|0:0,0:0:0:0:
321,258,94595,5,4,3:2:0:0:
