osu file format v14

[General]
AudioFilename: audio.mp3
AudioLeadIn: 0
PreviewTime: 49867
Countdown: 0
SampleSet: Soft
StackLeniency: 0.7
Mode: 0
LetterboxInBreaks: 0
WidescreenStoryboard: 1

[Editor]
DistanceSpacing: 1.2
BeatDivisor: 2
GridSize: 4
TimelineZoom: 1

[Metadata]
Title:The Journey (feat. Veela)
TitleUnicode:The Journey (feat. Veela)
Artist:Feint
ArtistUnicode:Feint
Creator:A r M i N
Version:Easy
Source:
Tags:drum and bass electronic vocal dnb liquicity Armin A_r_M_i_N Shmiklak Marvollo M_a_r_v_o_l_l_o xchorse yamicchi plaudible _dt3 turtle
BeatmapID:1621006
BeatmapSetID:770668

[Difficulty]
HPDrainRate:2
CircleSize:2.5
OverallDifficulty:2
ApproachRate:3
SliderMultiplier:0.899999999999999
SliderTickRate:1

[Events]
//Background and Video events
0,0,"ku.jpg",0,0
//Break Periods
//Storyboard Layer 0 (Background)
//Storyboard Layer 1 (Fail)
//Storyboard Layer 2 (Pass)
//Storyboard Layer 3 (Foreground)
//Storyboard Sound Samples

[TimingPoints]
5304,348.837209302326,4,2,2,30,1,0
5304,-200,4,2,2,30,0,0
5914,-200,4,2,2,5,0,0
6001,-200,4,2,2,30,0,0
7757,348.837209302326,4,2,2,30,1,0
8105,348.837209302326,4,2,2,30,1,0
8105,-200,4,2,2,30,0,0
8366,-200,4,2,2,5,0,0
8453,-200,4,2,2,30,0,0
9587,-200,4,2,2,5,0,0
9674,-200,4,2,2,30,0,0
10459,-200,4,2,2,5,0,0
10546,-200,4,2,2,30,0,0
11157,-200,4,2,2,5,0,0
11244,-200,4,2,2,30,0,0
13686,-200,4,2,2,30,0,0
14296,-200,4,2,2,5,0,0
14384,-200,4,2,2,30,0,0
15168,-200,4,2,2,5,0,0
15255,-200,4,2,2,30,0,0
15866,-200,4,2,2,5,0,0
15953,-200,4,2,2,30,0,0
16477,-200,4,2,2,30,0,0
18482,-200,4,2,2,5,0,0
18569,-200,4,2,2,30,0,0
20184,348.837209302326,4,2,2,30,1,0
20707,348.837209302326,4,2,2,30,1,0
22102,-200,4,2,2,30,0,0
23192,340.909090909091,4,2,2,30,1,0
24896,348.837209302326,4,2,2,30,1,0
27629,348.837209302326,4,2,2,30,1,0
27629,-133.333333333333,4,2,2,30,0,0
27977,-133.333333333333,4,2,2,37,0,0
29983,-133.333333333333,4,2,2,5,0,0
30070,-133.333333333333,4,2,2,37,0,0
30681,-133.333333333333,4,2,2,5,0,0
30768,-133.333333333333,4,2,2,37,0,0
32251,-133.333333333333,4,2,2,5,0,0
32338,-133.333333333333,4,2,2,37,0,0
43413,-133.333333333333,4,2,2,5,0,0
43501,-133.333333333333,4,2,2,37,0,0
49944,348.837209302326,4,2,1,60,1,1
49944,-100,4,2,1,60,0,1
50031,-100,4,2,1,60,0,0
50205,-100,4,2,1,5,0,0
50292,-100,4,2,1,60,0,0
61106,-100,4,2,1,60,0,1
61194,-100,4,2,1,60,0,0
61368,-100,4,2,1,5,0,0
61455,-100,4,2,1,60,0,0
72269,-100,4,2,1,60,0,1
72356,-100,4,2,1,60,0,0
72531,-100,4,2,1,5,0,0
72618,-100,4,2,1,60,0,0
83432,-100,4,2,1,60,0,1
83519,-100,4,2,1,60,0,0
83694,-100,4,2,1,5,0,0
83781,-100,4,2,1,60,0,0
94595,-100,4,2,1,60,0,0

[Colours]
Combo1 : 128,0,64
Combo2 : 110,183,215
Combo3 : 188,84,86
Combo4 : 0,128,255

[HitObjects]
46,60,5304,6,0,B|198:132|198:-12|348:59,1,316.6,0|0,3:2|0:0,0:0:0:0:
410,129,8105,6,0,B|397:309|397:309|338:271|266:293,1,315,2|2,0:0|0:0,0:0:0:0:
192,349,10895,6,0,B|121:370|62:332|62:332|77:151,1,315,2|2,0:0|0:0,0:0:0:0:
128,73,13686,6,0,B|213:34|213:34|309:114|309:114|397:74,1,315,2|2,0:0|0:0,0:0:0:0:
481,31,16477,6,0,B|515:111|451:174|451:174|424:262|486:323,1,315,0|0,0:0|0:0,0:0:0:0:
407,375,19267,6,0,B|289:354|289:354|268:299|298:255|298:255|327:210|310:163,1,320.6
230,104,22102,6,0,B|28:126|28:126|1:180|32:233,1,316.4
256,192,24896,12,4,27629,0:0:0:0:
42,130,29024,6,0,L|175:109,1,135.000005149841,2|2,0:0|0:0,0:0:0:0:
236,37,30070,1,2,0:0:0:0:
311,94,30419,6,0,P|322:124|321:159,1,67.5000025749207,2|2,0:0|0:0,0:0:0:0:
272,240,31117,2,0,B|260:289|260:289|272:338,2,101.250003862381,2|2|0,0:0|0:0|0:0,0:0:0:0:
320,159,32512,2,0,L|386:169,1,67.5000025749207,2|2,0:0|0:0,0:0:0:0:
467,119,33210,6,0,B|478:69|478:69|467:20,2,101.250003862381,2|2|2,0:0|0:0|0:0,0:0:0:0:
45,265,36001,6,0,B|33:314|33:314|45:363,2,101.250003862381,2|2|2,0:0|0:0|0:0,0:0:0:0:
163,117,37745,1,2,0:0:0:0:
231,181,38094,2,0,P|264:182|296:171,1,67.5000025749207,2|2,0:0|0:0,0:0:0:0:
354,96,38791,6,0,B|403:84|403:84|452:96,2,101.250003862381,2|2|2,0:0|0:0|0:0,0:0:0:0:
296,171,40187,2,0,L|317:304,1,135.000005149841,2|2,0:0|0:0,0:0:0:0:
251,372,41233,1,2,0:0:0:0:
174,316,41582,6,0,B|125:304|125:304|76:316,2,101.250003862381,2|2|2,0:0|0:0|0:0,0:0:0:0:
251,372,42977,2,0,P|316:357|354:304,1,135.000005149841,0|2,0:0|0:0,0:0:0:0:
323,214,44024,1,2,0:0:0:0:
388,146,44373,6,0,B|437:134|437:134|486:146,2,101.250003862381,2|2|2,0:0|0:0|0:0,0:0:0:0:
124,238,47163,6,0,B|75:250|75:250|26:238,2,101.250003862381,2|2|2,0:0|0:0|0:0,0:0:0:0:
1,90,49944,6,0,B|84:54|92:125|175:90,1,180,6|2,3:2|0:0,0:0:0:0:
249,12,50990,1,10,0:0:0:0:
321,92,51339,2,0,P|321:136|302:177,1,89.9999999999999,0|8,3:0|0:0,0:0:0:0:
218,244,52037,2,0,P|217:288|236:329,1,89.9999999999999,2|10,0:0|0:0,0:0:0:0:
336,367,52734,6,0,B|456:351|456:351|432:297,1,180,6|2,3:2|0:0,0:0:0:0:
379,202,53781,1,8,0:0:0:0:
458,128,54130,2,0,P|458:83|439:42,1,89.9999999999999,0|8,3:0|0:0,0:0:0:0:
336,13,54827,2,0,L|247:26,1,89.9999999999999,2|10,0:0|0:0,0:0:0:0:
166,98,55525,6,0,B|100:114|100:114|34:98,2,135,4|2|10,3:2|0:0|0:0,0:0:0:0:
247,26,56920,2,0,P|274:93|231:185,1,180,2|0,3:2|0:0,0:0:0:0:
127,218,57967,1,10,0:0:0:0:
178,312,58316,6,0,P|218:330|263:331,1,89.9999999999999,6|10,3:2|0:0,0:0:0:0:
355,274,59013,1,2,0:0:0:0:
420,359,59362,1,10,0:0:0:0:
507,295,59711,2,0,L|479:118,1,180,0|2,0:0|0:0,0:0:0:0:
400,43,60757,1,8,0:0:0:0:
337,131,61106,6,0,P|270:158|178:115,1,180,6|2,3:2|0:0,0:0:0:0:
137,13,62153,1,10,0:0:0:0:
64,93,62502,2,0,P|63:137|82:178,1,89.9999999999999,0|8,3:0|0:0,0:0:0:0:
180,222,63199,2,0,L|193:311,1,89.9999999999999,2|10,0:0|0:0,0:0:0:0:
285,367,63897,6,0,B|368:331|376:402|459:367,1,180,6|2,3:2|0:0,0:0:0:0:
511,271,64944,1,8,0:0:0:0:
425,206,65292,2,0,L|412:117,1,89.9999999999999,0|8,3:0|0:0,0:0:0:0:
328,48,65990,2,0,P|283:47|242:66,1,89.9999999999999,2|10,0:0|0:0,0:0:0:0:
161,138,66688,6,0,B|95:154|95:154|29:138,2,135,4|2|8,3:2|0:0|0:0,0:0:0:0:
242,66,68083,2,0,P|269:133|226:225,1,180,2|0,3:2|0:0,0:0:0:0:
127,272,69130,1,10,0:0:0:0:
203,348,69478,6,0,L|292:335,1,89.9999999999999,6|10,3:2|0:0,0:0:0:0:
357,248,70176,1,2,0:0:0:0:
266,189,70525,1,10,0:0:0:0:
310,90,70874,2,0,B|430:106|430:106|406:160,1,180,0|2,0:0|0:0,0:0:0:0:
357,248,71920,1,8,0:0:0:0:
266,189,72269,6,0,P|194:177|114:240,1,180,6|2,3:2|0:0,0:0:0:0:
77,343,73316,1,10,0:0:0:0:
4,263,73664,2,0,P|3:218|22:177,1,89.9999999999999,0|8,3:0|0:0,0:0:0:0:
119,129,74362,2,0,L|132:40,1,89.9999999999999,2|10,0:0|0:0,0:0:0:0:
228,89,75060,6,0,B|311:124|319:53|402:89,1,180,6|2,3:2|0:0,0:0:0:0:
474,168,76106,1,8,0:0:0:0:
430,267,76455,2,0,P|385:267|344:248,1,89.9999999999999,0|8,3:0|0:0,0:0:0:0:
260,181,77153,2,0,L|171:194,1,89.9999999999999,2|10,0:0|0:0,0:0:0:0:
71,236,77850,6,0,B|55:302|55:302|71:368,2,135,4|2|10,3:2|0:0|0:0,0:0:0:0:
171,194,79246,2,0,B|153:75|153:75|168:45|194:28,1,180,2|0,3:2|0:0,0:0:0:0:
297,11,80292,1,10,0:0:0:0:
359,98,80641,6,0,P|359:142|340:183,1,89.9999999999999,6|10,3:2|0:0,0:0:0:0:
250,242,81339,1,2,0:0:0:0:
322,321,81688,1,10,0:0:0:0:
229,376,82037,2,0,L|52:348,1,180,0|2,0:0|0:0,0:0:0:0:
0,252,83083,1,8,0:0:0:0:
75,175,83432,6,0,P|146:163|226:226,1,180,6|2,3:2|0:0,0:0:0:0:
265,327,84478,1,10,0:0:0:0:
338,247,84827,2,0,P|338:202|319:161,1,89.9999999999999,0|8,3:0|0:0,0:0:0:0:
226,105,85525,2,0,L|239:16,1,89.9999999999999,2|10,0:0|0:0,0:0:0:0:
339,56,86223,6,0,B|401:64|451:35|451:35|451:69|464:98,1,180,6|2,3:2|0:0,0:0:0:0:
511,193,87269,1,8,0:0:0:0:
431,264,87618,2,0,P|386:264|345:245,1,89.9999999999999,0|8,3:0|0:0,0:0:0:0:
284,156,88316,2,0,P|239:155|198:174,1,89.9999999999999,2|10,0:0|0:0,0:0:0:0:
142,266,89013,6,0,B|76:282|76:282|10:266,2,135,4|2|10,3:2|0:0|0:0,0:0:0:0:
199,174,90409,2,0,B|215:54|215:54|269:78,1,180,2|0,3:2|0:0,0:0:0:0:
367,122,91455,1,10,0:0:0:0:
454,59,91804,6,0,P|472:99|471:144,1,89.9999999999999,6|10,3:2|0:0,0:0:0:0:
401,227,92502,1,2,0:0:0:0:
476,303,92850,1,10,0:0:0:0:
391,369,93199,2,0,L|214:341,1,180,0|2,0:0|0:0,0:0:0:0:
134,266,94246,1,8,0:0:0:0:
77,358,94595,5,4,3:2:0:0:
