osu file format v14

[General]
AudioFilename: audio.mp3
AudioLeadIn: 0
PreviewTime: 87715
Countdown: 0
SampleSet: Soft
StackLeniency: 0.4
Mode: 0
LetterboxInBreaks: 0
WidescreenStoryboard: 1

[Editor]
Bookmarks: 22039,43981,54953,65924,76896,87867,96953,98839,109810
DistanceSpacing: 0.6
BeatDivisor: 4
GridSize: 32
TimelineZoom: 2.200006

[Metadata]
Title:Take It In (feat. Koven)
TitleUnicode:Take It In (feat. Koven)
Artist:Feint
ArtistUnicode:Feint
Creator:Hobbes2
Version:Plaudible's Insane
Source:
Tags:Drum and Bass dnb Liquicity Alchemy 2 Liquid Amsterdam Plaudible MrSergio
BeatmapID:1354037
BeatmapSetID:616023

[Difficulty]
HPDrainRate:6
CircleSize:4
OverallDifficulty:8
ApproachRate:9
SliderMultiplier:1.7
SliderTickRate:1

[Events]
//Background and Video events
0,0,"CelerySizedBG.jpg",0,0
//Break Periods
//Storyboard Layer 0 (Background)
//Storyboard Layer 1 (Fail)
//Storyboard Layer 2 (Pass)
//Storyboard Layer 3 (Foreground)
//Storyboard Sound Samples

[TimingPoints]
22039,342.857142857143,4,2,1,40,1,0
22039,-133.333333333333,4,2,1,40,0,0
42781,-125,4,2,1,45,0,0
43981,-125,4,2,2,50,0,0
54953,-100,4,2,3,50,0,0
64553,-100,4,2,2,50,0,0
65924,-83.3333333333333,4,2,4,55,0,1
86496,-83.3333333333333,4,2,2,55,0,0
87524,-83.3333333333333,4,2,4,55,0,0
88210,-83.3333333333333,4,2,4,55,0,1
108439,-100,4,2,4,55,0,0
108610,-100,4,2,2,55,0,0
109810,-83.3333333333333,4,2,4,55,0,0

[Colours]
Combo1 : 255,120,55
Combo2 : 50,140,250
Combo3 : 250,85,80
Combo4 : 110,200,30

[HitObjects]
345,196,22039,6,0,L|424:200,2,63.7500024318696,6|0|8,0:0|0:0|0:0,0:0:0:0:
257,97,22553,1,0,0:0:0:0:
328,54,22724,2,0,P|341:91|333:130,1,63.7500024318696,0|8,0:0|0:0,0:0:0:0:
257,15,23067,1,0,0:0:0:0:
257,15,23239,6,0,L|114:22,1,127.500004863739
73,75,23753,1,8,0:0:0:0:
128,143,23924,1,0,0:0:0:0:
128,143,24010,1,0,0:0:0:0:
128,143,24096,2,0,P|127:165|123:192,2,31.8750012159348,0|0|8,0:0|0:0|0:0,0:0:0:0:
65,227,24439,1,0,0:0:0:0:
65,227,24610,6,0,P|119:256|186:225,1,127.500004863739,0|0,0:0|0:0,0:0:0:0:
243,184,25124,2,0,P|285:180|321:192,2,63.7500024318696,8|0|0,0:0|0:0|0:0,0:0:0:0:
178,235,25639,2,0,L|94:231,2,63.7500024318696,8|0|0,0:0|0:0|0:0,0:0:0:0:
203,312,26153,5,0,0:0:0:0:
285,313,26324,1,0,0:0:0:0:
322,238,26496,2,0,P|285:229|250:237,1,63.7500024318696,8|0,0:0|0:0,0:0:0:0:
203,312,26839,2,0,L|161:310,2,31.8750012159348,0|0|8,0:0|0:0|0:0,0:0:0:0:
113,230,27181,2,0,L|203:236,1,63.7500024318696,0|0,0:0|0:0,0:0:0:0:
284,160,27524,6,0,L|221:165,2,63.7500024318696,0|0|8,0:0|0:0|0:0,0:0:0:0:
351,110,28039,1,0,0:0:0:0:
351,110,28125,1,0,0:0:0:0:
351,110,28211,2,0,P|350:88|346:61,2,31.8750012159348,0|0|8,0:0|0:0|0:0,0:0:0:0:
418,157,28553,2,0,P|425:190|408:233,1,63.7500024318696,0|0,0:0|0:0,0:0:0:0:
239,288,28896,6,0,P|275:258|366:284,1,127.500004863739,0|8,0:0|0:0,0:0:0:0:
424,299,29410,1,0,0:0:0:0:
415,316,29496,1,0,0:0:0:0:
402,329,29581,1,0,0:0:0:0:
385,338,29667,1,0,0:0:0:0:
366,344,29753,1,8,0:0:0:0:
239,288,29924,1,0,0:0:0:0:
321,149,30096,6,0,B|354:184|354:184|350:267,1,127.500004863739
267,364,30610,2,0,P|215:367|189:353,2,63.7500024318696,8|0|0,0:0|0:0|0:0,0:0:0:0:
343,344,31124,2,0,L|408:347,2,63.7500024318696,8|0|0,0:0|0:0|0:0,0:0:0:0:
287,281,31639,5,0,0:0:0:0:
325,207,31810,1,0,0:0:0:0:
406,221,31981,2,0,P|403:179|380:144,1,63.7500024318696,8|0,0:0|0:0,0:0:0:0:
295,131,32324,2,0,P|260:154|241:192,1,63.7500024318696,0|8,0:0|0:0,0:0:0:0:
360,84,32667,1,0,0:0:0:0:
325,207,32839,1,0,0:0:0:0:
360,84,33010,6,0,L|355:12,2,63.7500024318696,0|0|8,0:0|0:0|0:0,0:0:0:0:
325,207,33524,1,0,0:0:0:0:
405,224,33696,2,0,P|407:190|391:154,1,63.7500024318696,0|8,0:0|0:0,0:0:0:0:
347,285,34039,1,0,0:0:0:0:
347,285,34210,6,0,B|390:304|390:304|476:295,1,127.500004863739
509,222,34724,1,8,0:0:0:0:
450,163,34896,1,0,0:0:0:0:
450,163,34982,1,0,0:0:0:0:
450,163,35068,2,0,P|451:141|455:114,2,31.8750012159348,0|0|8,0:0|0:0|0:0,0:0:0:0:
512,74,35410,1,0,0:0:0:0:
512,74,35581,6,0,P|464:47|386:79,1,127.500004863739,0|0,0:0|0:0,0:0:0:0:
318,94,36096,2,0,P|274:88|235:106,2,63.7500024318696,8|0|0,0:0|0:0|0:0,0:0:0:0:
383,147,36610,2,0,L|386:215,2,63.7500024318696,8|0|0,0:0|0:0|0:0,0:0:0:0:
318,94,37124,5,0,0:0:0:0:
240,123,37296,1,0,0:0:0:0:
172,75,37467,2,0,P|156:122|166:160,1,63.7500024318696,8|0,0:0|0:0,0:0:0:0:
207,201,37810,2,0,L|249:203,2,31.8750012159348,0|0|8,0:0|0:0|0:0,0:0:0:0:
289,282,38153,2,0,L|225:278,1,63.7500024318696,0|0,0:0|0:0,0:0:0:0:
121,354,38496,6,0,L|186:347,2,63.7500024318696,0|0|8,0:0|0:0|0:0,0:0:0:0:
44,296,39010,1,0,0:0:0:0:
44,296,39096,1,0,0:0:0:0:
44,296,39182,2,0,P|43:318|39:345,2,31.8750012159348,0|0|8,0:0|0:0|0:0,0:0:0:0:
102,237,39524,2,0,P|107:183|99:157,1,63.7500024318696,0|0,0:0|0:0,0:0:0:0:
36,78,39867,6,0,B|65:101|65:101|163:95,1,127.500004863739,0|8,0:0|0:0,0:0:0:0:
231,54,40381,1,0,0:0:0:0:
238,71,40467,1,0,0:0:0:0:
241,90,40553,1,0,0:0:0:0:
238,109,40639,1,0,0:0:0:0:
233,126,40724,1,8,0:0:0:0:
112,162,40896,1,0,0:0:0:0:
44,122,41067,6,0,P|93:84|154:94,1,127.500004863739
251,208,41581,2,0,P|200:203|168:180,2,63.7500024318696,8|0|0,0:0|0:0|0:0,0:0:0:0:
321,252,42096,2,0,L|401:251,2,63.7500024318696,8|0|0,0:0|0:0|0:0,0:0:0:0:
321,252,42781,5,0,0:0:0:0:
326,134,42953,1,0,0:0:0:0:
322,265,43124,5,0,0:0:0:0:
241,219,43296,1,0,0:0:0:0:
323,278,43467,5,0,0:0:0:0:
255,327,43639,2,0,L|143:318,1,102,0|0,0:0|0:0,0:0:0:0:
106,315,43981,5,14,0:0:0:0:
55,233,44153,1,0,0:0:0:0:
115,160,44324,1,0,0:0:0:0:
96,320,44496,5,8,0:0:0:0:
45,238,44668,1,0,0:0:0:0:
105,165,44839,1,0,0:0:0:0:
86,325,45010,5,8,0:0:0:0:
39,243,45181,1,0,0:0:0:0:
184,243,45353,6,0,P|217:250|251:245,2,68,8|0|0,0:0|0:0|0:0,0:0:0:0:
256,86,45867,2,0,P|233:110|221:142,2,68,8|0|0,0:0|0:0|0:0,0:0:0:0:
351,230,46381,2,0,P|340:197|319:171,1,68,8|0,0:0|0:0,0:0:0:0:
462,119,46724,5,8,0:0:0:0:
427,31,46896,1,0,0:0:0:0:
368,105,47067,1,0,0:0:0:0:
452,124,47239,5,8,0:0:0:0:
417,36,47411,1,0,0:0:0:0:
358,110,47582,1,0,0:0:0:0:
442,129,47753,5,8,0:0:0:0:
409,40,47924,1,0,0:0:0:0:
305,184,48096,6,0,L|299:263,2,68,8|0|0,0:0|0:0|0:0,0:0:0:0:
443,285,48610,2,0,L|386:246,2,68,8|0|0,0:0|0:0|0:0,0:0:0:0:
292,360,49124,2,0,L|353:330,1,68,8|0,0:0|0:0,0:0:0:0:
304,181,49467,5,8,0:0:0:0:
216,174,49639,1,0,0:0:0:0:
178,92,49810,1,0,0:0:0:0:
294,186,49981,5,8,0:0:0:0:
206,179,50153,1,0,0:0:0:0:
168,97,50324,1,0,0:0:0:0:
284,191,50496,5,8,0:0:0:0:
197,184,50667,1,0,0:0:0:0:
84,172,50839,6,0,P|40:171|1:153,2,68,8|0|0,0:0|0:0|0:0,0:0:0:0:
157,237,51353,2,0,P|179:199|214:174,2,68,8|0|0,0:0|0:0|0:0,0:0:0:0:
68,269,51867,2,0,P|88:307|93:350,1,68,8|0,0:0|0:0,0:0:0:0:
280,343,52210,5,8,0:0:0:0:
245,255,52382,1,0,0:0:0:0:
186,329,52553,1,0,0:0:0:0:
270,348,52725,5,8,0:0:0:0:
235,260,52897,1,0,0:0:0:0:
176,334,53068,1,0,0:0:0:0:
260,353,53239,5,8,0:0:0:0:
228,268,53410,1,0,0:0:0:0:
323,282,53581,6,0,P|326:248|315:217,2,68,8|0|0,0:0|0:0|0:0,0:0:0:0:
176,334,54096,1,8,0:0:0:0:
235,260,54267,1,0,0:0:0:0:
260,353,54439,1,0,0:0:0:0:
144,248,54610,2,0,B|129:170|129:170|155:127,1,102,8|0,0:0|0:0,0:0:0:0:
193,94,54953,6,0,P|153:75|112:81,1,85,6|0,0:0|0:0,0:0:0:0:
45,215,55296,1,8,0:0:0:0:
144,248,55467,1,0,0:0:0:0:
169,246,55553,1,0,0:0:0:0:
194,244,55639,1,0,0:0:0:0:
219,242,55724,1,0,0:0:0:0:
244,240,55810,1,8,0:0:0:0:
140,150,55981,1,0,0:0:0:0:
115,148,56067,1,0,0:0:0:0:
90,146,56153,1,0,0:0:0:0:
65,144,56238,1,0,0:0:0:0:
37,141,56324,6,0,P|23:105|54:47,1,85,2|0,0:0|0:0,0:0:0:0:
182,16,56667,1,8,0:0:0:0:
244,73,56839,1,0,0:0:0:0:
224,89,56924,1,0,0:0:0:0:
199,97,57010,1,0,0:0:0:0:
173,97,57096,1,0,0:0:0:0:
148,91,57181,1,8,0:0:0:0:
306,13,57353,1,0,0:0:0:0:
322,33,57438,1,0,0:0:0:0:
330,58,57524,1,0,0:0:0:0:
330,84,57610,1,0,0:0:0:0:
321,108,57696,6,0,P|306:155|326:202,1,85,2|0,0:0|0:0,0:0:0:0:
431,250,58039,1,8,0:0:0:0:
487,158,58210,1,0,0:0:0:0:
462,156,58296,1,0,0:0:0:0:
437,154,58382,1,0,0:0:0:0:
412,152,58467,1,0,0:0:0:0:
387,150,58553,1,8,0:0:0:0:
331,258,58724,1,0,0:0:0:0:
356,256,58810,1,0,0:0:0:0:
381,254,58896,1,0,0:0:0:0:
406,252,58981,1,0,0:0:0:0:
431,250,59067,6,0,P|485:256|529:227,1,85,2|0,0:0|0:0,0:0:0:0:
445,77,59410,1,8,0:0:0:0:
387,150,59581,1,0,0:0:0:0:
363,161,59667,1,0,0:0:0:0:
337,164,59753,1,2,0:0:0:0:
312,157,59839,1,2,0:0:0:0:
288,146,59924,1,8,0:0:0:0:
345,22,60096,1,8,0:0:0:0:
343,47,60181,1,0,0:0:0:0:
341,72,60267,1,2,0:0:0:0:
328,252,60439,5,2,0:0:0:0:
288,146,60610,1,2,0:0:0:0:
445,77,60781,1,10,0:0:0:0:
484,158,60953,1,2,0:0:0:0:
459,164,61039,1,0,0:0:0:0:
433,162,61124,1,2,0:0:0:0:
408,154,61210,1,0,0:0:0:0:
386,139,61296,1,10,0:0:0:0:
420,247,61467,1,2,0:0:0:0:
437,265,61553,1,0,0:0:0:0:
448,289,61638,1,2,0:0:0:0:
454,314,61724,1,0,0:0:0:0:
452,341,61810,5,2,0:0:0:0:
512,238,61981,1,2,0:0:0:0:
364,320,62153,1,10,0:0:0:0:
277,253,62324,1,2,0:0:0:0:
274,227,62410,1,0,0:0:0:0:
271,201,62496,1,2,0:0:0:0:
268,175,62581,1,0,0:0:0:0:
265,149,62667,1,10,0:0:0:0:
386,85,62839,1,2,0:0:0:0:
383,111,62925,1,0,0:0:0:0:
380,137,63010,1,2,0:0:0:0:
377,163,63096,1,0,0:0:0:0:
375,190,63181,6,0,P|412:193|436:184,3,42.5,2|2|2|2,0:0|0:0|0:0|0:0,0:0:0:0:
472,126,63524,5,10,0:0:0:0:
492,152,63609,1,2,0:0:0:0:
501,185,63695,1,2,0:0:0:0:
497,218,63781,1,2,0:0:0:0:
481,248,63866,1,2,0:0:0:0:
454,269,63952,1,2,0:0:0:0:
421,280,64039,5,10,0:0:0:0:
400,277,64124,1,2,0:0:0:0:
378,274,64210,1,2,0:0:0:0:
356,271,64296,1,2,0:0:0:0:
335,268,64381,1,2,0:0:0:0:
313,265,64467,1,2,0:0:0:0:
291,262,64553,5,10,0:0:0:0:
416,191,64724,1,0,0:0:0:0:
298,56,64896,1,8,0:0:0:0:
266,155,65067,6,0,P|286:160|318:156,1,42.5
448,115,65239,2,0,P|428:110|396:114,1,42.5,0|0,0:0|0:0,0:0:0:0:
291,262,65410,1,8,0:0:0:0:
498,180,65581,5,0,0:0:0:0:
307,158,65753,1,0,0:0:0:0:
269,357,65924,6,0,P|332:355|381:305,1,101.999996887207,6|0,0:0|0:0,0:0:0:0:
224,191,66267,2,0,P|194:246|213:313,1,101.999996887207,8|0,0:0|0:0,0:0:0:0:
307,158,66610,1,0,0:0:0:0:
291,262,66781,1,2,0:0:0:0:
214,101,66953,1,8,0:0:0:0:
357,28,67124,1,0,0:0:0:0:
192,111,67296,6,0,L|90:97,1,101.999996887207,2|0,0:0|0:0,0:0:0:0:
301,129,67639,1,8,0:0:0:0:
146,184,67810,2,0,L|48:213,1,101.999996887207
283,135,68153,1,2,0:0:0:0:
161,271,68324,1,8,0:0:0:0:
264,142,68496,1,0,0:0:0:0:
283,342,68667,6,0,B|248:383|187:387|153:355|153:355|188:358|224:332,1,203.999993774414,2|8,0:0|0:0,0:0:0:0:
161,271,69181,1,0,0:0:0:0:
136,264,69267,1,0,0:0:0:0:
110,265,69353,1,0,0:0:0:0:
86,273,69439,1,0,0:0:0:0:
68,291,69524,1,2,0:0:0:0:
209,342,69696,1,8,0:0:0:0:
192,175,69867,1,0,0:0:0:0:
360,215,70039,6,0,L|462:201,1,101.999996887207,2|0,0:0|0:0,0:0:0:0:
251,233,70382,1,8,0:0:0:0:
406,288,70553,2,0,L|504:317,1,101.999996887207
269,239,70896,1,2,0:0:0:0:
391,375,71067,1,8,0:0:0:0:
288,246,71239,1,0,0:0:0:0:
131,293,71410,6,0,B|238:264|228:359|334:320,1,203.999993774414,2|8,0:0|0:0,0:0:0:0:
354,204,71924,1,0,0:0:0:0:
338,183,72010,1,0,0:0:0:0:
317,168,72096,1,0,0:0:0:0:
291,164,72181,1,0,0:0:0:0:
265,166,72267,1,2,0:0:0:0:
387,275,72439,1,8,0:0:0:0:
229,308,72610,1,0,0:0:0:0:
105,198,72781,6,0,L|91:96,1,101.999996887207,2|0,0:0|0:0,0:0:0:0:
123,307,73124,1,8,0:0:0:0:
178,152,73296,2,0,L|207:54,1,101.999996887207
129,289,73638,1,2,0:0:0:0:
265,166,73809,1,8,0:0:0:0:
136,270,73981,1,0,0:0:0:0:
289,331,74153,6,0,B|377:336|377:336|416:315|416:315|494:321,1,203.999993774414,2|8,0:0|0:0,0:0:0:0:
447,238,74667,1,0,0:0:0:0:
422,236,74753,1,0,0:0:0:0:
397,235,74839,1,0,0:0:0:0:
375,246,74924,1,0,0:0:0:0:
353,259,75010,1,2,0:0:0:0:
424,364,75181,1,8,0:0:0:0:
447,238,75353,1,0,0:0:0:0:
376,157,75524,5,2,0:0:0:0:
289,331,75696,1,0,0:0:0:0:
447,238,75867,1,8,0:0:0:0:
282,200,76039,2,0,L|231:194,1,50.9999984436036,0|0,0:0|0:0,0:0:0:0:
376,157,76210,2,0,L|426:147,1,50.9999984436036,0|0,0:0|0:0,0:0:0:0:
225,111,76381,1,2,0:0:0:0:
450,69,76553,5,8,0:0:0:0:
211,28,76724,1,0,0:0:0:0:
291,244,76896,6,0,P|232:255|191:233,1,101.999996887207,6|0,0:0|0:0,0:0:0:0:
376,157,77239,2,0,P|435:146|476:168,1,101.999996887207,8|0,0:0|0:0,0:0:0:0:
249,178,77581,1,0,0:0:0:0:
420,223,77753,1,2,0:0:0:0:
242,154,77924,1,8,0:0:0:0:
346,79,78096,1,0,0:0:0:0:
291,244,78267,6,0,P|232:255|191:233,1,101.999996887207,2|0,0:0|0:0,0:0:0:0:
195,73,78610,1,8,0:0:0:0:
333,169,78782,2,0,P|369:205|375:255,1,101.999996887207
214,343,79124,1,2,0:0:0:0:
248,170,79296,2,0,P|267:113|307:88,1,101.999996887207,8|0,0:0|0:0,0:0:0:0:
421,215,79639,6,0,B|473:179|473:179|333:169,1,203.999993774414,2|8,0:0|0:0,0:0:0:0:
369,279,80153,1,0,0:0:0:0:
389,293,80239,1,0,0:0:0:0:
412,300,80324,1,0,0:0:0:0:
437,299,80410,1,0,0:0:0:0:
461,291,80496,1,2,0:0:0:0:
402,97,80667,2,0,L|286:90,1,101.999996887207,8|0,0:0|0:0,0:0:0:0:
176,242,81010,6,0,P|232:263|276:248,1,101.999996887207,2|0,0:0|0:0,0:0:0:0:
300,90,81353,1,8,0:0:0:0:
146,161,81524,2,0,P|105:190|89:238,1,101.999996887207
234,352,81867,1,2,0:0:0:0:
231,176,82039,2,0,P|221:116|186:85,1,101.999996887207,8|0,0:0|0:0,0:0:0:0:
176,242,82381,6,0,B|220:266|220:266|392:261,1,203.999993774414,2|8,0:0|0:0,0:0:0:0:
452,215,82896,1,0,0:0:0:0:
438,193,82981,1,0,0:0:0:0:
416,178,83067,1,0,0:0:0:0:
391,172,83153,1,0,0:0:0:0:
365,171,83239,1,2,0:0:0:0:
383,354,83410,2,0,P|429:334|458:293,1,101.999996887207,8|0,0:0|0:0,0:0:0:0:
280,121,83753,6,0,B|267:175|267:175|291:221,1,101.999996887207,2|0,0:0|0:0,0:0:0:0:
452,215,84096,1,8,0:0:0:0:
355,76,84268,2,0,B|323:36|323:36|269:34,1,101.999996887207
182,196,84610,1,2,0:0:0:0:
356,163,84781,2,0,B|411:150|411:150|437:103,1,101.999996887207,8|0,0:0|0:0,0:0:0:0:
182,196,85124,6,0,B|193:342|193:342|240:275,1,203.999993774414,2|8,0:0|0:0,0:0:0:0:
224,122,85639,1,0,0:0:0:0:
200,112,85724,1,0,0:0:0:0:
174,109,85810,1,0,0:0:0:0:
149,114,85896,1,0,0:0:0:0:
129,130,85981,1,2,0:0:0:0:
215,273,86153,2,0,P|254:241|265:193,1,101.999996887207,8|0,0:0|0:0,0:0:0:0:
91,205,86496,5,10,0:0:0:0:
265,192,86667,1,0,0:0:0:0:
169,72,86839,1,10,0:0:0:0:
102,254,87010,5,2,0:0:0:0:
142,251,87096,1,0,0:0:0:0:
182,248,87181,1,2,0:0:0:0:
222,245,87267,1,0,0:0:0:0:
262,243,87353,2,0,L|265:191,1,50.9999984436036,10|0,0:0|0:0,0:0:0:0:
169,72,87524,2,0,L|172:124,1,50.9999984436036,8|0,0:0|0:0,0:0:0:0:
102,254,87696,2,0,L|91:198,1,50.9999984436036,2|0,0:0|0:0,0:0:0:0:
67,63,87867,5,6,0:0:0:0:
67,63,88210,6,0,L|181:73,1,101.999996887207,8|0,0:0|0:0,0:0:0:0:
267,198,88553,1,2,0:0:0:0:
36,137,88724,2,0,L|150:147,1,101.999996887207,8|0,0:0|0:0,0:0:0:0:
299,107,89067,1,2,0:0:0:0:
61,216,89239,6,0,L|175:226,1,101.999996887207,8|0,0:0|0:0,0:0:0:0:
293,290,89582,1,2,0:0:0:0:
29,289,89753,2,0,L|143:299,1,101.999996887207,8|0,0:0|0:0,0:0:0:0:
267,198,90096,1,2,0:0:0:0:
36,137,90267,5,8,0:0:0:0:
252,179,90439,1,2,0:0:0:0:
130,297,90610,6,0,P|191:318|242:298,1,101.999996887207,6|0,0:0|0:0,0:0:0:0:
347,190,90953,2,0,P|286:169|235:189,1,101.999996887207,8|0,0:0|0:0,0:0:0:0:
253,178,91210,1,0,0:0:0:0:
253,178,91296,1,2,0:0:0:0:
320,346,91467,2,0,P|368:303|376:249,1,101.999996887207,8|0,0:0|0:0,0:0:0:0:
377,270,91724,1,0,0:0:0:0:
377,270,91810,1,2,0:0:0:0:
194,245,91981,6,0,P|206:308|249:342,1,101.999996887207,8|0,0:0|0:0,0:0:0:0:
231,332,92238,1,0,0:0:0:0:
231,332,92324,1,2,0:0:0:0:
347,190,92496,5,8,0:0:0:0:
174,139,92667,1,0,0:0:0:0:
320,24,92839,1,2,0:0:0:0:
143,145,93010,5,8,0:0:0:0:
401,98,93181,1,2,0:0:0:0:
286,278,93353,6,0,P|336:303|391:287,1,101.999996887207,6|0,0:0|0:0,0:0:0:0:
179,260,93696,2,0,P|182:315|223:355,1,101.999996887207,8|0,0:0|0:0,0:0:0:0:
345,205,94039,1,2,0:0:0:0:
141,160,94210,2,0,P|94:190|80:246,1,101.999996887207,8|0,0:0|0:0,0:0:0:0:
286,278,94553,1,2,0:0:0:0:
209,76,94724,6,0,P|159:51|104:67,1,101.999996887207,8|0,0:0|0:0,0:0:0:0:
179,260,95067,1,2,0:0:0:0:
316,94,95239,2,0,P|312:38|271:-1,1,101.999996887207,8|0,0:0|0:0,0:0:0:0:
141,160,95582,1,2,0:0:0:0:
358,190,95753,5,8,0:0:0:0:
209,76,95924,1,2,0:0:0:0:
375,205,96096,6,0,L|485:213,1,101.999996887207,6|0,0:0|0:0,0:0:0:0:
494,306,96439,2,0,L|384:298,1,101.999996887207,8|0,0:0|0:0,0:0:0:0:
392,298,96696,1,0,0:0:0:0:
392,298,96781,1,2,0:0:0:0:
411,124,96953,2,0,L|521:132,1,101.999996887207,8|0,0:0|0:0,0:0:0:0:
512,131,97210,1,0,0:0:0:0:
512,131,97295,1,2,0:0:0:0:
375,205,97467,6,0,L|265:197,1,101.999996887207,8|0,0:0|0:0,0:0:0:0:
273,197,97724,1,0,0:0:0:0:
273,197,97809,1,2,0:0:0:0:
109,195,97981,5,8,0:0:0:0:
252,115,98153,1,0,0:0:0:0:
245,291,98324,1,2,0:0:0:0:
80,193,98496,5,8,0:0:0:0:
301,204,98667,1,2,0:0:0:0:
125,278,98839,6,0,P|69:288|16:265,1,101.999996887207,6|0,0:0|0:0,0:0:0:0:
39,112,99181,2,0,P|95:102|148:125,1,101.999996887207,8|0,0:0|0:0,0:0:0:0:
301,204,99524,1,2,0:0:0:0:
80,193,99696,2,0,L|190:199,1,101.999996887207,8|0,0:0|0:0,0:0:0:0:
338,280,100039,1,2,0:0:0:0:
125,278,100210,6,0,L|235:286,1,101.999996887207,8|0,0:0|0:0,0:0:0:0:
358,140,100553,1,2,0:0:0:0:
136,116,100724,2,0,L|246:124,1,101.999996887207,8|0,0:0|0:0,0:0:0:0:
391,214,101067,1,2,0:0:0:0:
213,202,101239,5,8,0:0:0:0:
407,216,101410,1,2,0:0:0:0:
221,293,101581,6,0,P|174:290|132:255,1,101.999996887207,6|0,0:0|0:0,0:0:0:0:
283,145,101924,2,0,P|303:187|294:241,1,101.999996887207,8|0,0:0|0:0,0:0:0:0:
295,239,102181,1,0,0:0:0:0:
295,239,102267,1,2,0:0:0:0:
126,168,102439,2,0,P|152:128|203:109,1,101.999996887207,8|0,0:0|0:0,0:0:0:0:
201,110,102696,1,0,0:0:0:0:
201,110,102782,1,2,0:0:0:0:
221,293,102953,6,0,P|174:289|132:255,1,101.999996887207,8|0,0:0|0:0,0:0:0:0:
133,257,103210,1,0,0:0:0:0:
133,257,103296,1,2,0:0:0:0:
297,340,103467,5,8,0:0:0:0:
210,203,103639,1,0,0:0:0:0:
369,198,103810,1,2,0:0:0:0:
297,358,103981,5,8,0:0:0:0:
289,142,104153,1,2,0:0:0:0:
376,292,104324,6,0,B|428:311|428:311|481:295,1,101.999996887207,6|0,0:0|0:0,0:0:0:0:
484,114,104667,2,0,B|439:95|439:95|381:115,1,101.999996887207,8|0,0:0|0:0,0:0:0:0:
294,209,105010,1,2,0:0:0:0:
253,58,105181,2,0,P|210:99|202:147,1,101.999996887207,8|0,0:0|0:0,0:0:0:0:
298,232,105524,1,2,0:0:0:0:
105,130,105695,6,0,B|115:181|115:181|157:218,1,101.999996887207,8|0,0:0|0:0,0:0:0:0:
302,255,106039,1,2,0:0:0:0:
70,307,106210,2,0,L|187:293,1,101.999996887207,8|0,0:0|0:0,0:0:0:0:
305,275,106553,1,2,0:0:0:0:
150,215,106724,5,8,0:0:0:0:
337,354,106896,1,2,0:0:0:0:
234,190,107067,6,0,L|227:88,1,101.999996887207,6|0,0:0|0:0,0:0:0:0:
313,20,107410,2,0,L|320:138,1,101.999996887207,8|0,0:0|0:0,0:0:0:0:
319,121,107667,1,0,0:0:0:0:
319,121,107753,1,2,0:0:0:0:
143,134,107924,2,0,L|136:16,1,101.999996887207,8|0,0:0|0:0,0:0:0:0:
136,32,108181,1,0,0:0:0:0:
136,32,108267,1,2,0:0:0:0:
234,190,108439,5,8,0:0:0:0:
143,134,108610,1,0,0:0:0:0:
324,128,108781,1,8,0:0:0:0:
293,265,108953,5,0,0:0:0:0:
271,279,109039,1,0,0:0:0:0:
246,283,109124,1,0,0:0:0:0:
220,281,109210,1,0,0:0:0:0:
195,275,109296,2,0,P|161:265|137:268,1,42.5,8|0,0:0|0:0,0:0:0:0:
234,190,109467,2,0,L|228:134,1,42.5,0|0,0:0|0:0,0:0:0:0:
293,265,109639,2,0,P|327:255|351:258,1,42.5,0|0,0:0|0:0,0:0:0:0:
254,364,109810,5,4,0:0:0:0:
