osu file format v14

[General]
AudioFilename: audio.mp3
AudioLeadIn: 0
PreviewTime: 87715
Countdown: 0
SampleSet: Soft
StackLeniency: 0.4
Mode: 0
LetterboxInBreaks: 0
WidescreenStoryboard: 0

[Editor]
Bookmarks: 22039,43981,54953,65924,76896,87867,98839,109810
DistanceSpacing: 0.7
BeatDivisor: 4
GridSize: 16
TimelineZoom: 1

[Metadata]
Title:Take It In (feat. Koven)
TitleUnicode:Take It In (feat. Koven)
Artist:Feint
ArtistUnicode:Feint
Creator:Hobbes2
Version:Memories
Source:
Tags:Drum and Bass dnb Liquicity Alchemy 2 Liquid Amsterdam Plaudible MrSergio
BeatmapID:1299287
BeatmapSetID:616023

[Difficulty]
HPDrainRate:6
CircleSize:4
OverallDifficulty:8.5
ApproachRate:9
SliderMultiplier:1.8
SliderTickRate:1

[Events]
//Background and Video events
0,0,"CelerySizedBG.jpg",0,0
//Break Periods
//Storyboard Layer 0 (Background)
//Storyboard Layer 1 (Fail)
//Storyboard Layer 2 (Pass)
//Storyboard Layer 3 (Foreground)
//Storyboard Sound Samples

[TimingPoints]
22039,342.857142857143,4,2,1,40,1,0
42781,-125,4,2,1,45,0,0
43296,-111.111111111111,4,2,1,45,0,0
43639,-100,4,2,1,45,0,0
43981,-125,4,2,2,50,0,0
54953,-100,4,2,3,50,0,0
64553,-100,4,2,2,50,0,0
65924,-83.3333333333333,4,2,4,55,0,1
86496,-83.3333333333333,4,2,2,55,0,0
87524,-83.3333333333333,4,2,4,55,0,0
88210,-83.3333333333333,4,2,4,55,0,1
108439,-100,4,2,4,55,0,0
108610,-100,4,2,2,55,0,0
109810,-83.3333333333333,4,2,4,55,0,0

[Colours]
Combo1 : 255,120,55
Combo2 : 50,140,250
Combo3 : 250,85,80
Combo4 : 110,200,30

[HitObjects]
262,170,22039,6,0,L|234:84,1,90,6|0,0:0|0:0,0:0:0:0:
201,236,22381,1,8,0:0:0:0:
350,190,22553,1,0,0:0:0:0:
172,149,22724,2,0,P|134:172|112:211,1,90,0|8,0:0|0:0,0:0:0:0:
262,170,23067,1,0,0:0:0:0:
229,320,23239,6,0,L|173:150,1,180
283,81,23753,1,8,0:0:0:0:
144,62,23924,2,0,P|106:86|84:125,1,90,0|0,0:0|0:0,0:0:0:0:
222,2,24267,1,8,0:0:0:0:
205,142,24439,1,0,0:0:0:0:
205,142,24524,1,0,0:0:0:0:
205,142,24610,6,0,L|192:231|192:231|246:304,1,180,0|0,0:0|0:0,0:0:0:0:
366,187,25124,2,0,L|279:209,1,90,8|0,0:0|0:0,0:0:0:0:
428,251,25467,1,0,0:0:0:0:
391,101,25639,2,0,L|328:36,1,90,8|0,0:0|0:0,0:0:0:0:
453,164,25981,1,0,0:0:0:0:
303,122,26153,5,0,0:0:0:0:
414,15,26324,1,0,0:0:0:0:
365,187,26496,2,0,P|327:209|283:209,1,90,8|0,0:0|0:0,0:0:0:0:
261,202,26753,1,0,0:0:0:0:
243,190,26839,1,0,0:0:0:0:
227,173,26925,1,0,0:0:0:0:
216,153,27010,2,0,P|212:109|230:68,1,90,8|0,0:0|0:0,0:0:0:0:
303,122,27353,1,0,0:0:0:0:
221,283,27524,6,0,L|60:201,1,180,0|8,0:0|0:0,0:0:0:0:
153,76,28039,1,0,0:0:0:0:
160,97,28124,1,0,0:0:0:0:
166,118,28210,1,0,0:0:0:0:
174,140,28296,1,0,0:0:0:0:
180,161,28381,1,8,0:0:0:0:
34,117,28553,1,0,0:0:0:0:
153,76,28724,1,0,0:0:0:0:
210,243,28896,6,0,P|246:218|266:178,1,90
153,76,29239,1,8,0:0:0:0:
123,226,29410,1,0,0:0:0:0:
122,249,29495,1,0,0:0:0:0:
127,271,29581,1,0,0:0:0:0:
137,291,29667,1,0,0:0:0:0:
151,308,29752,1,8,0:0:0:0:
210,243,29924,1,0,0:0:0:0:
37,210,30096,1,0,0:0:0:0:
152,77,30267,6,0,L|134:169,1,90,0|0,0:0|0:0,0:0:0:0:
95,376,30610,2,0,L|112:287,1,90,8|0,0:0|0:0,0:0:0:0:
111,287,30867,1,0,0:0:0:0:
111,287,30953,1,0,0:0:0:0:
298,260,31124,2,0,L|209:242,1,90,8|0,0:0|0:0,0:0:0:0:
214,220,31381,1,0,0:0:0:0:
218,198,31467,1,0,0:0:0:0:
222,176,31553,1,0,0:0:0:0:
227,154,31639,5,0,0:0:0:0:
298,260,31810,1,0,0:0:0:0:
243,65,31981,2,0,P|198:67|160:91,1,90,8|0,0:0|0:0,0:0:0:0:
312,123,32324,1,0,0:0:0:0:
92,33,32496,1,8,0:0:0:0:
227,154,32667,1,0,0:0:0:0:
243,65,32839,1,0,0:0:0:0:
138,179,33010,6,0,L|115:268,1,90,0|0,0:0|0:0,0:0:0:0:
227,154,33353,1,8,0:0:0:0:
71,114,33524,1,0,0:0:0:0:
252,242,33696,2,0,P|290:221|314:183,1,90,0|8,0:0|0:0,0:0:0:0:
160,89,34039,1,0,0:0:0:0:
163,267,34210,6,0,P|184:305|222:329,1,90,0|0,0:0|0:0,0:0:0:0:
188,179,34553,2,0,P|143:178|104:199,1,90,0|8,0:0|0:0,0:0:0:0:
251,242,34896,2,0,P|276:159|218:94,1,180,0|8,0:0|0:0,0:0:0:0:
188,179,35410,1,0,0:0:0:0:
237,350,35581,6,0,L|314:305|314:305|360:224,1,180,0|0,0:0|0:0,0:0:0:0:
188,179,36096,2,0,L|253:244,1,90,8|0,0:0|0:0,0:0:0:0:
422,290,36439,1,0,0:0:0:0:
422,290,36524,1,0,0:0:0:0:
422,290,36610,2,0,L|359:227,1,90,8|0,0:0|0:0,0:0:0:0:
188,179,36953,1,0,0:0:0:0:
237,350,37124,5,0,0:0:0:0:
260,250,37296,1,0,0:0:0:0:
77,302,37467,2,0,L|164:278,1,90,8|0,0:0|0:0,0:0:0:0:
147,262,37724,1,0,0:0:0:0:
131,246,37810,1,0,0:0:0:0:
115,230,37896,1,0,0:0:0:0:
99,215,37981,2,0,P|93:167|119:114,1,90,8|0,0:0|0:0,0:0:0:0:
188,179,38324,1,0,0:0:0:0:
237,350,38496,6,0,L|417:299,1,180,0|8,0:0|0:0,0:0:0:0:
441,147,39010,1,0,0:0:0:0:
421,158,39095,1,0,0:0:0:0:
404,173,39181,1,0,0:0:0:0:
392,192,39267,1,0,0:0:0:0:
384,213,39352,1,8,0:0:0:0:
473,233,39524,1,0,0:0:0:0:
336,114,39696,6,0,L|296:194|296:194|302:288,1,180,0|0,0:0|0:0,0:0:0:0:
473,233,40210,2,0,L|385:213,1,90,8|0,0:0|0:0,0:0:0:0:
385,213,40467,1,0,0:0:0:0:
385,213,40553,1,0,0:0:0:0:
209,173,40724,2,0,L|121:153,1,90,8|0,0:0|0:0,0:0:0:0:
270,107,41067,1,0,0:0:0:0:
235,258,41239,5,0,0:0:0:0:
121,153,41410,1,0,0:0:0:0:
297,192,41581,2,0,P|335:169|358:124,1,90,8|0,0:0|0:0,0:0:0:0:
356,130,41839,1,0,0:0:0:0:
356,130,41924,1,0,0:0:0:0:
235,258,42095,2,0,P|274:279|325:276,1,90,8|0,0:0|0:0,0:0:0:0:
318,278,42353,1,0,0:0:0:0:
318,278,42438,1,0,0:0:0:0:
326,286,42781,6,0,P|330:337|316:361,2,72
380,224,43296,2,0,P|408:266|413:300,1,80.9999975280763
395,143,43639,2,0,P|441:165|468:198,1,90
310,163,43981,5,14,0:0:0:0:
324,82,44153,1,0,0:0:0:0:
400,53,44324,1,0,0:0:0:0:
310,163,44496,5,8,0:0:0:0:
246,109,44668,1,0,0:0:0:0:
259,29,44839,1,0,0:0:0:0:
310,163,45010,5,8,0:0:0:0:
232,191,45182,1,0,0:0:0:0:
324,82,45353,5,8,0:0:0:0:
405,96,45525,1,0,0:0:0:0:
486,110,45696,1,0,0:0:0:0:
243,124,45867,5,8,0:0:0:0:
324,110,46039,1,0,0:0:0:0:
405,96,46210,1,0,0:0:0:0:
138,96,46381,5,8,0:0:0:0:
219,110,46553,1,0,0:0:0:0:
84,33,46724,6,0,P|63:61|56:96,1,72,8|0,0:0|0:0,0:0:0:0:
97,167,47067,1,0,0:0:0:0:
261,153,47239,6,0,P|247:120|220:96,1,72,8|0,0:0|0:0,0:0:0:0:
138,96,47582,1,0,0:0:0:0:
69,245,47753,6,0,P|104:249|138:238,1,72,8|0,0:0|0:0,0:0:0:0:
261,153,48096,5,8,0:0:0:0:
275,234,48268,1,0,0:0:0:0:
289,315,48439,1,0,0:0:0:0:
285,130,48610,5,8,0:0:0:0:
271,211,48782,1,0,0:0:0:0:
257,292,48953,1,0,0:0:0:0:
261,107,49124,5,8,0:0:0:0:
275,188,49296,1,0,0:0:0:0:
397,59,49467,6,0,P|362:48|327:50,1,72,8|0,0:0|0:0,0:0:0:0:
261,107,49810,1,0,0:0:0:0:
450,142,49981,6,0,P|477:117|492:85,1,72,8|0,0:0|0:0,0:0:0:0:
476,0,50324,1,0,0:0:0:0:
351,146,50496,6,0,P|358:181|378:211,1,72,8|0,0:0|0:0,0:0:0:0:
261,107,50839,6,0,B|233:101|233:101|176:118,1,72,8|0,0:0|0:0,0:0:0:0:
120,220,51181,1,0,0:0:0:0:
205,252,51353,6,0,B|224:231|224:231|235:189,1,72,8|0,0:0|0:0,0:0:0:0:
177,74,51696,1,0,0:0:0:0:
106,131,51867,6,0,B|114:158|114:158|146:188,1,72,8|0,0:0|0:0,0:0:0:0:
261,107,52210,5,8,0:0:0:0:
106,131,52381,1,0,0:0:0:0:
206,252,52553,1,0,0:0:0:0:
177,74,52724,5,8,0:0:0:0:
120,220,52895,1,0,0:0:0:0:
275,194,53067,1,0,0:0:0:0:
191,163,53239,5,8,0:0:0:0:
191,163,53410,1,0,0:0:0:0:
136,311,53581,5,8,0:0:0:0:
275,194,53753,1,0,0:0:0:0:
136,311,53924,1,0,0:0:0:0:
176,74,54096,5,8,0:0:0:0:
206,252,54267,1,0,0:0:0:0:
176,74,54439,1,0,0:0:0:0:
359,225,54610,5,8,0:0:0:0:
359,225,54781,1,0,0:0:0:0:
95,203,54953,6,0,L|91:114,1,90,6|0,0:0|0:0,0:0:0:0:
261,107,55296,1,8,0:0:0:0:
175,263,55467,1,0,0:0:0:0:
152,285,55552,1,0,0:0:0:0:
123,299,55638,1,0,0:0:0:0:
92,303,55724,1,0,0:0:0:0:
62,297,55810,2,0,P|20:269|-1:230,1,90,8|0,0:0|0:0,0:0:0:0:
95,203,56153,1,0,0:0:0:0:
255,323,56324,6,0,L|344:319,1,90,2|0,0:0|0:0,0:0:0:0:
175,263,56667,1,8,0:0:0:0:
358,133,56839,1,0,0:0:0:0:
358,133,56924,1,0,0:0:0:0:
358,133,57010,2,0,P|367:176|357:220,1,90,0|8,0:0|0:0,0:0:0:0:
267,174,57353,2,0,P|258:131|268:87,1,90,0|0,0:0|0:0,0:0:0:0:
274,276,57696,6,0,L|185:280,1,90,2|0,0:0|0:0,0:0:0:0:
267,174,58039,1,8,0:0:0:0:
190,382,58210,1,0,0:0:0:0:
159,378,58295,1,0,0:0:0:0:
130,366,58381,1,0,0:0:0:0:
107,345,58467,1,0,0:0:0:0:
90,319,58552,1,8,0:0:0:0:
180,191,58724,2,0,L|184:280,1,90,0|0,0:0|0:0,0:0:0:0:
90,144,59067,5,2,0:0:0:0:
225,102,59238,1,0,0:0:0:0:
319,255,59410,2,0,P|289:222|278:179,1,90,8|0,0:0|0:0,0:0:0:0:
378,39,59753,1,2,0:0:0:0:
378,84,59839,1,2,0:0:0:0:
378,129,59925,2,0,L|378:187,1,45,8|0,0:0|0:0,0:0:0:0:
323,259,60096,1,8,0:0:0:0:
323,259,60267,1,2,0:0:0:0:
104,187,60439,5,2,0:0:0:0:
218,76,60610,1,2,0:0:0:0:
209,309,60781,1,10,0:0:0:0:
37,136,60953,1,2,0:0:0:0:
65,113,61039,1,0,0:0:0:0:
99,104,61124,1,2,0:0:0:0:
134,108,61210,1,0,0:0:0:0:
162,130,61296,1,10,0:0:0:0:
209,309,61467,2,0,P|186:312|164:310,1,45,2|0,0:0|0:0,0:0:0:0:
103,186,61639,2,0,P|99:208|101:231,1,45,2|0,0:0|0:0,0:0:0:0:
296,245,61810,5,2,0:0:0:0:
162,130,61981,1,2,0:0:0:0:
189,381,62153,1,10,0:0:0:0:
364,193,62324,1,2,0:0:0:0:
336,170,62410,1,0,0:0:0:0:
302,161,62495,1,2,0:0:0:0:
268,170,62581,1,0,0:0:0:0:
239,187,62667,1,10,0:0:0:0:
308,77,62839,2,0,P|309:39|302:11,1,45,2|0,0:0|0:0,0:0:0:0:
296,245,63010,2,0,P|295:283|302:311,1,45,2|0,0:0|0:0,0:0:0:0:
455,92,63181,5,2,0:0:0:0:
415,96,63267,1,2,0:0:0:0:
380,116,63353,1,2,0:0:0:0:
364,153,63439,1,2,0:0:0:0:
364,193,63524,5,10,0:0:0:0:
322,167,63610,1,2,0:0:0:0:
273,167,63696,1,2,0:0:0:0:
232,194,63781,1,2,0:0:0:0:
190,219,63867,1,2,0:0:0:0:
140,218,63953,1,2,0:0:0:0:
104,184,64039,5,10,0:0:0:0:
103,198,64124,1,2,0:0:0:0:
102,212,64210,1,2,0:0:0:0:
101,226,64296,1,2,0:0:0:0:
100,240,64381,1,2,0:0:0:0:
99,254,64467,1,2,0:0:0:0:
98,268,64553,5,10,0:0:0:0:
108,104,64724,1,0,0:0:0:0:
93,352,64896,1,8,0:0:0:0:
241,211,65067,1,0,0:0:0:0:
210,225,65153,1,0,0:0:0:0:
174,229,65239,1,0,0:0:0:0:
140,218,65324,1,0,0:0:0:0:
108,202,65410,1,8,0:0:0:0:
188,89,65581,2,0,P|188:111|183:133,1,45,0|0,0:0|0:0,0:0:0:0:
16,222,65753,2,0,P|14:200|17:177,1,45
315,156,65924,6,0,L|434:152,1,107.999996704102,6|0,0:0|0:0,0:0:0:0:
263,250,66267,2,0,P|225:215|208:163,1,107.999996704102,8|0,0:0|0:0,0:0:0:0:
361,59,66610,1,0,0:0:0:0:
375,248,66781,1,2,0:0:0:0:
255,67,66953,1,8,0:0:0:0:
476,150,67124,1,0,0:0:0:0:
264,251,67296,6,0,P|213:266|160:255,1,107.999996704102,2|0,0:0|0:0,0:0:0:0:
216,373,67639,1,8,0:0:0:0:
209,159,67810,2,0,L|204:40,1,107.999996704102,0|0,0:0|0:0,0:0:0:0:
101,166,68153,1,2,0:0:0:0:
301,104,68324,2,0,P|351:87|404:95,1,107.999996704102,8|0,0:0|0:0,0:0:0:0:
271,258,68667,5,2,0:0:0:0:
101,166,68839,1,0,0:0:0:0:
363,196,69010,1,8,0:0:0:0:
277,368,69181,2,0,P|248:366|220:355,1,53.9999983520508,0|0,0:0|0:0,0:0:0:0:
169,300,69353,2,0,P|162:273|163:244,1,53.9999983520508,0|0,0:0|0:0,0:0:0:0:
199,174,69524,1,2,0:0:0:0:
370,308,69696,1,8,0:0:0:0:
65,344,69867,1,0,0:0:0:0:
282,260,70039,6,0,L|276:368,1,107.999996704102,2|0,0:0|0:0,0:0:0:0:
457,216,70381,1,8,0:0:0:0:
244,154,70553,1,0,0:0:0:0:
207,175,70638,1,0,0:0:0:0:
180,210,70724,1,0,0:0:0:0:
169,251,70810,1,0,0:0:0:0:
173,294,70895,1,2,0:0:0:0:
355,173,71067,2,0,P|351:120|324:74,1,107.999996704102,8|0,0:0|0:0,0:0:0:0:
39,225,71410,5,2,0:0:0:0:
244,154,71581,1,0,0:0:0:0:
37,91,71753,1,8,0:0:0:0:
168,264,71924,1,0,0:0:0:0:
168,51,72096,1,0,0:0:0:0:
39,225,72267,1,2,0:0:0:0:
282,262,72439,1,8,0:0:0:0:
130,156,72610,1,0,0:0:0:0:
249,371,72781,6,0,P|302:374|351:352,1,107.999996704102,2|0,0:0|0:0,0:0:0:0:
355,173,73124,1,8,0:0:0:0:
238,166,73296,2,0,P|248:219|282:261,1,107.999996704102,0|0,0:0|0:0,0:0:0:0:
317,278,73553,1,0,0:0:0:0:
317,278,73639,1,2,0:0:0:0:
435,106,73810,2,0,P|387:129|355:172,1,107.999996704102,8|0,0:0|0:0,0:0:0:0:
496,355,74153,5,2,0:0:0:0:
282,261,74324,1,0,0:0:0:0:
496,355,74496,1,8,0:0:0:0:
355,172,74667,2,0,P|332:157|301:148,1,53.9999983520508,0|0,0:0|0:0,0:0:0:0:
225,161,74839,2,0,P|201:180|180:208,1,53.9999983520508,0|0,0:0|0:0,0:0:0:0:
169,275,75010,1,2,0:0:0:0:
395,245,75182,1,8,0:0:0:0:
259,112,75354,1,0,0:0:0:0:
262,133,75439,1,0,0:0:0:0:
265,154,75524,6,0,L|282:261,1,107.999996704102,2|0,0:0|0:0,0:0:0:0:
348,85,75867,1,8,0:0:0:0:
174,114,76039,2,0,P|121:106|79:74,1,107.999996704102,0|0,0:0|0:0,0:0:0:0:
162,9,76381,1,2,0:0:0:0:
364,190,76553,2,0,P|413:170|448:124,1,107.999996704102,8|0,0:0|0:0,0:0:0:0:
265,154,76810,1,0,0:0:0:0:
265,154,76896,6,0,L|282:261|282:261|385:300,1,215.999993408203,6|8,0:0|0:0,0:0:0:0:
364,190,77410,1,0,0:0:0:0:
202,332,77581,2,0,P|151:349|99:338,1,107.999996704102,0|2,0:0|0:0,0:0:0:0:
139,131,77924,1,8,0:0:0:0:
145,240,78096,1,0,0:0:0:0:
82,39,78267,6,0,P|132:21|184:32,1,107.999996704102,2|0,0:0|0:0,0:0:0:0:
31,135,78610,1,8,0:0:0:0:
247,127,78781,2,0,P|287:162|304:212,1,107.999996704102,0|0,0:0|0:0,0:0:0:0:
196,223,79124,1,2,0:0:0:0:
378,101,79296,2,0,L|498:18,1,107.999996704102,8|0,0:0|0:0,0:0:0:0:
413,201,79639,5,2,0:0:0:0:
298,32,79810,1,0,0:0:0:0:
196,223,79981,1,8,0:0:0:0:
422,70,80153,2,0,L|378:101,1,53.9999983520508,0|0,0:0|0:0,0:0:0:0:
309,145,80324,2,0,L|264:175,1,53.9999983520508,0|0,0:0|0:0,0:0:0:0:
196,223,80496,1,2,0:0:0:0:
298,32,80667,1,8,0:0:0:0:
413,201,80838,1,0,0:0:0:0:
145,319,81010,6,0,P|105:284|88:234,1,107.999996704102,2|0,0:0|0:0,0:0:0:0:
247,127,81353,1,8,0:0:0:0:
196,223,81524,1,0,0:0:0:0:
171,187,81609,1,0,0:0:0:0:
147,151,81695,1,0,0:0:0:0:
123,115,81781,1,0,0:0:0:0:
99,79,81866,1,2,0:0:0:0:
305,220,82039,2,0,L|310:353,1,107.999996704102,8|0,0:0|0:0,0:0:0:0:
414,217,82381,5,2,0:0:0:0:
196,223,82553,1,0,0:0:0:0:
356,124,82724,1,8,0:0:0:0:
253,315,82896,1,0,0:0:0:0:
247,127,83067,1,0,0:0:0:0:
362,312,83239,1,2,0:0:0:0:
298,31,83410,1,8,0:0:0:0:
305,220,83581,1,0,0:0:0:0:
407,28,83753,6,0,L|356:123,1,107.999996704102,2|0,0:0|0:0,0:0:0:0:
189,34,84096,1,8,0:0:0:0:
305,220,84267,2,0,P|357:231|407:217,1,107.999996704102,0|0,0:0|0:0,0:0:0:0:
443,195,84524,1,0,0:0:0:0:
443,195,84610,1,2,0:0:0:0:
247,127,84781,2,0,P|210:166|197:217,1,107.999996704102,8|0,0:0|0:0,0:0:0:0:
305,220,85124,5,2,0:0:0:0:
115,110,85296,1,0,0:0:0:0:
355,314,85467,1,8,0:0:0:0:
140,308,85639,2,0,P|145:280|160:251,1,53.9999983520508,0|0,0:0|0:0,0:0:0:0:
220,208,85810,2,0,P|247:204|274:207,1,53.9999983520508,0|0,0:0|0:0,0:0:0:0:
248,311,85981,1,2,0:0:0:0:
380,140,86153,1,8,0:0:0:0:
192,105,86325,1,0,0:0:0:0:
170,100,86410,1,0,0:0:0:0:
149,96,86496,5,10,0:0:0:0:
298,124,86667,1,0,0:0:0:0:
66,79,86839,1,10,0:0:0:0:
201,238,87009,1,2,0:0:0:0:
215,207,87095,1,0,0:0:0:0:
219,171,87181,1,2,0:0:0:0:
208,137,87266,1,0,0:0:0:0:
192,105,87353,2,0,P|191:68|195:36,1,53.9999983520508,10|0,0:0|0:0,0:0:0:0:
75,191,87524,2,0,P|101:188|127:180,1,53.9999983520508,8|0,0:0|0:0,0:0:0:0:
298,91,87695,1,2,0:0:0:0:
201,238,87867,5,6,0:0:0:0:
201,238,88210,6,0,L|181:369,1,107.999996704102,8|0,0:0|0:0,0:0:0:0:
99,276,88553,1,2,0:0:0:0:
436,215,88724,2,0,L|456:346,1,107.999996704102,8|0,0:0|0:0,0:0:0:0:
351,281,89067,1,2,0:0:0:0:
303,48,89239,6,0,L|409:31,1,107.999996704102,8|0,0:0|0:0,0:0:0:0:
370,130,89581,1,2,0:0:0:0:
114,98,89753,2,0,L|220:115,1,107.999996704102,8|0,0:0|0:0,0:0:0:0:
181,16,90095,1,2,0:0:0:0:
288,196,90267,1,8,0:0:0:0:
303,48,90438,1,2,0:0:0:0:
354,278,90610,5,6,0:0:0:0:
354,278,90781,1,0,0:0:0:0:
96,221,90953,2,0,P|84:168|96:116,1,107.999996704102,8|0,0:0|0:0,0:0:0:0:
122,84,91210,1,0,0:0:0:0:
122,84,91296,1,2,0:0:0:0:
416,157,91467,2,0,P|377:193|325:209,1,107.999996704102,8|0,0:0|0:0,0:0:0:0:
288,196,91724,1,0,0:0:0:0:
288,196,91810,1,2,0:0:0:0:
423,44,91981,5,8,0:0:0:0:
423,44,92153,1,0,0:0:0:0:
322,95,92324,1,2,0:0:0:0:
468,259,92496,5,8,0:0:0:0:
468,259,92668,1,0,0:0:0:0:
417,158,92839,1,2,0:0:0:0:
255,304,93009,5,8,0:0:0:0:
417,158,93181,1,2,0:0:0:0:
208,89,93353,6,0,L|256:185,1,107.999996704102,6|0,0:0|0:0,0:0:0:0:
65,288,93696,2,0,P|116:272|155:236,1,107.999996704102,8|0,0:0|0:0,0:0:0:0:
61,174,94038,1,2,0:0:0:0:
356,253,94210,2,0,P|367:200|356:148,1,107.999996704102,8|0,0:0|0:0,0:0:0:0:
255,198,94552,1,2,0:0:0:0:
359,368,94724,6,0,P|416:350|453:315,1,107.999996704102,8|0,0:0|0:0,0:0:0:0:
356,253,95067,1,2,0:0:0:0:
151,248,95239,2,0,P|141:196|154:144,1,107.999996704102,8|0,0:0|0:0,0:0:0:0:
255,198,95581,1,2,0:0:0:0:
154,363,95753,1,8,0:0:0:0:
255,198,95924,1,2,0:0:0:0:
58,297,96096,5,6,0:0:0:0:
48,256,96181,1,0,0:0:0:0:
44,213,96267,1,0,0:0:0:0:
46,169,96353,1,0,0:0:0:0:
55,127,96439,2,0,P|79:77|133:45,1,107.999996704102,8|0,0:0|0:0,0:0:0:0:
161,49,96696,1,0,0:0:0:0:
161,49,96781,1,2,0:0:0:0:
377,251,96953,2,0,P|321:255|266:224,1,107.999996704102,8|0,0:0|0:0,0:0:0:0:
255,198,97210,1,0,0:0:0:0:
255,198,97295,1,2,0:0:0:0:
464,187,97467,5,8,0:0:0:0:
481,226,97552,1,0,0:0:0:0:
482,269,97638,1,0,0:0:0:0:
466,309,97724,1,0,0:0:0:0:
436,339,97809,1,2,0:0:0:0:
365,143,97981,1,8,0:0:0:0:
390,108,98067,1,0,0:0:0:0:
427,86,98153,1,0,0:0:0:0:
469,80,98239,1,0,0:0:0:0:
511,91,98324,1,2,0:0:0:0:
377,250,98496,2,0,P|350:250|320:241,1,53.9999983520508,8|0,0:0|0:0,0:0:0:0:
259,186,98667,2,0,P|252:159|252:130,1,53.9999983520508,2|0,0:0|0:0,0:0:0:0:
291,55,98839,5,6,0:0:0:0:
291,55,99010,1,0,0:0:0:0:
243,271,99181,2,0,P|244:324|270:371,1,107.999996704102,8|0,0:0|0:0,0:0:0:0:
347,295,99523,1,2,0:0:0:0:
107,145,99696,2,0,L|0:169,1,107.999996704102,8|0,0:0|0:0,0:0:0:0:
33,64,100039,1,2,0:0:0:0:
243,271,100210,6,0,P|241:324|215:371,1,107.999996704102,8|0,0:0|0:0,0:0:0:0:
139,295,100552,1,2,0:0:0:0:
283,87,100724,2,0,L|388:110,1,107.999996704102,8|0,0:0|0:0,0:0:0:0:
315,192,101067,1,2,0:0:0:0:
356,5,101239,1,8,0:0:0:0:
315,192,101410,1,2,0:0:0:0:
178,63,101581,5,6,0:0:0:0:
178,63,101753,1,0,0:0:0:0:
421,214,101924,2,0,P|467:185|493:138,1,107.999996704102,8|0,0:0|0:0,0:0:0:0:
506,100,102181,1,0,0:0:0:0:
506,100,102267,1,2,0:0:0:0:
210,168,102439,2,0,P|212:221|239:267,1,107.999996704102,8|0,0:0|0:0,0:0:0:0:
266,297,102696,1,0,0:0:0:0:
266,297,102781,1,2,0:0:0:0:
421,214,102953,5,8,0:0:0:0:
421,214,103124,1,0,0:0:0:0:
315,192,103296,1,2,0:0:0:0:
104,146,103467,5,8,0:0:0:0:
104,146,103639,1,0,0:0:0:0:
210,168,103810,1,2,0:0:0:0:
220,377,103982,5,8,0:0:0:0:
210,168,104153,1,2,0:0:0:0:
421,214,104324,6,0,L|393:339,1,107.999996704102,6|0,0:0|0:0,0:0:0:0:
387,112,104667,2,0,P|441:109|489:132,1,107.999996704102,8|0,0:0|0:0,0:0:0:0:
510,167,104924,1,0,0:0:0:0:
510,167,105010,1,2,0:0:0:0:
317,192,105181,2,0,P|287:147|283:93,1,107.999996704102,8|0,0:0|0:0,0:0:0:0:
303,58,105438,1,0,0:0:0:0:
303,58,105524,1,2,0:0:0:0:
420,214,105696,5,8,0:0:0:0:
403,253,105781,1,0,0:0:0:0:
371,282,105867,1,0,0:0:0:0:
331,296,105953,1,0,0:0:0:0:
288,292,106038,1,2,0:0:0:0:
183,117,106210,1,8,0:0:0:0:
225,112,106295,1,0,0:0:0:0:
266,125,106381,1,0,0:0:0:0:
298,153,106467,1,0,0:0:0:0:
317,192,106552,1,2,0:0:0:0:
112,197,106724,1,8,0:0:0:0:
87,161,106809,1,0,0:0:0:0:
77,119,106895,1,2,0:0:0:0:
86,78,106981,1,0,0:0:0:0:
110,42,107067,6,0,L|228:13,1,107.999996704102,6|0,0:0|0:0,0:0:0:0:
422,218,107410,2,0,L|304:189,1,107.999996704102,8|0,0:0|0:0,0:0:0:0:
391,114,107753,1,2,0:0:0:0:
243,271,107924,2,0,L|209:154,1,107.999996704102,8|0,0:0|0:0,0:0:0:0:
317,192,108267,1,2,0:0:0:0:
108,143,108439,5,8,0:0:0:0:
183,65,108610,1,0,0:0:0:0:
243,271,108781,1,8,0:0:0:0:
212,167,108954,1,0,0:0:0:0:
220,193,109039,1,0,0:0:0:0:
227,219,109125,1,0,0:0:0:0:
235,245,109211,1,0,0:0:0:0:
243,271,109296,1,8,0:0:0:0:
369,176,109467,2,0,L|317:191,1,45
139,247,109639,1,0,0:0:0:0:
458,149,109810,5,6,0:0:0:0:
