osu file format v14

[General]
AudioFilename: audio.mp3
AudioLeadIn: 0
PreviewTime: 87715
Countdown: 0
SampleSet: Soft
StackLeniency: 0.4
Mode: 0
LetterboxInBreaks: 0
WidescreenStoryboard: 0

[Editor]
Bookmarks: 22039,43981,54953,65924,76896,87867,98839,109810
DistanceSpacing: 1.3
BeatDivisor: 2
GridSize: 16
TimelineZoom: 1

[Metadata]
Title:Take It In (feat. Koven)
TitleUnicode:Take It In (feat. Koven)
Artist:Feint
ArtistUnicode:Feint
Creator:Hobbes2
Version:Normal
Source:
Tags:Drum and Bass dnb Liquicity Alchemy 2 Liquid Amsterdam Plaudible MrSergio
BeatmapID:1300365
BeatmapSetID:616023

[Difficulty]
HPDrainRate:4
CircleSize:3.5
OverallDifficulty:4
ApproachRate:5
SliderMultiplier:1.2
SliderTickRate:1

[Events]
//Background and Video events
0,0,"CelerySizedBG.jpg",0,0
//Break Periods
//Storyboard Layer 0 (Background)
//Storyboard Layer 1 (Fail)
//Storyboard Layer 2 (Pass)
//Storyboard Layer 3 (Foreground)
//Storyboard Sound Samples

[TimingPoints]
22039,342.857142857143,4,2,1,40,1,0
42781,-100,4,2,1,45,0,0
43981,-100,4,2,2,50,0,0
54953,-100,4,2,3,50,0,0
64553,-100,4,2,2,50,0,0
65924,-90.9090909090909,4,2,4,55,0,1
86496,-100,4,2,2,55,0,0
87524,-100,4,2,4,55,0,0
88210,-90.9090909090909,4,2,4,55,0,1
108439,-100,4,2,4,55,0,0
108610,-100,4,2,2,55,0,0
109810,-100,4,2,4,55,0,0

[Colours]
Combo1 : 255,120,55
Combo2 : 50,140,250
Combo3 : 250,85,80
Combo4 : 110,200,30

[HitObjects]
126,41,22039,5,6,0:0:0:0:
234,152,22381,2,0,P|293:161|352:151,1,120,8|0,0:0|0:0,0:0:0:0:
409,97,22896,1,8,0:0:0:0:
427,252,23239,2,0,P|388:297|366:353,1,120,0|0,0:0|0:0,0:0:0:0:
288,363,23753,1,8,0:0:0:0:
288,363,23924,2,0,P|265:307|227:261,1,120,0|8,0:0|0:0,0:0:0:0:
150,244,24439,1,0,0:0:0:0:
169,89,24781,5,0,0:0:0:0:
322,64,25124,2,0,L|442:64,1,120,8|0,0:0|0:0,0:0:0:0:
442,142,25639,2,0,L|289:142,1,120,8|0,0:0|0:0,0:0:0:0:
254,102,26153,1,0,0:0:0:0:
118,179,26496,2,0,P|93:247|108:311,1,120,8|0,0:0|0:0,0:0:0:0:
164,336,27010,2,0,B|213:349|213:349|324:323,1,120,8|0,0:0|0:0,0:0:0:0:
356,314,27524,5,0,0:0:0:0:
455,193,27867,2,0,P|458:119|448:56,1,120,8|0,0:0|0:0,0:0:0:0:
390,25,28381,1,8,0:0:0:0:
249,92,28724,1,0,0:0:0:0:
249,92,28896,2,0,B|202:91|202:91|121:63,2,120,0|8|0,0:0|0:0|0:0,0:0:0:0:
321,122,29753,1,8,0:0:0:0:
455,193,30096,6,0,L|453:336,1,120,0|0,0:0|0:0,0:0:0:0:
390,359,30610,1,8,0:0:0:0:
267,262,30953,1,0,0:0:0:0:
267,262,31124,2,0,P|196:279|155:315,1,120,8|0,0:0|0:0,0:0:0:0:
122,377,31639,1,0,0:0:0:0:
23,256,31981,2,0,B|9:209|9:209|26:114,1,120,8|0,0:0|0:0,0:0:0:0:
74,80,32496,2,0,P|155:66|213:83,1,120,8|0,0:0|0:0,0:0:0:0:
257,114,33010,5,0,0:0:0:0:
396,184,33353,2,0,P|436:152|445:143,1,60,8|0,0:0|0:0,0:0:0:0:
489,83,33696,2,0,P|487:143|504:245,1,120,0|0,0:0|0:0,0:0:0:0:
505,279,34210,1,0,0:0:0:0:
367,351,34553,2,0,P|309:348|300:344,1,60,0|8,0:0|0:0,0:0:0:0:
278,275,34896,2,0,P|199:277|134:300,1,120,0|8,0:0|0:0,0:0:0:0:
94,331,35410,1,0,0:0:0:0:
94,331,35581,6,0,B|67:289|95:238|95:238|72:195|101:140,1,180,0|8,0:0|0:0,0:0:0:0:
224,73,36439,1,0,0:0:0:0:
224,73,36610,2,0,P|245:143|234:208,1,120,8|0,0:0|0:0,0:0:0:0:
209,260,37124,1,0,0:0:0:0:
353,317,37467,2,0,P|441:306|485:263,1,120,8|0,0:0|0:0,0:0:0:0:
502,220,37981,1,8,0:0:0:0:
502,220,38153,1,0,0:0:0:0:
372,133,38496,6,0,P|301:130|296:132,1,60,0|0,0:0|0:0,0:0:0:0:
248,170,38839,1,8,0:0:0:0:
95,201,39181,2,0,P|85:271|85:278,1,60,0|8,0:0|0:0,0:0:0:0:
115,338,39524,1,0,0:0:0:0:
115,338,39696,2,0,B|176:332|176:332|229:354|229:354|289:346,1,180,0|8,0:0|0:0,0:0:0:0:
415,253,40553,1,0,0:0:0:0:
415,253,40724,2,0,P|472:239|485:232,1,60,8|0,0:0|0:0,0:0:0:0:
495,163,41067,6,0,P|447:122|334:189,1,180,0|8,0:0|0:0,0:0:0:0:
245,277,41924,1,0,0:0:0:0:
245,277,42096,2,0,L|100:275,1,120,8|0,0:0|0:0,0:0:0:0:
295,61,43981,6,0,B|228:51|228:51|118:82,2,180,14|8|8,0:0|0:0|0:0,0:0:0:0:
404,172,45353,2,0,P|474:146|501:50,2,180,8|8|8,0:0|0:0|0:0,0:0:0:0:
259,114,46724,6,0,B|168:74|173:159|80:110,2,180,8|8|8,0:0|0:0|0:0,0:0:0:0:
340,247,48096,2,0,B|393:321|393:321|492:319,2,180,8|8|8,0:0|0:0|0:0,0:0:0:0:
259,114,49467,5,8,0:0:0:0:
40,31,49981,1,8,0:0:0:0:
78,263,50496,1,8,0:0:0:0:
208,349,50839,2,0,B|268:362|268:362|331:327|399:346,2,180,8|8|8,0:0|0:0|0:0,0:0:0:0:
78,263,52210,5,8,0:0:0:0:
40,31,52725,1,8,0:0:0:0:
259,114,53239,1,8,0:0:0:0:
408,72,53581,2,0,P|487:108|504:197,2,180,8|8|8,0:0|0:0|0:0,0:0:0:0:
259,114,54953,5,6,0:0:0:0:
259,114,55296,2,0,P|267:179|258:244,1,120,8|0,0:0|0:0,0:0:0:0:
201,283,55810,2,0,P|276:280|353:299,1,120,8|0,0:0|0:0,0:0:0:0:
390,334,56324,1,2,0:0:0:0:
390,334,56667,2,0,P|457:270|500:258,1,120,8|0,0:0|0:0,0:0:0:0:
502,186,57181,2,0,L|380:100,1,120,8|0,0:0|0:0,0:0:0:0:
343,66,57696,5,2,0:0:0:0:
343,66,58039,2,0,B|298:53|298:53|197:72,1,120,8|0,0:0|0:0,0:0:0:0:
157,104,58553,2,0,P|138:184|147:246,1,120,8|0,0:0|0:0,0:0:0:0:
188,290,59067,1,2,0:0:0:0:
188,290,59410,2,0,P|148:340|142:353,1,60,8|0,0:0|0:0,0:0:0:0:
76,362,59753,2,0,P|62:335|55:306,1,60,2|8,0:0|0:0,0:0:0:0:
44,228,60096,1,8,0:0:0:0:
159,123,60439,6,0,P|223:111|224:111,1,60,2|2,0:0|0:0,0:0:0:0:
294,125,60781,2,0,P|314:80|319:56,2,60,10|2|2,0:0|0:0|0:0,0:0:0:0:
244,183,61296,2,0,P|245:254|254:307,1,120,10|2,0:0|0:0,0:0:0:0:
313,361,61810,1,2,0:0:0:0:
442,274,62153,2,0,P|482:287|507:300,2,60,10|2|2,0:0|0:0|0:0,0:0:0:0:
397,209,62667,2,0,P|405:149|405:89,1,120,10|2,0:0|0:0,0:0:0:0:
340,44,63181,5,2,0:0:0:0:
256,192,63353,12,2,64553,0:0:0:0:
195,310,65924,6,0,B|181:269|181:269|195:175,1,132.00000402832,6|8,0:0|0:0,0:0:0:0:
249,114,66439,1,0,0:0:0:0:
249,114,66610,2,0,P|314:114|336:118,1,66.0000020141602,0|2,0:0|0:0,0:0:0:0:
367,182,66953,2,0,P|399:184|432:182,1,66.0000020141602,8|0,0:0|0:0,0:0:0:0:
496,123,67296,2,0,P|481:188|487:253,1,132.00000402832,2|8,0:0|0:0,0:0:0:0:
430,318,67810,2,0,P|365:303|300:309,1,132.00000402832,0|2,0:0|0:0,0:0:0:0:
235,251,68324,1,8,0:0:0:0:
141,107,68667,6,0,P|130:54|134:25,1,66.0000020141602,2|0,0:0|0:0,0:0:0:0:
44,49,69010,2,0,P|47:133|30:204,1,132.00000402832,8|0,0:0|0:0,0:0:0:0:
6,259,69524,1,2,0:0:0:0:
6,259,69696,2,0,P|15:290|16:323,1,66.0000020141602,8|0,0:0|0:0,0:0:0:0:
97,350,70039,2,0,L|251:304,1,132.00000402832,2|8,0:0|0:0,0:0:0:0:
280,377,70553,2,0,L|390:260,1,132.00000402832,0|2,0:0|0:0,0:0:0:0:
451,308,71067,1,8,0:0:0:0:
368,157,71410,6,0,P|305:139|243:159,1,132.00000402832,2|8,0:0|0:0,0:0:0:0:
183,221,71924,1,0,0:0:0:0:
183,221,72096,2,0,P|176:286|176:294,1,66.0000020141602,0|2,0:0|0:0,0:0:0:0:
93,310,72439,2,0,P|91:277|85:244,1,66.0000020141602,8|0,0:0|0:0,0:0:0:0:
45,168,72781,2,0,P|63:105|115:66,1,132.00000402832,2|8,0:0|0:0,0:0:0:0:
201,57,73296,2,0,L|354:61,1,132.00000402832,0|2,0:0|0:0,0:0:0:0:
419,62,73810,1,8,0:0:0:0:
446,231,74153,6,0,P|509:237|530:234,2,66.0000020141602,2|0|8,0:0|0:0|0:0,0:0:0:0:
375,181,74667,1,0,0:0:0:0:
375,181,74839,2,0,P|299:195|287:200,1,66.0000020141602,0|2,0:0|0:0,0:0:0:0:
234,231,75181,2,0,P|158:217|146:212,1,66.0000020141602,8|0,0:0|0:0,0:0:0:0:
110,157,75524,2,0,P|114:222|99:286,1,132.00000402832,2|8,0:0|0:0,0:0:0:0:
26,334,76039,2,0,L|157:348,1,132.00000402832,0|2,0:0|0:0,0:0:0:0:
242,356,76553,1,8,0:0:0:0:
367,238,76896,6,0,B|379:187|379:187|370:150|370:150|378:109,1,132.00000402832,6|8,0:0|0:0,0:0:0:0:
453,67,77410,1,0,0:0:0:0:
453,67,77581,2,0,P|473:108|478:130,1,66.0000020141602,0|2,0:0|0:0,0:0:0:0:
492,212,77924,2,0,P|488:257|482:279,1,66.0000020141602,8|0,0:0|0:0,0:0:0:0:
420,336,78267,2,0,L|288:337,1,132.00000402832,2|8,0:0|0:0,0:0:0:0:
211,378,78781,2,0,P|205:310|255:256,1,132.00000402832,0|2,0:0|0:0,0:0:0:0:
323,229,79296,1,8,0:0:0:0:
230,84,79639,6,0,P|162:68|148:61,1,66.0000020141602,2|0,0:0|0:0,0:0:0:0:
83,46,79981,2,0,L|49:211,1,132.00000402832,8|0,0:0|0:0,0:0:0:0:
6,245,80496,1,2,0:0:0:0:
6,245,80667,2,0,P|3:298|-2:323,1,66.0000020141602,8|0,0:0|0:0,0:0:0:0:
57,373,81010,2,0,P|129:354|209:361,1,132.00000402832,2|8,0:0|0:0,0:0:0:0:
270,374,81524,2,0,B|278:333|254:300|254:300|278:247,1,132.00000402832,0|2,0:0|0:0,0:0:0:0:
319,175,82039,1,8,0:0:0:0:
450,59,82381,6,0,P|510:78|521:84,2,66.0000020141602,2|0|8,0:0|0:0|0:0,0:0:0:0:
363,66,82896,1,0,0:0:0:0:
363,66,83067,2,0,P|330:58|300:45,1,66.0000020141602,0|2,0:0|0:0,0:0:0:0:
215,56,83410,2,0,P|207:88|194:118,1,66.0000020141602,8|0,0:0|0:0,0:0:0:0:
120,161,83753,2,0,P|131:263|126:317,1,132.00000402832,2|8,0:0|0:0,0:0:0:0:
203,336,84267,2,0,P|268:335|334:345,1,132.00000402832,0|2,0:0|0:0,0:0:0:0:
413,377,84781,1,8,0:0:0:0:
483,220,85124,6,0,P|486:161|483:139,1,66.0000020141602,2|0,0:0|0:0,0:0:0:0:
426,91,85467,1,8,0:0:0:0:
426,91,85639,2,0,L|282:93,1,132.00000402832,0|2,0:0|0:0,0:0:0:0:
214,126,86153,2,0,P|156:121|139:116,1,66.0000020141602,8|0,0:0|0:0,0:0:0:0:
70,164,86496,5,10,0:0:0:0:
129,308,86839,2,0,P|215:323|255:317,1,120,10|2,0:0|0:0,0:0:0:0:
321,296,87353,1,10,0:0:0:0:
321,296,87524,2,0,P|384:296|393:297,1,60,8|2,0:0|0:0,0:0:0:0:
453,326,87867,5,6,0:0:0:0:
420,157,88210,6,0,P|367:145|339:144,1,66.0000020141602,8|0,0:0|0:0,0:0:0:0:
272,167,88553,1,2,0:0:0:0:
272,167,88724,2,0,P|239:162|207:154,1,66.0000020141602,8|0,0:0|0:0,0:0:0:0:
150,89,89067,1,2,0:0:0:0:
150,89,89239,2,0,P|80:82|16:100,1,132.00000402832,8|2,0:0|0:0,0:0:0:0:
21,183,89753,2,0,L|40:340,1,132.00000402832,8|2,0:0|0:0,0:0:0:0:
97,375,90267,2,0,P|162:370|182:362,1,66.0000020141602,8|2,0:0|0:0,0:0:0:0:
236,326,90610,5,6,0:0:0:0:
348,192,90953,2,0,P|354:130|354:102,1,66.0000020141602,8|0,0:0|0:0,0:0:0:0:
300,59,91296,1,2,0:0:0:0:
300,59,91467,2,0,P|228:47|224:47,1,66.0000020141602,8|0,0:0|0:0,0:0:0:0:
154,77,91810,1,2,0:0:0:0:
154,77,91981,2,0,P|153:149|151:216,1,132.00000402832,8|2,0:0|0:0,0:0:0:0:
87,267,92496,2,0,P|152:256|217:263,1,132.00000402832,8|2,0:0|0:0,0:0:0:0:
293,304,93010,2,0,P|362:306|372:306,1,66.0000020141602,8|2,0:0|0:0,0:0:0:0:
441,281,93353,5,6,0:0:0:0:
325,154,93696,2,0,P|255:154|247:156,1,66.0000020141602,8|0,0:0|0:0,0:0:0:0:
174,163,94039,1,2,0:0:0:0:
174,163,94210,2,0,L|176:75,1,66.0000020141602,8|0,0:0|0:0,0:0:0:0:
155,15,94553,1,2,0:0:0:0:
155,15,94724,2,0,P|70:23|19:50,1,132.00000402832,8|2,0:0|0:0,0:0:0:0:
4,126,95239,2,0,P|7:192|33:253,1,132.00000402832,8|2,0:0|0:0,0:0:0:0:
113,279,95753,2,0,P|145:239|180:210,1,66.0000020141602,8|2,0:0|0:0,0:0:0:0:
234,193,96096,5,6,0:0:0:0:
368,86,96439,2,0,P|436:96|451:103,1,66.0000020141602,8|0,0:0|0:0,0:0:0:0:
480,166,96781,1,2,0:0:0:0:
480,166,96953,2,0,L|482:246,1,66.0000020141602,8|0,0:0|0:0,0:0:0:0:
452,312,97296,1,2,0:0:0:0:
452,312,97467,2,0,P|378:335|319:388,1,132.00000402832,8|2,0:0|0:0,0:0:0:0:
251,347,97981,2,0,P|198:308|134:290,1,132.00000402832,8|2,0:0|0:0,0:0:0:0:
48,291,98496,2,0,P|50:256|40:226,1,66.0000020141602,8|2,0:0|0:0,0:0:0:0:
1,150,98839,5,6,0:0:0:0:
127,34,99181,2,0,P|198:36|288:47,1,132.00000402832,8|2,0:0|0:0,0:0:0:0:
284,126,99696,2,0,L|282:283,1,132.00000402832,8|2,0:0|0:0,0:0:0:0:
280,345,100210,1,8,0:0:0:0:
441,287,100553,1,2,0:0:0:0:
441,287,100724,2,0,P|429:220|428:155,1,132.00000402832,8|2,0:0|0:0,0:0:0:0:
465,78,101239,2,0,P|410:50|394:39,1,66.0000020141602,8|2,0:0|0:0,0:0:0:0:
330,7,101581,5,6,0:0:0:0:
184,97,101924,2,0,L|184:248,1,132.00000402832,8|2,0:0|0:0,0:0:0:0:
252,285,102439,2,0,P|194:314|131:297,1,132.00000402832,8|2,0:0|0:0,0:0:0:0:
101,219,102953,1,8,0:0:0:0:
119,48,103296,1,2,0:0:0:0:
119,48,103467,2,0,P|220:36|265:35,1,132.00000402832,8|2,0:0|0:0,0:0:0:0:
336,43,103981,2,0,L|375:118,1,66.0000020141602,8|2,0:0|0:0,0:0:0:0:
405,177,104324,5,6,0:0:0:0:
270,284,104667,2,0,P|127:274|107:277,1,132.00000402832,8|2,0:0|0:0,0:0:0:0:
87,342,105181,2,0,P|87:277|76:212,1,132.00000402832,8|2,0:0|0:0,0:0:0:0:
45,129,105696,1,8,0:0:0:0:
209,80,106039,1,2,0:0:0:0:
209,80,106210,2,0,P|232:3|236:-2,2,66.0000020141602,8|0|2,0:0|0:0|0:0,0:0:0:0:
281,126,106724,2,0,P|291:157|298:189,1,66.0000020141602,8|2,0:0|0:0,0:0:0:0:
255,263,107067,5,6,0:0:0:0:
398,357,107410,2,0,L|391:215,1,132.00000402832,8|2,0:0|0:0,0:0:0:0:
469,185,107924,2,0,L|476:43,1,132.00000402832,8|2,0:0|0:0,0:0:0:0:
419,0,108439,5,8,0:0:0:0:
323,122,108781,1,8,0:0:0:0:
193,209,109124,1,0,0:0:0:0:
193,209,109296,2,0,P|119:223|51:211,1,120,8|0,0:0|0:0,0:0:0:0:
14,173,109810,5,4,0:0:0:0:
