osu file format v14

[General]
AudioFilename: audio.mp3
AudioLeadIn: 0
PreviewTime: 87715
Countdown: 0
SampleSet: Soft
StackLeniency: 0.4
Mode: 0
LetterboxInBreaks: 0
WidescreenStoryboard: 1

[Editor]
Bookmarks: 22039,43981,54953,65924,76896,87867,98839,109810
DistanceSpacing: 0.7
BeatDivisor: 4
GridSize: 16
TimelineZoom: 1

[Metadata]
Title:Take It In (feat. Koven)
TitleUnicode:Take It In (feat. Koven)
Artist:Feint
ArtistUnicode:Feint
Creator:Hobbes2
Version:Easy
Source:
Tags:Drum and Bass dnb Liquicity Alchemy 2 Liquid Amsterdam Plaudible MrSergio
BeatmapID:1361868
BeatmapSetID:616023

[Difficulty]
HPDrainRate:2
CircleSize:3
OverallDifficulty:2
ApproachRate:3
SliderMultiplier:1
SliderTickRate:1

[Events]
//Background and Video events
0,0,"CelerySizedBG.jpg",0,0
//Break Periods
//Storyboard Layer 0 (Background)
//Storyboard Layer 1 (Fail)
//Storyboard Layer 2 (Pass)
//Storyboard Layer 3 (Foreground)
//Storyboard Sound Samples

[TimingPoints]
22039,342.857142857143,4,2,1,40,1,0
42781,-100,4,2,1,45,0,0
43981,-100,4,2,2,50,0,0
54953,-100,4,2,3,50,0,0
64553,-100,4,2,2,50,0,0
65924,-100,4,2,4,55,0,1
86496,-100,4,2,2,55,0,0
87524,-100,4,2,4,55,0,0
88210,-100,4,2,4,55,0,1
108439,-100,4,2,4,55,0,0
108610,-100,4,2,2,55,0,0
109810,-100,4,2,4,55,0,0

[Colours]
Combo1 : 255,120,55
Combo2 : 50,140,250
Combo3 : 250,85,80
Combo4 : 110,200,30

[HitObjects]
225,117,22039,5,6,0:0:0:0:
328,80,22381,2,0,P|415:79|486:98,2,150,8|8|0,0:0|0:0|0:0,0:0:0:0:
225,117,23753,2,0,P|138:118|67:99,2,150,8|8|0,0:0|0:0|0:0,0:0:0:0:
293,190,25124,6,0,L|292:361,1,150,8|8,0:0|0:0,0:0:0:0:
440,314,26153,1,0,0:0:0:0:
462,216,26496,2,0,P|457:141|418:35,1,150,8|8,0:0|0:0,0:0:0:0:
291,26,27524,5,0,0:0:0:0:
190,31,27867,2,0,P|219:98|287:127,1,150,8|8,0:0|0:0,0:0:0:0:
437,105,28896,1,0,0:0:0:0:
477,196,29239,2,0,P|402:218|335:274,1,150,8|8,0:0|0:0,0:0:0:0:
208,321,30267,6,0,L|108:321,1,100,0|8,0:0|0:0,0:0:0:0:
37,248,30953,2,0,P|48:173|41:99,1,150,0|0,0:0|0:0,0:0:0:0:
114,30,31810,2,0,P|188:40|262:33,1,150,0|0,0:0|0:0,0:0:0:0:
357,2,32667,1,0,0:0:0:0:
388,96,33010,5,0,0:0:0:0:
293,127,33353,2,0,P|228:164|174:216,1,150,8|8,0:0|0:0,0:0:0:0:
276,325,34381,1,0,0:0:0:0:
349,257,34724,2,0,L|499:257,1,150,8|8,0:0|0:0,0:0:0:0:
499,103,35753,5,0,0:0:0:0:
415,48,36096,2,0,P|344:41|263:61,1,150,8|8,0:0|0:0,0:0:0:0:
200,192,37124,1,0,0:0:0:0:
284,247,37467,2,0,P|355:254|436:234,1,150,8|8,0:0|0:0,0:0:0:0:
499,103,38496,5,0,0:0:0:0:
399,103,38839,2,0,L|239:103,2,150,8|8|0,0:0|0:0|0:0,0:0:0:0:
451,187,40210,2,0,P|443:244|381:313,1,150,8|8,0:0|0:0,0:0:0:0:
246,251,41239,6,0,P|236:199|246:151,1,100,0|8,0:0|0:0,0:0:0:0:
314,81,41924,2,0,P|283:23|222:65,1,150
334,187,43981,6,0,B|337:149|363:124|363:124|343:95|368:35,2,150,14|8|8,0:0|0:0|0:0,0:0:0:0:
347,286,45353,2,0,P|415:298|504:295,2,150,8|8|8,0:0|0:0|0:0,0:0:0:0:
271,351,46724,6,0,P|203:339|114:342,2,150,8|8|8,0:0|0:0|0:0,0:0:0:0:
347,286,48096,1,8,0:0:0:0:
262,104,48781,1,0,0:0:0:0:
63,121,49467,6,0,B|47:169|47:169|56:300,2,150,8|8|8,0:0|0:0|0:0,0:0:0:0:
145,64,50839,2,0,P|207:64|286:18,2,150,8|8|8,0:0|0:0|0:0,0:0:0:0:
138,163,52210,6,0,P|63:166|0:205,2,150,8|8|8,0:0|0:0|0:0,0:0:0:0:
208,233,53581,1,8,0:0:0:0:
489,336,54610,1,8,0:0:0:0:
506,237,54953,5,6,0:0:0:0:
430,171,55296,2,0,P|355:177|276:202,1,150,8|8,0:0|0:0,0:0:0:0:
161,285,56324,1,2,0:0:0:0:
110,198,56667,2,0,L|110:33,1,150,8|8,0:0|0:0,0:0:0:0:
255,12,57696,5,2,0:0:0:0:
330,77,58039,2,0,P|353:136|353:240,1,150,8|8,0:0|0:0,0:0:0:0:
224,293,59067,2,0,P|158:282|119:265,1,100,2|8,0:0|0:0,0:0:0:0:
149,171,59753,2,0,P|215:182|254:199,1,100,2|8,0:0|0:0,0:0:0:0:
322,258,60439,5,2,0:0:0:0:
416,223,60781,2,0,P|438:171|432:125,2,100,10|2|2,0:0|0:0|0:0,0:0:0:0:
340,160,61810,1,2,0:0:0:0:
249,117,62153,2,0,P|182:109|138:117,2,100,10|2|2,0:0|0:0|0:0,0:0:0:0:
256,192,63181,12,10,64553,0:0:0:0:
157,46,65924,6,0,B|126:93|126:93|143:258,1,200,6|0,0:0|0:0,0:0:0:0:
213,305,66953,1,8,0:0:0:0:
301,257,67296,2,0,P|357:251|456:253,2,150,2|0|8,0:0|0:0|0:0,0:0:0:0:
213,305,68667,6,0,P|176:257|133:231,1,100,2|8,0:0|0:0,0:0:0:0:
172,139,69353,2,0,P|131:110|102:69,1,100,0|8,0:0|0:0,0:0:0:0:
196,34,70039,2,0,P|261:38|338:82,2,150,2|0|8,0:0|0:0|0:0,0:0:0:0:
102,69,71410,6,0,B|135:187|65:150|103:276,1,200,2|0,0:0|0:0,0:0:0:0:
187,215,72439,1,8,0:0:0:0:
269,271,72781,2,0,L|418:254,2,150,2|0|8,0:0|0:0|0:0,0:0:0:0:
187,215,74153,6,0,P|195:169|229:123,1,100,2|8,0:0|0:0,0:0:0:0:
320,96,74839,2,0,P|369:105|409:134,1,100,0|8,0:0|0:0,0:0:0:0:
416,235,75524,2,0,P|483:204|510:136,2,150,2|0|8,0:0|0:0|0:0,0:0:0:0:
320,195,76896,6,0,B|265:180|226:209|226:209|261:263|231:312,1,200,6|0,0:0|0:0,0:0:0:0:
140,335,77924,1,8,0:0:0:0:
65,267,78267,2,0,P|50:214|33:98,2,150,2|0|8,0:0|0:0|0:0,0:0:0:0:
140,335,79639,6,0,P|205:347|242:345,1,100,2|8,0:0|0:0,0:0:0:0:
329,302,80324,2,0,P|394:290|431:292,1,100,0|8,0:0|0:0,0:0:0:0:
495,217,81010,2,0,L|495:50,2,150,2|0|8,0:0|0:0|0:0,0:0:0:0:
427,291,82381,6,0,B|327:280|327:280|244:201,1,200,2|0,0:0|0:0,0:0:0:0:
187,137,83410,1,8,0:0:0:0:
270,81,83753,2,0,L|432:81,2,150,2|0|8,0:0|0:0|0:0,0:0:0:0:
187,137,85124,6,0,L|160:256,2,100,2|8|0,0:0|0:0|0:0,0:0:0:0:
181,38,86153,1,8,0:0:0:0:
270,81,86496,1,10,0:0:0:0:
69,342,87867,5,6,0:0:0:0:
143,274,88210,6,0,L|149:97,1,150,8|8,0:0|0:0,0:0:0:0:
251,15,89239,2,0,L|256:164,1,150,8|8,0:0|0:0,0:0:0:0:
366,266,90267,2,0,L|362:166,1,100,8|6,0:0|0:0,0:0:0:0:
456,133,90953,6,0,P|464:191|521:276,1,150,8|8,0:0|0:0,0:0:0:0:
387,351,91981,2,0,L|214:351,1,150,8|8,0:0|0:0,0:0:0:0:
91,314,93010,2,0,P|74:251|53:201,1,100,8|6,0:0|0:0,0:0:0:0:
49,119,93696,6,0,B|93:104|124:118|124:118|140:74|199:54,1,150,8|8,0:0|0:0,0:0:0:0:
321,78,94724,2,0,P|361:140|375:213,1,150,8|8,0:0|0:0,0:0:0:0:
257,307,95753,1,8,0:0:0:0:
158,324,96096,1,6,0:0:0:0:
102,240,96439,6,0,P|126:109|140:78,1,150,8|8,0:0|0:0,0:0:0:0:
249,1,97467,2,0,P|272:72|279:146,1,150,8|8,0:0|0:0,0:0:0:0:
393,243,98496,2,0,P|396:194|412:146,1,100,8|6,0:0|0:0,0:0:0:0:
458,58,99181,6,0,L|301:49,1,150,8|8,0:0|0:0,0:0:0:0:
183,133,100210,2,0,L|26:142,1,150,8|8,0:0|0:0,0:0:0:0:
52,290,101239,2,0,P|126:314|173:318,1,100,8|6,0:0|0:0,0:0:0:0:
247,318,101924,6,0,B|270:282|262:246|262:246|293:226|298:172,1,150,8|8,0:0|0:0,0:0:0:0:
428,114,102953,2,0,P|428:180|484:269,1,150,8|8,0:0|0:0,0:0:0:0:
345,340,103981,1,8,0:0:0:0:
247,318,104324,1,6,0:0:0:0:
181,242,104667,6,0,L|196:79,1,150,8|8,0:0|0:0,0:0:0:0:
47,119,105696,2,0,L|60:268,1,150,8|8,0:0|0:0,0:0:0:0:
172,368,106724,2,0,P|232:374|282:363,1,100,8|6,0:0|0:0,0:0:0:0:
306,273,107410,6,0,P|355:222|448:205,2,150,8|8|8,0:0|0:0|0:0,0:0:0:0:
270,366,108781,1,8,0:0:0:0:
137,96,109810,5,4,0:0:0:0:
