osu file format v14

[General]
AudioFilename: audio.mp3
AudioLeadIn: 0
PreviewTime: 65829
Countdown: 0
SampleSet: Normal
StackLeniency: 1
Mode: 1
LetterboxInBreaks: 0
WidescreenStoryboard: 1

[Editor]
DistanceSpacing: 1
BeatDivisor: 4
GridSize: 32
TimelineZoom: 2.1

[Metadata]
Title:Snake Eyes (feat. CoMa)
TitleUnicode:Snake Eyes (feat. CoMa)
Artist:Feint
ArtistUnicode:Feint
Creator:Zedther
Version:Oni
Source:
Tags:Monstercat 010 Conquest dnb drum and bass
BeatmapID:1853329
BeatmapSetID:885801

[Difficulty]
HPDrainRate:5
CircleSize:5
OverallDifficulty:5.5
ApproachRate:5
SliderMultiplier:1.4
SliderTickRate:1

[Events]
//Background and Video events
0,0,"snake eyes.png",0,0
//Break Periods
2,44477,47215
2,49995,54112
//Storyboard Layer 0 (Background)
//Storyboard Layer 1 (Fail)
//Storyboard Layer 2 (Pass)
//Storyboard Layer 3 (Foreground)
//Storyboard Sound Samples

[TimingPoints]
140,344.827586206897,4,1,0,75,1,0
55312,-100,4,1,0,85,0,0
66002,-100,4,1,0,90,0,0
66346,-100,4,1,0,90,0,1
88415,-100,4,1,0,90,0,0

[HitObjects]
256,192,19450,12,8,21519,0:0:0:0:
256,192,22208,5,0,0:0:0:0:
256,192,22898,5,8,0:0:0:0:
256,192,23243,1,0,0:0:0:0:
256,192,23415,1,0,0:0:0:0:
256,192,23760,1,8,0:0:0:0:
256,192,23933,1,0,0:0:0:0:
256,192,24277,5,8,0:0:0:0:
256,192,24622,5,8,0:0:0:0:
256,192,24795,5,8,0:0:0:0:
256,192,24967,1,0,0:0:0:0:
256,192,25484,1,0,0:0:0:0:
256,192,25657,5,8,0:0:0:0:
256,192,26002,1,0,0:0:0:0:
256,192,26174,1,0,0:0:0:0:
256,192,26519,1,8,0:0:0:0:
256,192,26691,1,0,0:0:0:0:
256,192,26864,1,0,0:0:0:0:
256,192,27036,5,8,0:0:0:0:
256,192,27381,5,0,0:0:0:0:
256,192,27553,5,8,0:0:0:0:
256,192,27726,5,0,0:0:0:0:
256,192,28415,5,8,0:0:0:0:
256,192,28760,1,0,0:0:0:0:
256,192,28933,1,0,0:0:0:0:
256,192,29277,1,8,0:0:0:0:
256,192,29450,1,0,0:0:0:0:
256,192,29795,5,8,0:0:0:0:
256,192,30140,5,8,0:0:0:0:
256,192,30312,5,8,0:0:0:0:
256,192,30484,5,0,0:0:0:0:
256,192,31002,5,0,0:0:0:0:
256,192,31174,5,8,0:0:0:0:
256,192,31519,1,0,0:0:0:0:
256,192,31691,1,0,0:0:0:0:
256,192,32036,1,8,0:0:0:0:
256,192,32208,1,0,0:0:0:0:
256,192,32381,1,0,0:0:0:0:
256,192,32553,5,8,0:0:0:0:
256,192,32898,5,0,0:0:0:0:
256,192,33071,5,8,0:0:0:0:
256,192,33243,5,0,0:0:0:0:
256,192,33933,5,8,0:0:0:0:
256,192,34277,5,0,0:0:0:0:
256,192,34450,5,0,0:0:0:0:
256,192,34795,5,8,0:0:0:0:
256,192,34967,5,0,0:0:0:0:
256,192,35312,5,8,0:0:0:0:
256,192,35657,5,8,0:0:0:0:
256,192,35829,5,8,0:0:0:0:
256,192,36002,5,0,0:0:0:0:
256,192,36519,5,0,0:0:0:0:
256,192,36691,5,8,0:0:0:0:
256,192,37036,5,0,0:0:0:0:
256,192,37208,5,0,0:0:0:0:
256,192,37553,5,8,0:0:0:0:
256,192,37726,5,0,0:0:0:0:
256,192,37898,5,0,0:0:0:0:
256,192,38071,5,8,0:0:0:0:
256,192,38415,5,0,0:0:0:0:
256,192,38588,5,8,0:0:0:0:
256,192,38760,5,0,0:0:0:0:
256,192,39450,5,8,0:0:0:0:
256,192,39795,5,0,0:0:0:0:
256,192,39967,5,0,0:0:0:0:
256,192,40312,5,8,0:0:0:0:
256,192,40484,5,0,0:0:0:0:
256,192,40829,5,8,0:0:0:0:
256,192,41519,5,0,0:0:0:0:
256,192,42036,5,0,0:0:0:0:
256,192,42208,5,8,0:0:0:0:
256,192,42553,5,0,0:0:0:0:
256,192,42726,5,0,0:0:0:0:
256,192,43071,5,8,0:0:0:0:
256,192,43243,5,0,0:0:0:0:
256,192,43415,5,0,0:0:0:0:
256,192,43588,5,8,0:0:0:0:
256,192,43933,5,0,0:0:0:0:
256,192,44105,5,8,0:0:0:0:
256,192,44277,5,4,0:0:0:0:
256,192,48415,5,0,0:0:0:0:
256,192,48760,1,8,0:0:0:0:
256,192,48933,1,8,0:0:0:0:
256,192,49105,1,0,0:0:0:0:
256,192,49277,5,0,0:0:0:0:
256,192,49450,1,8,0:0:0:0:
256,192,49795,1,4,0:0:0:0:
256,192,55312,5,4,0:0:0:0:
256,192,55484,1,0,0:0:0:0:
256,192,55571,1,0,0:0:0:0:
256,192,55657,1,8,0:0:0:0:
256,192,55829,1,0,0:0:0:0:
256,192,56174,1,0,0:0:0:0:
256,192,56260,5,0,0:0:0:0:
256,192,56346,1,8,0:0:0:0:
256,192,56433,5,8,0:0:0:0:
256,192,56519,1,0,0:0:0:0:
256,192,56691,1,0,0:0:0:0:
256,192,56864,1,0,0:0:0:0:
256,192,56950,1,0,0:0:0:0:
256,192,57036,1,8,0:0:0:0:
256,192,57208,1,0,0:0:0:0:
256,192,57553,5,8,0:0:0:0:
256,192,57726,1,0,0:0:0:0:
256,192,57898,1,8,0:0:0:0:
256,192,57984,1,8,0:0:0:0:
256,192,58071,1,0,0:0:0:0:
256,192,58243,1,0,0:0:0:0:
256,192,58329,5,0,0:0:0:0:
256,192,58415,1,8,0:0:0:0:
256,192,58588,1,0,0:0:0:0:
256,192,58933,1,0,0:0:0:0:
256,192,59105,1,8,0:0:0:0:
256,192,59191,5,0,0:0:0:0:
256,192,59277,1,8,0:0:0:0:
256,192,59364,5,0,0:0:0:0:
256,192,59450,5,0,0:0:0:0:
256,192,59622,1,0,0:0:0:0:
256,192,59708,1,0,0:0:0:0:
256,192,59795,1,8,0:0:0:0:
256,192,59967,1,0,0:0:0:0:
256,192,60312,5,0,0:0:0:0:
256,192,60484,1,8,0:0:0:0:
256,192,60571,5,0,0:0:0:0:
256,192,60657,1,8,0:0:0:0:
256,192,60743,1,8,0:0:0:0:
256,192,60829,1,0,0:0:0:0:
256,192,61002,1,0,0:0:0:0:
256,192,61088,5,0,0:0:0:0:
256,192,61174,1,8,0:0:0:0:
256,192,61346,1,0,0:0:0:0:
256,192,61691,1,0,0:0:0:0:
256,192,61864,1,8,0:0:0:0:
256,192,61950,1,8,0:0:0:0:
256,192,62036,1,0,0:0:0:0:
256,192,62122,1,0,0:0:0:0:
256,192,62208,1,0,0:0:0:0:
256,192,62381,1,0,0:0:0:0:
256,192,62467,1,0,0:0:0:0:
256,192,62553,1,8,0:0:0:0:
256,192,62726,1,0,0:0:0:0:
256,192,63071,1,0,0:0:0:0:
256,192,63243,1,8,0:0:0:0:
256,192,63329,1,8,0:0:0:0:
256,192,63415,1,0,0:0:0:0:
256,192,63502,1,8,0:0:0:0:
256,192,63588,1,0,0:0:0:0:
256,192,66002,5,8,0:0:0:0:
256,192,66346,1,4,0:0:0:0:
256,192,66691,1,8,0:0:0:0:
256,192,66864,1,0,0:0:0:0:
256,192,66950,1,0,0:0:0:0:
256,192,67036,1,0,0:0:0:0:
256,192,67208,1,0,0:0:0:0:
256,192,67381,1,8,0:0:0:0:
256,192,67726,1,0,0:0:0:0:
256,192,67898,1,0,0:0:0:0:
256,192,67984,1,0,0:0:0:0:
256,192,68071,1,8,0:0:0:0:
256,192,68243,1,0,0:0:0:0:
256,192,68415,1,0,0:0:0:0:
256,192,68502,1,8,0:0:0:0:
256,192,68588,1,0,0:0:0:0:
256,192,68760,1,8,0:0:0:0:
256,192,69105,1,0,0:0:0:0:
256,192,69450,1,8,0:0:0:0:
256,192,69622,1,0,0:0:0:0:
256,192,69795,1,0,0:0:0:0:
256,192,69967,1,0,0:0:0:0:
256,192,70053,1,0,0:0:0:0:
256,192,70140,1,8,0:0:0:0:
256,192,70312,5,8,0:0:0:0:
256,192,70484,1,0,0:0:0:0:
256,192,70657,1,0,0:0:0:0:
256,192,70743,1,0,0:0:0:0:
256,192,70829,1,8,0:0:0:0:
256,192,71002,1,0,0:0:0:0:
256,192,71174,1,8,0:0:0:0:
256,192,71260,1,8,0:0:0:0:
256,192,71346,1,0,0:0:0:0:
256,192,71519,1,8,0:0:0:0:
256,192,71864,1,0,0:0:0:0:
256,192,72208,1,8,0:0:0:0:
256,192,72381,1,8,0:0:0:0:
256,192,72467,1,8,0:0:0:0:
256,192,72553,1,0,0:0:0:0:
256,192,72726,1,0,0:0:0:0:
256,192,72898,1,8,0:0:0:0:
256,192,73243,1,0,0:0:0:0:
256,192,73415,1,0,0:0:0:0:
256,192,73502,1,0,0:0:0:0:
256,192,73588,1,8,0:0:0:0:
256,192,73760,1,0,0:0:0:0:
256,192,73846,1,0,0:0:0:0:
256,192,73933,1,8,0:0:0:0:
256,192,74019,1,8,0:0:0:0:
256,192,74105,1,0,0:0:0:0:
256,192,74277,1,8,0:0:0:0:
256,192,74622,1,0,0:0:0:0:
256,192,74967,1,8,0:0:0:0:
256,192,75140,1,0,0:0:0:0:
256,192,75484,1,0,0:0:0:0:
256,192,75657,1,8,0:0:0:0:
256,192,75829,1,0,0:0:0:0:
256,192,76002,1,0,0:0:0:0:
256,192,76174,1,0,0:0:0:0:
256,192,76260,1,0,0:0:0:0:
256,192,76346,1,8,0:0:0:0:
256,192,76519,1,0,0:0:0:0:
256,192,76691,1,8,0:0:0:0:
256,192,76777,1,8,0:0:0:0:
256,192,76864,1,0,0:0:0:0:
256,192,76950,1,0,0:0:0:0:
256,192,77036,1,8,0:0:0:0:
256,192,77381,1,4,0:0:0:0:
256,192,77726,1,8,0:0:0:0:
256,192,77898,1,0,0:0:0:0:
256,192,77984,1,0,0:0:0:0:
256,192,78071,1,0,0:0:0:0:
256,192,78243,1,0,0:0:0:0:
256,192,78415,1,8,0:0:0:0:
256,192,78760,1,0,0:0:0:0:
256,192,78933,1,0,0:0:0:0:
256,192,79019,1,0,0:0:0:0:
256,192,79105,1,8,0:0:0:0:
256,192,79277,1,0,0:0:0:0:
256,192,79364,1,0,0:0:0:0:
256,192,79450,1,8,0:0:0:0:
256,192,79536,1,8,0:0:0:0:
256,192,79622,1,0,0:0:0:0:
256,192,79795,1,8,0:0:0:0:
256,192,80140,1,0,0:0:0:0:
256,192,80484,1,8,0:0:0:0:
256,192,80657,1,0,0:0:0:0:
256,192,80829,1,0,0:0:0:0:
256,192,81002,1,0,0:0:0:0:
256,192,81088,1,0,0:0:0:0:
256,192,81174,1,8,0:0:0:0:
256,192,81346,5,8,0:0:0:0:
256,192,81519,1,0,0:0:0:0:
256,192,81691,1,0,0:0:0:0:
256,192,81777,1,0,0:0:0:0:
256,192,81864,1,8,0:0:0:0:
256,192,82036,1,0,0:0:0:0:
256,192,82122,1,0,0:0:0:0:
256,192,82208,1,8,0:0:0:0:
256,192,82295,1,8,0:0:0:0:
256,192,82381,1,0,0:0:0:0:
256,192,82553,1,8,0:0:0:0:
256,192,82898,1,0,0:0:0:0:
256,192,83243,1,8,0:0:0:0:
256,192,83415,1,0,0:0:0:0:
256,192,83502,1,0,0:0:0:0:
256,192,83588,1,0,0:0:0:0:
256,192,83760,1,0,0:0:0:0:
256,192,83933,1,8,0:0:0:0:
256,192,84277,1,0,0:0:0:0:
256,192,84450,1,0,0:0:0:0:
256,192,84536,1,0,0:0:0:0:
256,192,84622,1,8,0:0:0:0:
256,192,84795,1,0,0:0:0:0:
256,192,84881,1,0,0:0:0:0:
256,192,84967,1,0,0:0:0:0:
256,192,85140,1,0,0:0:0:0:
256,192,85312,1,8,0:0:0:0:
256,192,85657,1,0,0:0:0:0:
256,192,86002,1,8,0:0:0:0:
256,192,86174,1,0,0:0:0:0:
256,192,86519,1,0,0:0:0:0:
256,192,86605,1,0,0:0:0:0:
256,192,86691,1,8,0:0:0:0:
256,192,86777,1,8,0:0:0:0:
256,192,86864,1,0,0:0:0:0:
256,192,87036,1,4,0:0:0:0:
256,192,87295,1,4,0:0:0:0:
256,192,87553,1,4,0:0:0:0:
256,192,87898,1,0,0:0:0:0:
256,192,87984,1,0,0:0:0:0:
256,192,88071,1,8,0:0:0:0:
256,192,88243,1,0,0:0:0:0:
256,192,88415,1,4,0:0:0:0:
256,192,88760,1,8,0:0:0:0:
256,192,88933,1,0,0:0:0:0:
256,192,89277,1,0,0:0:0:0:
256,192,89364,1,0,0:0:0:0:
256,192,89450,1,8,0:0:0:0:
256,192,89622,1,8,0:0:0:0:
256,192,89795,1,0,0:0:0:0:
256,192,90140,1,8,0:0:0:0:
256,192,90312,1,0,0:0:0:0:
256,192,90657,5,8,0:0:0:0:
256,192,90743,1,8,0:0:0:0:
256,192,90829,1,0,0:0:0:0:
256,192,91002,1,8,0:0:0:0:
256,192,91174,1,0,0:0:0:0:
256,192,91519,1,8,0:0:0:0:
256,192,91691,1,0,0:0:0:0:
256,192,92036,1,0,0:0:0:0:
256,192,92208,1,8,0:0:0:0:
256,192,92381,1,0,0:0:0:0:
256,192,92467,1,0,0:0:0:0:
256,192,92553,1,8,0:0:0:0:
256,192,92726,1,0,0:0:0:0:
256,192,92898,1,8,0:0:0:0:
256,192,93071,1,0,0:0:0:0:
256,192,93415,1,0,0:0:0:0:
256,192,93588,1,8,0:0:0:0:
256,192,93760,1,8,0:0:0:0:
256,192,93846,1,8,0:0:0:0:
256,192,93933,1,0,0:0:0:0:
256,192,94105,1,0,0:0:0:0:
256,192,94277,1,8,0:0:0:0:
256,192,94450,1,0,0:0:0:0:
256,192,94795,1,0,0:0:0:0:
256,192,94881,1,0,0:0:0:0:
256,192,94967,1,8,0:0:0:0:
256,192,95140,1,8,0:0:0:0:
256,192,95312,1,0,0:0:0:0:
256,192,95657,1,8,0:0:0:0:
256,192,95829,1,0,0:0:0:0:
256,192,96174,5,8,0:0:0:0:
256,192,96260,5,8,0:0:0:0:
256,192,96346,1,0,0:0:0:0:
256,192,96519,5,8,0:0:0:0:
256,192,96691,1,0,0:0:0:0:
256,192,97036,1,8,0:0:0:0:
256,192,97208,1,0,0:0:0:0:
256,192,97553,1,0,0:0:0:0:
256,192,97726,1,8,0:0:0:0:
256,192,97898,1,8,0:0:0:0:
256,192,97984,1,8,0:0:0:0:
256,192,98071,1,0,0:0:0:0:
256,192,98243,1,0,0:0:0:0:
256,192,98329,1,0,0:0:0:0:
256,192,98415,1,8,0:0:0:0:
256,192,98588,1,0,0:0:0:0:
256,192,98933,1,8,0:0:0:0:
256,192,99019,1,8,0:0:0:0:
256,192,99105,1,8,0:0:0:0:
256,192,99277,1,8,0:0:0:0:
256,192,99450,1,0,0:0:0:0:
256,192,99795,1,8,0:0:0:0:
256,192,99967,1,0,0:0:0:0:
256,192,100312,5,0,0:0:0:0:
256,192,100484,1,8,0:0:0:0:
256,192,100657,1,8,0:0:0:0:
256,192,100743,1,8,0:0:0:0:
256,192,100829,1,0,0:0:0:0:
256,192,101002,1,0,0:0:0:0:
256,192,101174,1,8,0:0:0:0:
256,192,101346,1,0,0:0:0:0:
256,192,101691,1,0,0:0:0:0:
256,192,101777,1,0,0:0:0:0:
256,192,101864,1,8,0:0:0:0:
256,192,102036,1,0,0:0:0:0:
256,192,102208,1,12,0:0:0:0:
256,192,102381,1,0,0:0:0:0:
256,192,102553,1,8,0:0:0:0:
256,192,102640,1,8,0:0:0:0:
256,192,102726,1,8,0:0:0:0:
256,192,102898,1,0,0:0:0:0:
256,192,103071,1,0,0:0:0:0:
256,192,103157,1,0,0:0:0:0:
256,192,103243,1,8,0:0:0:0:
256,192,103415,1,8,0:0:0:0:
256,192,103588,1,0,0:0:0:0:
256,192,103933,1,8,0:0:0:0:
256,192,104105,5,0,0:0:0:0:
256,192,104450,1,8,0:0:0:0:
256,192,104536,1,8,0:0:0:0:
256,192,104622,1,0,0:0:0:0:
256,192,104795,1,8,0:0:0:0:
256,192,104967,1,4,0:0:0:0:
256,192,105312,1,8,0:0:0:0:
256,192,105484,1,0,0:0:0:0:
256,192,105829,1,0,0:0:0:0:
256,192,105915,1,0,0:0:0:0:
256,192,106002,5,8,0:0:0:0:
256,192,106174,1,8,0:0:0:0:
256,192,106346,1,4,0:0:0:0:
115,192,106691,1,8,0:0:0:0:
256,192,106864,1,0,0:0:0:0:
256,192,107208,1,8,0:0:0:0:
256,192,107295,1,8,0:0:0:0:
256,192,107381,1,0,0:0:0:0:
256,192,107553,1,8,0:0:0:0:
256,192,107726,1,4,0:0:0:0:
256,192,108071,1,8,0:0:0:0:
256,192,108243,1,0,0:0:0:0:
256,192,108588,1,0,0:0:0:0:
256,192,108674,1,0,0:0:0:0:
256,192,108760,1,8,0:0:0:0:
256,192,108846,1,8,0:0:0:0:
256,192,108933,1,0,0:0:0:0:
256,192,109105,1,4,0:0:0:0:
256,192,109364,1,4,0:0:0:0:
256,192,109622,1,4,0:0:0:0:
256,192,109967,1,0,0:0:0:0:
256,192,110053,1,0,0:0:0:0:
256,192,110140,1,8,0:0:0:0:
256,192,110312,1,0,0:0:0:0:
256,192,110484,1,12,0:0:0:0:
