osu file format v14

[General]
AudioFilename: audio.mp3
AudioLeadIn: 0
PreviewTime: 65829
Countdown: 0
SampleSet: Normal
StackLeniency: 1
Mode: 1
LetterboxInBreaks: 0
WidescreenStoryboard: 0

[Editor]
DistanceSpacing: 1
BeatDivisor: 4
GridSize: 32
TimelineZoom: 1.5

[Metadata]
Title:Snake Eyes (feat. CoMa)
TitleUnicode:Snake Eyes (feat. CoMa)
Artist:Feint
ArtistUnicode:Feint
Creator:Zedther
Version:Futsuu
Source:
Tags:Monstercat 010 Conquest dnb drum and bass
BeatmapID:1851358
BeatmapSetID:885801

[Difficulty]
HPDrainRate:6
CircleSize:5
OverallDifficulty:4
ApproachRate:5
SliderMultiplier:1.4
SliderTickRate:1

[Events]
//Background and Video events
0,0,"snake eyes.png",0,0
//Break Periods
2,44477,47215
2,49995,54112
//Storyboard Layer 0 (Background)
//Storyboard Layer 1 (Fail)
//Storyboard Layer 2 (Pass)
//Storyboard Layer 3 (Foreground)
//Storyboard Sound Samples

[TimingPoints]
140,344.827586206897,4,1,0,75,1,0
55312,-100,4,1,0,85,0,0
66002,-100,4,1,0,90,0,0
66346,-100,4,1,0,90,0,1
88415,-100,4,1,0,90,0,0

[HitObjects]
256,192,19450,12,8,21519,0:0:0:0:
256,192,22208,5,0,0:0:0:0:
256,192,22898,5,8,0:0:0:0:
256,192,23933,1,0,0:0:0:0:
256,192,24277,5,8,0:0:0:0:
256,192,24967,1,0,0:0:0:0:
256,192,25657,5,8,0:0:0:0:
256,192,26174,1,0,0:0:0:0:
256,192,26691,1,0,0:0:0:0:
256,192,27036,5,8,0:0:0:0:
256,192,27726,5,0,0:0:0:0:
256,192,28415,5,8,0:0:0:0:
256,192,29450,1,0,0:0:0:0:
256,192,29795,5,8,0:0:0:0:
256,192,30484,5,0,0:0:0:0:
256,192,31174,5,8,0:0:0:0:
256,192,31691,1,0,0:0:0:0:
256,192,32036,1,8,0:0:0:0:
256,192,32553,5,8,0:0:0:0:
256,192,33243,5,0,0:0:0:0:
256,192,33933,5,8,0:0:0:0:
256,192,34967,5,0,0:0:0:0:
256,192,35312,5,8,0:0:0:0:
256,192,36002,5,0,0:0:0:0:
256,192,36691,5,8,0:0:0:0:
256,192,37208,5,0,0:0:0:0:
256,192,37726,5,0,0:0:0:0:
256,192,38071,5,8,0:0:0:0:
256,192,38760,5,0,0:0:0:0:
256,192,39450,5,8,0:0:0:0:
256,192,40484,5,0,0:0:0:0:
256,192,40829,5,8,0:0:0:0:
256,192,41519,5,0,0:0:0:0:
256,192,42208,5,8,0:0:0:0:
256,192,42726,5,0,0:0:0:0:
256,192,43243,5,0,0:0:0:0:
256,192,43588,5,8,0:0:0:0:
256,192,44277,5,4,0:0:0:0:
256,192,48415,5,0,1:0:0:0:
256,192,49105,5,8,1:0:0:0:
256,192,49450,5,8,0:0:0:0:
256,192,49795,5,4,0:0:0:0:
256,192,55312,5,4,0:0:0:0:
256,192,55657,5,8,0:0:0:0:
256,192,55829,5,0,0:0:0:0:
256,192,56174,5,0,0:0:0:0:
256,192,56346,5,8,0:0:0:0:
256,192,56691,5,0,0:0:0:0:
256,192,57036,5,8,0:0:0:0:
256,192,57208,5,0,0:0:0:0:
256,192,57726,5,8,0:0:0:0:
256,192,58071,5,0,0:0:0:0:
256,192,58415,5,8,0:0:0:0:
256,192,58588,5,0,0:0:0:0:
256,192,58933,5,0,0:0:0:0:
256,192,59105,5,8,0:0:0:0:
256,192,59450,5,0,0:0:0:0:
256,192,59795,5,8,0:0:0:0:
256,192,59967,5,0,0:0:0:0:
256,192,60484,5,8,0:0:0:0:
256,192,60829,5,0,0:0:0:0:
256,192,61174,5,8,0:0:0:0:
256,192,61346,5,0,0:0:0:0:
256,192,61691,5,0,0:0:0:0:
256,192,61864,5,8,0:0:0:0:
256,192,62208,5,0,0:0:0:0:
256,192,62553,5,8,0:0:0:0:
256,192,62726,5,0,0:0:0:0:
256,192,63243,5,8,0:0:0:0:
256,192,63588,5,4,0:0:0:0:
256,192,66002,5,8,0:0:0:0:
256,192,66346,5,4,0:0:0:0:
256,192,66691,5,8,0:0:0:0:
256,192,67208,5,0,0:0:0:0:
256,192,67381,5,8,0:0:0:0:
256,192,67726,5,0,0:0:0:0:
256,192,68071,5,8,0:0:0:0:
256,192,68415,5,0,0:0:0:0:
256,192,68588,5,0,0:0:0:0:
256,192,68760,5,8,0:0:0:0:
256,192,69105,5,0,0:0:0:0:
256,192,69450,5,8,0:0:0:0:
256,192,69967,5,0,0:0:0:0:
256,192,70140,5,8,0:0:0:0:
256,192,70484,5,0,0:0:0:0:
256,192,70657,5,0,0:0:0:0:
256,192,70829,5,8,0:0:0:0:
256,192,71002,5,0,0:0:0:0:
256,192,71346,5,0,0:0:0:0:
256,192,71519,5,8,0:0:0:0:
256,192,71864,5,0,0:0:0:0:
256,192,72208,5,8,0:0:0:0:
256,192,72898,5,8,0:0:0:0:
256,192,73243,5,0,0:0:0:0:
256,192,73588,5,8,0:0:0:0:
256,192,73933,5,0,0:0:0:0:
256,192,74105,5,0,0:0:0:0:
256,192,74277,5,8,0:0:0:0:
256,192,74622,5,0,0:0:0:0:
256,192,74967,5,8,0:0:0:0:
256,192,75484,5,0,0:0:0:0:
256,192,75657,5,8,0:0:0:0:
256,192,76002,5,0,0:0:0:0:
256,192,76174,5,0,0:0:0:0:
256,192,76346,5,8,0:0:0:0:
256,192,76519,5,0,0:0:0:0:
256,192,76864,5,8,0:0:0:0:
256,192,77036,5,8,0:0:0:0:
256,192,77381,5,4,0:0:0:0:
256,192,77726,5,8,0:0:0:0:
256,192,78415,5,8,0:0:0:0:
256,192,78760,5,0,0:0:0:0:
256,192,79105,5,8,0:0:0:0:
256,192,79622,5,0,0:0:0:0:
256,192,79795,5,8,0:0:0:0:
256,192,80140,5,0,0:0:0:0:
256,192,80484,5,8,0:0:0:0:
256,192,81002,5,0,0:0:0:0:
256,192,81174,5,8,0:0:0:0:
256,192,81519,5,0,0:0:0:0:
256,192,81691,5,8,0:0:0:0:
256,192,81864,5,8,0:0:0:0:
256,192,82036,5,0,0:0:0:0:
256,192,82553,5,8,0:0:0:0:
256,192,82898,5,0,0:0:0:0:
256,192,83243,5,8,0:0:0:0:
256,192,83760,5,0,0:0:0:0:
256,192,83933,5,8,0:0:0:0:
256,192,84277,5,8,0:0:0:0:
256,192,84450,5,0,0:0:0:0:
256,192,84622,5,8,0:0:0:0:
256,192,84795,5,0,0:0:0:0:
256,192,85312,5,8,0:0:0:0:
256,192,85657,5,0,0:0:0:0:
256,192,86002,5,8,0:0:0:0:
256,192,86691,5,8,0:0:0:0:
256,192,87036,5,4,0:0:0:0:
256,192,87553,5,4,0:0:0:0:
256,192,87898,5,0,0:0:0:0:
256,192,88071,5,8,0:0:0:0:
256,192,88415,5,4,0:0:0:0:
256,192,88760,5,8,0:0:0:0:
256,192,89450,5,8,0:0:0:0:
256,192,89795,5,0,0:0:0:0:
256,192,90140,5,8,0:0:0:0:
256,192,90657,5,0,0:0:0:0:
256,192,90829,5,8,0:0:0:0:
256,192,91174,5,0,0:0:0:0:
256,192,91519,5,8,0:0:0:0:
256,192,92208,5,8,0:0:0:0:
256,192,92553,5,0,0:0:0:0:
256,192,92898,5,8,0:0:0:0:
256,192,93071,5,0,0:0:0:0:
256,192,93415,5,0,0:0:0:0:
256,192,93588,5,8,0:0:0:0:
256,192,93933,5,0,0:0:0:0:
256,192,94277,5,8,0:0:0:0:
256,192,94967,5,8,0:0:0:0:
256,192,95312,5,0,0:0:0:0:
256,192,95657,5,8,0:0:0:0:
256,192,96346,5,8,0:0:0:0:
256,192,96691,5,0,0:0:0:0:
256,192,97036,5,8,0:0:0:0:
256,192,97208,5,0,0:0:0:0:
256,192,97553,5,0,0:0:0:0:
256,192,97726,5,8,0:0:0:0:
256,192,98071,5,0,0:0:0:0:
256,192,98415,5,8,0:0:0:0:
256,192,98588,5,0,0:0:0:0:
256,192,98933,5,8,0:0:0:0:
256,192,99105,5,8,0:0:0:0:
256,192,99450,5,0,0:0:0:0:
256,192,100312,1,0,0:0:0:0:
256,192,100484,5,8,0:0:0:0:
256,192,100829,1,0,0:0:0:0:
256,192,101174,1,8,0:0:0:0:
256,192,101346,1,0,0:0:0:0:
256,192,101691,1,0,0:0:0:0:
256,192,101864,1,8,0:0:0:0:
256,192,102208,1,12,0:0:0:0:
256,192,102553,1,0,0:0:0:0:
256,192,102726,1,8,0:0:0:0:
256,192,103071,1,0,0:0:0:0:
256,192,103243,1,8,0:0:0:0:
256,192,103588,1,0,0:0:0:0:
256,192,103933,1,8,0:0:0:0:
256,192,104450,1,0,0:0:0:0:
256,192,104622,1,8,0:0:0:0:
256,192,104967,1,4,0:0:0:0:
256,192,105312,1,8,0:0:0:0:
256,192,106002,5,8,0:0:0:0:
256,192,106346,5,4,0:0:0:0:
256,192,106691,5,8,0:0:0:0:
256,192,107381,5,8,0:0:0:0:
256,192,107726,5,4,0:0:0:0:
256,192,108071,5,8,0:0:0:0:
256,192,108243,5,0,0:0:0:0:
256,192,108588,5,0,0:0:0:0:
256,192,108760,5,8,0:0:0:0:
256,192,109105,5,4,0:0:0:0:
256,192,109622,5,4,0:0:0:0:
256,192,109967,5,0,0:0:0:0:
256,192,110140,5,8,0:0:0:0:
256,192,110484,5,12,0:0:0:0:
