osu file format v14

[General]
AudioFilename: audio.mp3
AudioLeadIn: 0
PreviewTime: 63588
Countdown: 0
SampleSet: Drum
StackLeniency: 0.7
Mode: 2
LetterboxInBreaks: 0
WidescreenStoryboard: 1

[Editor]
Bookmarks: 22208,33243,44277,55312,63588,69105,71864,74622,77381,80140,82898,85657,88415,93933,99450,104967,110484
DistanceSpacing: 1
BeatDivisor: 4
GridSize: 8
TimelineZoom: 4.199998

[Metadata]
Title:Snake Eyes (feat. CoMa)
TitleUnicode:Snake Eyes (feat. CoMa)
Artist:Feint
ArtistUnicode:Feint
Creator:Phob
Version:Rain
Source:
Tags:monstercat 010 conquest edm electronic dnb drum and bass du5t idu5t dust idust english
BeatmapID:2164699
BeatmapSetID:1034056

[Difficulty]
HPDrainRate:6
CircleSize:3.8
OverallDifficulty:9
ApproachRate:9
SliderMultiplier:1.7
SliderTickRate:2

[Events]
//Background and Video events
0,0,"91180e7d43e54e6351023a2f0e9d9120.jpg",0,0
//Break Periods
2,44415,49133
2,49933,53271
//Storyboard Layer 0 (Background)
//Storyboard Layer 1 (Fail)
//Storyboard Layer 2 (Pass)
//Storyboard Layer 3 (Foreground)
//Storyboard Layer 4 (Overlay)
//Storyboard Sound Samples

[TimingPoints]
78,344.827586206897,4,3,0,5,1,0
20078,-100,4,3,0,10,0,0
20767,-100,4,3,0,20,0,0
21457,-100,4,3,0,30,0,0
22146,-100,4,2,1,40,0,0
53871,-100,4,3,0,60,0,0
63612,-100,4,3,0,10,0,0
64905,-100,4,3,0,50,0,0
66284,-100,4,3,1,90,0,1
86974,-100,4,3,1,80,0,0

[Colours]
Combo1 : 140,140,140
Combo2 : 37,109,218

[HitObjects]
256,192,19388,12,0,21802,0:0:0:0:
248,224,22146,6,0,P|392:152|408:64,1,255,4|0,0:0|0:0,0:0:0:0:
232,120,22836,2,0,L|40:120,1,170,8|0,0:0|0:0,0:0:0:0:
240,176,23353,2,0,L|336:176,1,85,0|0,0:0|0:0,0:0:0:0:
152,176,23698,2,0,L|56:176,2,85,0|0|0,0:0|0:0|0:0,0:0:0:0:
328,152,24215,2,0,P|400:192|315:306,1,255,8|0,0:0|0:0,0:0:0:0:
240,312,24905,6,0,P|152:296|80:152,1,255,0|0,0:0|0:0,0:0:0:0:
256,168,25595,2,0,L|432:168,1,170,8|0,0:0|0:0,0:0:0:0:
248,144,26112,2,0,L|232:56,1,85,0|0,0:0|0:0,0:0:0:0:
408,80,26457,2,0,L|504:80,2,85,0|0|0,0:0|0:0|0:0,0:0:0:0:
232,96,26974,1,8,0:0:0:0:
144,112,27146,2,0,P|80:160|64:256,1,170,0|0,0:0|0:0,0:0:0:0:
160,256,27664,6,0,L|424:256,1,255,0|0,0:0|0:0,0:0:0:0:
240,256,28353,2,0,P|192:216|240:136,1,170,8|0,0:0|0:0,0:0:0:0:
416,120,28871,2,0,L|432:32,1,85,0|0,0:0|0:0,0:0:0:0:
256,56,29215,2,0,L|160:56,2,85,0|0|0,0:0|0:0|0:0,0:0:0:0:
432,56,29733,2,0,L|168:56,1,255,8|0,0:0|0:0,0:0:0:0:
264,64,30422,6,0,P|344:112|247:207,1,255,0|0,0:0|0:0,0:0:0:0:
88,240,31112,2,0,L|72:64,1,170,8|0,0:0|0:0,0:0:0:0:
248,96,31629,2,0,L|344:96,1,85,0|0,0:0|0:0,0:0:0:0:
160,128,31974,2,0,L|48:128,2,85,0|0|0,0:0|0:0|0:0,0:0:0:0:
336,128,32491,1,8,0:0:0:0:
424,168,32664,2,0,P|420:239|336:280,1,170,0|0,0:0|0:0,0:0:0:0:
248,280,33181,6,0,P|144:248|96:104,1,255,0|0,0:0|0:0,0:0:0:0:
264,144,33871,2,0,L|80:144,1,170,8|0,0:0|0:0,0:0:0:0:
272,192,34388,2,0,L|288:104,1,85,0|0,0:0|0:0,0:0:0:0:
112,224,34733,2,0,L|16:224,2,85,0|0|0,0:0|0:0|0:0,0:0:0:0:
288,224,35250,2,0,P|368:208|448:64,1,255,8|0,0:0|0:0,0:0:0:0:
360,240,35940,6,0,P|280:224|200:80,1,255,0|0,0:0|0:0,0:0:0:0:
376,64,36629,2,0,P|424:88|360:160,1,170,8|0,0:0|0:0,0:0:0:0:
200,216,37146,2,0,L|184:128,1,85,0|0,0:0|0:0,0:0:0:0:
360,120,37491,2,0,L|456:120,2,85,0|0|0,0:0|0:0|0:0,0:0:0:0:
184,144,38009,1,8,0:0:0:0:
104,208,38181,2,0,L|312:208,1,170,0|0,0:0|0:0,0:0:0:0:
360,152,38698,6,0,P|320:272|176:304,1,255,0|0,0:0|0:0,0:0:0:0:
384,288,39388,2,0,P|440:248|384:160,1,170,8|0,0:0|0:0,0:0:0:0:
232,192,39905,2,0,L|216:104,1,85,0|0,0:0|0:0,0:0:0:0:
400,128,40250,2,0,L|496:128,2,85,0|0|0,0:0|0:0|0:0,0:0:0:0:
224,136,40767,1,8,0:0:0:0:
136,152,40940,2,0,P|80:192|64:288,1,170,0|0,0:0|0:0,0:0:0:0:
152,304,41457,6,0,L|416:304,1,255,0|0,0:0|0:0,0:0:0:0:
232,240,42146,2,0,P|184:208|232:128,1,170,8|0,0:0|0:0,0:0:0:0:
328,128,42664,1,0,0:0:0:0:
168,136,42836,2,0,L|152:224,1,85,8|0,0:0|0:0,0:0:0:0:
344,136,43181,2,2,L|360:224,1,85,8|0,0:0|0:0,0:0:0:0:
168,240,43526,2,0,L|72:240,1,85,8|0,0:0|0:0,0:0:0:0:
344,240,43871,2,2,L|432:240,1,85,8|0,0:0|0:0,0:0:0:0:
128,168,44215,5,12,0:0:0:0:
256,192,49733,5,12,0:0:0:0:
256,192,53871,12,0,54733,0:0:0:0:
312,152,55250,5,4,0:0:0:0:
160,152,55422,2,0,L|144:104,1,42.5,0|0,0:0|0:0,0:0:0:0:
216,112,55595,1,8,0:0:0:0:
64,96,55767,1,0,0:0:0:0:
216,88,55940,2,0,L|232:40,1,42.5,0|0,0:0|0:0,0:0:0:0:
160,48,56112,1,8,0:0:0:0:
312,72,56284,2,0,L|328:120,1,42.5,0|0,0:0|0:0,0:0:0:0:
248,136,56457,2,0,L|192:136,1,42.5,0|0,0:0|0:0,0:0:0:0:
360,192,56629,6,0,L|464:192,1,85,0|0,0:0|0:0,0:0:0:0:
280,192,56974,1,8,0:0:0:0:
408,216,57146,2,0,L|512:216,2,85,0|0|8,0:0|0:0|0:0,0:0:0:0:
256,264,57664,2,0,L|240:216,1,42.5,0|0,0:0|0:0,0:0:0:0:
328,208,57836,2,0,L|344:160,1,42.5,8|0,0:0|0:0,0:0:0:0:
184,160,58009,6,0,L|88:160,1,85,0|0,0:0|0:0,0:0:0:0:
280,144,58353,1,8,0:0:0:0:
128,144,58526,2,0,L|224:144,2,85,0|0|8,0:0|0:0|0:0,0:0:0:0:
296,224,59043,2,0,L|248:224,1,42.5,0|0,0:0|0:0,0:0:0:0:
160,224,59215,2,0,L|112:224,1,42.5,0|0,0:0|0:0,0:0:0:0:
264,296,59388,6,0,L|368:296,2,85,0|0|8,0:0|0:0|0:0,0:0:0:0:
112,296,59905,2,0,L|216:296,1,85,0|0,0:0|0:0,0:0:0:0:
352,296,60250,1,8,0:0:0:0:
184,224,60422,2,0,L|128:224,2,42.5,0|0|8,0:0|0:0|0:0,0:0:0:0:
424,224,60767,6,0,L|304:224,1,85,0|0,0:0|0:0,0:0:0:0:
184,216,61112,1,8,0:0:0:0:
344,144,61284,2,0,L|440:144,2,85,0|0|8,0:0|0:0|0:0,0:0:0:0:
192,144,61802,2,0,L|176:104,1,42.5,0|0,0:0|0:0,0:0:0:0:
264,88,61974,2,0,L|312:88,1,42.5,0|0,0:0|0:0,0:0:0:0:
160,96,62146,6,0,L|64:96,3,85,0|0|8|0,0:0|0:0|0:0|0:0,0:0:0:0:
240,168,62836,1,0,0:0:0:0:
284,168,62922,1,0,0:0:0:0:
328,168,63009,1,8,0:0:0:0:
284,168,63095,1,0,0:0:0:0:
136,168,63181,2,0,L|88:168,1,42.5,8|0,0:0|0:0,0:0:0:0:
312,248,63353,2,0,L|360:248,1,42.5,8|0,0:0|0:0,0:0:0:0:
192,304,63526,6,0,P|131:285|193:304,1,680,4|0,0:0|0:0,0:0:0:0:
352,240,65940,6,0,L|440:240,1,85,8|0,0:0|0:0,0:0:0:0:
184,192,66284,6,0,L|360:192,1,170,4|8,0:0|0:0,0:0:0:0:
200,264,66802,2,0,L|152:264,2,42.5,0|0|0,0:0|0:0|0:0,0:0:0:0:
368,264,67146,1,0,0:0:0:0:
120,184,67319,2,0,L|88:96,1,85,8|0,0:0|0:0,0:0:0:0:
368,104,67664,6,0,P|432:120|464:224,1,170,0|8,0:0|0:0,0:0:0:0:
312,216,68181,1,0,0:0:0:0:
268,216,68267,1,0,0:0:0:0:
224,216,68353,1,0,0:0:0:0:
368,264,68526,1,0,0:0:0:0:
104,272,68698,2,0,L|64:160,1,85,8|0,0:0|0:0,0:0:0:0:
400,208,69043,5,0,0:0:0:0:
264,208,69215,1,0,0:0:0:0:
416,184,69388,1,8,0:0:0:0:
280,184,69560,2,0,L|264:144,2,42.5,0|0|0,0:0|0:0|0:0,0:0:0:0:
432,184,69905,1,0,0:0:0:0:
184,248,70078,2,0,L|168:200,1,42.5,8|0,0:0|0:0,0:0:0:0:
248,248,70250,2,0,L|296:248,1,42.5,0|0,0:0|0:0,0:0:0:0:
128,304,70422,6,0,L|16:304,2,85,0|0|8,0:0|0:0|0:0,0:0:0:0:
280,256,70940,2,0,L|328:256,2,42.5,0|0|0,0:0|0:0|0:0,0:0:0:0:
120,256,71284,1,0,0:0:0:0:
392,232,71457,2,0,L|416:144,1,85,8|0,0:0|0:0,0:0:0:0:
128,152,71802,5,0,0:0:0:0:
264,152,71974,1,0,0:0:0:0:
112,152,72146,1,8,0:0:0:0:
248,152,72319,2,0,L|272:104,2,42.5,0|0|0,0:0|0:0|0:0,0:0:0:0:
96,152,72664,1,0,0:0:0:0:
368,224,72836,2,0,L|400:136,1,85,8|0,0:0|0:0,0:0:0:0:
144,232,73181,6,0,L|328:232,1,170,0|8,0:0|0:0,0:0:0:0:
168,152,73698,1,0,0:0:0:0:
212,152,73784,1,0,0:0:0:0:
256,152,73871,1,0,0:0:0:0:
408,152,74043,1,0,0:0:0:0:
144,208,74215,2,0,L|112:112,1,85,8|0,0:0|0:0,0:0:0:0:
392,112,74560,6,0,L|496:112,1,85,0|0,0:0|0:0,0:0:0:0:
328,152,74905,2,0,P|248:176|224:264,1,170,8|0,0:0|0:0,0:0:0:0:
384,256,75422,1,0,0:0:0:0:
144,312,75595,2,0,L|128:232,1,42.5,8|0,0:0|0:0,0:0:0:0:
224,272,75767,2,0,L|244:192,1,42.5,0|0,0:0|0:0,0:0:0:0:
56,256,75940,6,0,L|32:160,1,85,0|0,0:0|0:0,0:0:0:0:
104,176,76198,1,0,0:0:0:0:
272,192,76284,2,0,P|360:176|328:32,1,255,8|0,0:0|0:0,0:0:0:0:
272,40,76888,1,0,0:0:0:0:
104,56,76974,2,0,L|72:152,1,85,8|0,0:0|0:0,0:0:0:0:
360,144,77319,6,0,P|432:168|456:256,1,170,4|8,0:0|0:0,0:0:0:0:
304,256,77836,2,0,L|256:256,2,42.5,0|0|0,0:0|0:0|0:0,0:0:0:0:
456,280,78181,1,0,0:0:0:0:
168,296,78353,2,0,L|144:208,1,85,8|0,0:0|0:0,0:0:0:0:
392,176,78698,6,0,L|216:176,1,170,0|8,0:0|0:0,0:0:0:0:
368,88,79215,1,0,0:0:0:0:
324,88,79302,1,0,0:0:0:0:
280,88,79388,1,0,0:0:0:0:
128,88,79560,1,0,0:0:0:0:
392,160,79733,2,0,L|416:248,1,85,8|0,0:0|0:0,0:0:0:0:
144,256,80078,5,0,0:0:0:0:
288,256,80250,1,0,0:0:0:0:
128,256,80422,1,8,0:0:0:0:
272,256,80595,2,0,L|296:200,2,42.5,0|0|0,0:0|0:0|0:0,0:0:0:0:
112,256,80940,1,0,0:0:0:0:
384,256,81112,2,0,L|408:168,1,85,8|0,0:0|0:0,0:0:0:0:
168,136,81457,6,0,P|120:112|172:34,1,170,0|8,0:0|0:0,0:0:0:0:
312,40,81974,2,0,L|360:40,2,42.5,0|0|0,0:0|0:0|0:0,0:0:0:0:
152,64,82319,1,0,0:0:0:0:
408,144,82491,2,0,L|432:232,1,85,8|0,0:0|0:0,0:0:0:0:
128,232,82836,5,0,0:0:0:0:
264,232,83009,1,0,0:0:0:0:
112,232,83181,1,8,0:0:0:0:
248,232,83353,2,0,L|272:176,2,42.5,0|0|0,0:0|0:0|0:0,0:0:0:0:
96,232,83698,1,0,0:0:0:0:
384,208,83871,2,0,L|416:120,1,85,8|0,0:0|0:0,0:0:0:0:
160,144,84215,6,0,P|88:128|64:32,1,170,0|8,0:0|0:0,0:0:0:0:
216,80,84733,1,0,0:0:0:0:
260,80,84819,1,0,0:0:0:0:
304,80,84905,1,0,0:0:0:0:
152,120,85078,1,0,0:0:0:0:
424,144,85250,2,0,L|448:232,1,85,8|0,0:0|0:0,0:0:0:0:
200,208,85595,6,0,L|384:208,1,170,0|8,0:0|0:0,0:0:0:0:
128,184,86112,2,0,P|72:152|136:96,1,170,0|0,0:0|0:0,0:0:0:0:
192,96,86543,1,0,0:0:0:0:
360,104,86629,2,0,L|384:192,1,85,8|0,0:0|0:0,0:0:0:0:
104,272,86974,6,0,L|231:272,2,127.5,0|0|0,0:0|0:0|0:0,0:0:0:0:
360,256,87836,2,0,L|376:208,1,42.5,0|0,0:0|0:0,0:0:0:0:
200,168,88009,2,0,L|112:168,1,85,8|0,0:0|0:0,0:0:0:0:
360,120,88353,6,0,L|448:120,2,85,4|0|8,0:0|0:0|0:0,0:0:0:0:
216,120,88871,2,0,L|168:120,2,42.5,0|0|0,0:0|0:0|0:0,0:0:0:0:
368,168,89215,1,0,0:0:0:0:
112,256,89388,2,0,L|80:168,1,85,8|0,0:0|0:0,0:0:0:0:
352,256,89733,5,0,0:0:0:0:
268,256,89905,1,0,0:0:0:0:
184,256,90078,1,8,0:0:0:0:
336,184,90250,1,0,0:0:0:0:
292,184,90336,1,0,0:0:0:0:
248,184,90422,1,0,0:0:0:0:
96,184,90595,1,0,0:0:0:0:
360,152,90767,2,0,L|376:104,1,42.5,8|0,0:0|0:0,0:0:0:0:
280,96,90940,2,0,L|208:96,1,42.5,0|0,0:0|0:0,0:0:0:0:
400,64,91112,6,0,L|488:64,2,85,0|0|8,0:0|0:0|0:0,0:0:0:0:
248,64,91629,2,0,L|192:64,2,42.5,0|0|0,0:0|0:0|0:0,0:0:0:0:
408,104,91974,1,0,0:0:0:0:
168,176,92146,2,0,L|112:176,1,42.5,8|0,0:0|0:0,0:0:0:0:
216,136,92319,2,0,L|272:136,1,42.5,0|0,0:0|0:0,0:0:0:0:
104,112,92491,6,0,L|8:112,2,85,0|0|8,0:0|0:0|0:0,0:0:0:0:
256,112,93009,2,0,L|304:112,2,42.5,0|0|0,0:0|0:0|0:0,0:0:0:0:
96,160,93353,1,0,0:0:0:0:
336,208,93526,2,0,L|352:160,1,42.5,8|0,0:0|0:0,0:0:0:0:
264,144,93698,2,0,L|208:144,1,42.5,0|0,0:0|0:0,0:0:0:0:
384,112,93871,6,0,L|480:112,2,85,0|0|8,0:0|0:0|0:0,0:0:0:0:
232,112,94388,2,0,L|184:112,2,42.5,0|0|0,0:0|0:0|0:0,0:0:0:0:
392,152,94733,1,0,0:0:0:0:
56,248,94905,2,0,L|32:160,1,85,8|0,0:0|0:0,0:0:0:0:
280,216,95250,5,0,0:0:0:0:
196,216,95422,1,0,0:0:0:0:
112,216,95595,1,8,0:0:0:0:
264,144,95767,2,0,L|312:144,2,42.5,0|0|0,0:0|0:0|0:0,0:0:0:0:
104,144,96112,1,0,0:0:0:0:
344,104,96284,2,0,L|360:56,1,42.5,8|0,0:0|0:0,0:0:0:0:
264,56,96457,2,0,L|208:56,1,42.5,0|0,0:0|0:0,0:0:0:0:
376,176,96629,6,0,L|472:176,2,85,0|0|8,0:0|0:0|0:0,0:0:0:0:
216,176,97146,1,0,0:0:0:0:
260,176,97233,1,0,0:0:0:0:
304,176,97319,1,0,0:0:0:0:
456,176,97491,1,0,0:0:0:0:
192,280,97664,2,0,L|176:240,1,42.5,8|0,0:0|0:0,0:0:0:0:
268,232,97836,2,0,L|292:168,1,42.5,0|0,0:0|0:0,0:0:0:0:
128,168,98009,6,0,L|96:80,1,85,0|0,0:0|0:0,0:0:0:0:
160,88,98267,1,0,0:0:0:0:
328,80,98353,2,0,L|376:80,1,42.5,8|0,0:0|0:0,0:0:0:0:
224,136,98526,2,8,P|176:168|224:248,1,170,0|0,0:0|0:0,0:0:0:0:
288,248,98957,1,0,0:0:0:0:
120,280,99043,2,0,L|88:192,1,85,8|0,0:0|0:0,0:0:0:0:
368,160,99388,6,0,L|160:160,1,170,4|8,0:0|0:0,0:0:0:0:
336,88,99905,1,0,0:0:0:0:
292,88,99991,1,0,0:0:0:0:
248,88,100078,1,0,0:0:0:0:
96,96,100250,1,0,0:0:0:0:
328,208,100422,2,0,L|232:208,1,85,8|0,0:0|0:0,0:0:0:0:
200,208,100681,1,0,0:0:0:0:
352,88,100767,6,0,P|424:96|456:200,1,170,0|8,0:0|0:0,0:0:0:0:
304,200,101284,2,0,L|248:200,2,42.5,0|0|0,0:0|0:0|0:0,0:0:0:0:
456,208,101629,1,0,0:0:0:0:
176,264,101802,2,0,L|152:176,1,85,8|0,0:0|0:0,0:0:0:0:
216,184,102060,1,0,0:0:0:0:
408,192,102146,6,0,P|456:144|400:72,1,170,0|0,0:0|0:0,0:0:0:0:
344,72,102578,1,0,0:0:0:0:
152,192,102664,2,0,P|104:144|160:72,1,170,8|0,0:0|0:0,0:0:0:0:
216,72,103096,1,0,0:0:0:0:
384,160,103181,2,0,L|408:72,1,85,8|0,0:0|0:0,0:0:0:0:
160,216,103526,6,0,L|64:216,1,85,0|0,0:0|0:0,0:0:0:0:
240,160,103871,2,0,L|144:160,1,85,8|0,0:0|0:0,0:0:0:0:
320,136,104215,2,0,L|416:136,1,85,0|0,0:0|0:0,0:0:0:0:
240,96,104560,2,0,L|184:96,1,42.5,8|0,0:0|0:0,0:0:0:0:
296,72,104733,2,0,L|344:72,1,42.5,0|0,0:0|0:0,0:0:0:0:
168,200,104905,6,0,P|96:216|64:304,1,170,0|8,0:0|0:0,0:0:0:0:
216,296,105422,2,0,L|264:296,2,42.5,0|0|0,0:0|0:0|0:0,0:0:0:0:
72,320,105767,1,0,0:0:0:0:
408,264,105940,2,0,L|432:176,1,85,8|0,0:0|0:0,0:0:0:0:
192,184,106284,6,0,L|392:184,1,170,0|8,0:0|0:0,0:0:0:0:
216,128,106802,2,0,L|168:128,2,42.5,0|0|0,0:0|0:0|0:0,0:0:0:0:
376,128,107146,1,0,0:0:0:0:
104,224,107319,2,0,L|80:136,1,85,8|0,0:0|0:0,0:0:0:0:
336,224,107664,6,0,P|424:200|432:96,1,170,0|8,0:0|0:0,0:0:0:0:
176,224,108181,2,0,P|88:200|80:96,1,170,0|0,0:0|0:0,0:0:0:0:
128,136,108612,1,0,0:0:0:0:
296,136,108698,2,0,L|392:136,1,85,8|0,0:0|0:0,0:0:0:0:
104,200,109043,6,0,L|232:200,2,127.5,0|0|0,0:0|0:0|0:0,0:0:0:0:
360,160,109905,2,0,L|368:112,1,42.5,0|0,0:0|0:0,0:0:0:0:
192,104,110078,2,0,L|88:104,1,85,8|0,0:0|0:0,0:0:0:0:
408,64,110422,1,4,0:0:0:0:
