osu file format v14

[General]
AudioFilename: audio.mp3
AudioLeadIn: 0
PreviewTime: 63588
Countdown: 0
SampleSet: Drum
StackLeniency: 0.7
Mode: 2
LetterboxInBreaks: 0
WidescreenStoryboard: 1

[Editor]
Bookmarks: 22208,33243,44277,55312,63588,69105,71864,74622,77381,80140,82898,85657,88415,93933,99450,104967,110484
DistanceSpacing: 1
BeatDivisor: 4
GridSize: 8
TimelineZoom: 4.199998

[Metadata]
Title:Snake Eyes (feat. CoMa)
TitleUnicode:Snake Eyes (feat. CoMa)
Artist:Feint
ArtistUnicode:Feint
Creator:Phob
Version:Platter
Source:
Tags:monstercat 010 conquest edm electronic dnb drum and bass du5t idu5t dust idust english
BeatmapID:2186000
BeatmapSetID:1034056

[Difficulty]
HPDrainRate:5
CircleSize:3.3
OverallDifficulty:8
ApproachRate:8
SliderMultiplier:1.50000000596046
SliderTickRate:2

[Events]
//Background and Video events
0,0,"91180e7d43e54e6351023a2f0e9d9120.jpg",0,0
//Break Periods
2,44415,48983
2,49933,53121
//Storyboard Layer 0 (Background)
//Storyboard Layer 1 (Fail)
//Storyboard Layer 2 (Pass)
//Storyboard Layer 3 (Foreground)
//Storyboard Layer 4 (Overlay)
//Storyboard Sound Samples

[TimingPoints]
78,344.827586206897,4,3,0,5,1,0
20078,-100,4,3,0,10,0,0
20767,-100,4,3,0,20,0,0
21457,-100,4,3,0,30,0,0
22146,-100,4,2,1,40,0,0
53871,-100,4,3,0,60,0,0
63612,-100,4,3,0,10,0,0
64905,-100,4,3,0,50,0,0
66284,-100,4,3,1,90,0,1
86974,-100,4,3,1,80,0,0

[Colours]
Combo1 : 140,140,140
Combo2 : 37,109,218

[HitObjects]
256,192,19388,12,0,21802,0:0:0:0:
296,168,22146,6,0,P|272:256|136:296,1,225.000000894069,4|0,0:0|0:0,0:0:0:0:
344,288,22836,2,0,P|392:256|336:128,1,225.000000894069,8|0,0:0|0:0,0:0:0:0:
184,128,23698,2,0,L|104:128,2,75.000000298023,0|0|0,0:0|0:0|0:0,0:0:0:0:
264,128,24215,2,0,P|184:144|112:264,1,225.000000894069,8|0,0:0|0:0,0:0:0:0:
304,272,24905,6,0,P|352:240|296:112,1,225.000000894069,0|0,0:0|0:0,0:0:0:0:
112,136,25595,2,0,L|360:136,1,225.000000894069,8|0,0:0|0:0,0:0:0:0:
176,192,26457,2,0,L|264:192,2,75.000000298023,0|0|0,0:0|0:0|0:0,0:0:0:0:
256,176,26974,2,0,P|344:192|400:320,1,225.000000894069,8|0,0:0|0:0,0:0:0:0:
216,176,27664,6,0,P|111:204|70:304,1,225.000000894069,0|0,0:0|0:0,0:0:0:0:
256,152,28353,2,0,P|320:192|248:296,1,225.000000894069,8|0,0:0|0:0,0:0:0:0:
96,296,29215,1,0,0:0:0:0:
176,296,29388,1,0,0:0:0:0:
256,296,29560,1,0,0:0:0:0:
176,296,29733,2,0,L|416:296,1,225.000000894069,8|0,0:0|0:0,0:0:0:0:
216,168,30422,6,0,P|160:200|232:320,1,225.000000894069,0|0,0:0|0:0,0:0:0:0:
400,152,31112,2,0,P|360:252|255:276,1,225.000000894069,8|0,0:0|0:0,0:0:0:0:
408,64,31974,2,0,L|496:64,2,75.000000298023,0|0|0,0:0|0:0|0:0,0:0:0:0:
328,64,32491,2,0,P|240:136|304:224,1,225.000000894069,8|0,0:0|0:0,0:0:0:0:
472,208,33181,6,0,P|448:312|336:344,1,225.000000894069,0|0,0:0|0:0,0:0:0:0:
160,344,33871,2,0,P|57:310|32:205,1,225.000000894069,8|0,0:0|0:0,0:0:0:0:
192,200,34733,2,0,L|288:200,2,75.000000298023,0|0|0,0:0|0:0|0:0,0:0:0:0:
112,200,35250,2,0,L|368:200,1,225.000000894069,8|0,0:0|0:0,0:0:0:0:
152,112,35940,6,0,P|80:192|160:256,1,225.000000894069,0|0,0:0|0:0,0:0:0:0:
336,248,36629,2,0,P|304:152|192:120,1,225.000000894069,8|0,0:0|0:0,0:0:0:0:
352,120,37491,2,0,L|448:120,2,75.000000298023,0|0|0,0:0|0:0|0:0,0:0:0:0:
272,120,38009,2,0,P|208:160|280:264,1,225.000000894069,8|0,0:0|0:0,0:0:0:0:
456,264,38698,6,0,L|216:264,1,225.000000894069,0|0,0:0|0:0,0:0:0:0:
416,208,39388,2,0,P|408:144|272:80,1,225.000000894069,8|0,0:0|0:0,0:0:0:0:
120,160,40250,1,0,0:0:0:0:
200,160,40422,1,0,0:0:0:0:
280,160,40595,1,0,0:0:0:0:
200,160,40767,2,0,P|132:216|209:307,1,225.000000894069,8|0,0:0|0:0,0:0:0:0:
392,160,41457,6,0,P|460:216|383:307,1,225.000000894069,0|0,0:0|0:0,0:0:0:0:
208,312,42146,2,0,P|103:283|71:180,1,225.000000894069,8|0,0:0|0:0,0:0:0:0:
264,184,42836,2,0,L|280:32,1,150.000000596046,8|8,0:0|0:0,0:0:0:0:
112,200,43526,2,0,L|96:48,1,150.000000596046,8|8,0:0|0:0,0:0:0:0:
176,48,44043,1,0,0:0:0:0:
440,48,44215,5,12,0:0:0:0:
256,192,49733,5,12,0:0:0:0:
256,192,53871,12,0,54733,0:0:0:0:
320,136,55250,6,0,L|400:136,2,75.000000298023,4|0|8,0:0|0:0|0:0,0:0:0:0:
152,128,55767,2,0,P|176:196|246:217,1,150.000000596046,0|8,0:0|0:0,0:0:0:0:
344,224,56284,2,0,L|360:144,1,75.000000298023,0|0,0:0|0:0,0:0:0:0:
189,313,56629,6,0,L|114:313,2,75.000000298023,0|0|8,0:0|0:0|0:0,0:0:0:0:
349,257,57146,2,0,P|397:203|342:168,1,150.000000596046,0|8,0:0|0:0,0:0:0:0:
248,168,57664,2,0,L|167:167,1,75.000000298023,0|8,0:0|0:0,0:0:0:0:
344,120,58009,6,0,L|248:120,1,75.000000298023,0|0,0:0|0:0,0:0:0:0:
192,120,58353,1,8,0:0:0:0:
368,208,58526,2,0,L|200:208,1,150.000000596046,0|8,0:0|0:0,0:0:0:0:
120,208,59043,2,0,L|104:112,1,75.000000298023,0|0,0:0|0:0,0:0:0:0:
280,112,59388,6,0,L|360:112,2,75.000000298023,0|0|8,0:0|0:0|0:0,0:0:0:0:
448,112,59905,2,0,P|408:192|336:200,1,150.000000596046,0|8,0:0|0:0,0:0:0:0:
192,224,60422,1,0,0:0:0:0:
240,224,60509,1,0,0:0:0:0:
288,224,60595,1,8,0:0:0:0:
128,280,60767,6,0,L|40:280,2,75.000000298023,0|0|8,0:0|0:0|0:0,0:0:0:0:
296,280,61284,2,0,P|352:256|320:184,1,150.000000596046,0|8,0:0|0:0,0:0:0:0:
232,184,61802,2,0,L|152:184,1,75.000000298023,0|0,0:0|0:0,0:0:0:0:
320,120,62146,6,0,L|400:120,2,75.000000298023,0|0|8,0:0|0:0|0:0,0:0:0:0:
152,96,62664,2,0,P|104:136|160:188,1,150.000000596046,0|8,0:0|0:0,0:0:0:0:
248,192,63181,2,0,L|336:192,1,75.000000298023,8|8,0:0|0:0,0:0:0:0:
256,192,63526,12,0,64905,0:0:0:0:
384,128,65940,6,0,L|400:208,1,75.000000298023,8|0,0:0|0:0,0:0:0:0:
145,128,66284,6,0,P|101:158|153:224,1,150.000000596046,4|8,0:0|0:0,0:0:0:0:
328,232,66802,2,0,L|432:232,2,75.000000298023,0|0|0,0:0|0:0|0:0,0:0:0:0:
144,296,67319,2,0,L|128:216,1,75.000000298023,8|0,0:0|0:0,0:0:0:0:
380,232,67664,6,0,L|220:232,1,150.000000596046,0|8,0:0|0:0,0:0:0:0:
408,152,68181,2,0,L|312:152,2,75.000000298023,0|0|0,0:0|0:0|0:0,0:0:0:0:
224,152,68698,2,0,L|144:152,1,75.000000298023,8|0,0:0|0:0,0:0:0:0:
408,192,69043,6,0,P|424:256|336:296,1,150.000000596046,0|8,0:0|0:0,0:0:0:0:
280,296,69560,1,0,0:0:0:0:
96,256,69733,2,0,L|80:160,1,75.000000298023,0|0,0:0|0:0,0:0:0:0:
264,160,70078,2,0,L|189:160,1,75.000000298023,8|0,0:0|0:0,0:0:0:0:
368,72,70422,6,0,P|416:120|360:168,1,150.000000596046,0|8,0:0|0:0,0:0:0:0:
280,168,70940,1,0,0:0:0:0:
96,240,71112,2,0,L|112:144,1,75.000000298023,0|0,0:0|0:0,0:0:0:0:
288,296,71457,2,0,L|392:296,1,75.000000298023,8|0,0:0|0:0,0:0:0:0:
120,296,71802,6,0,P|72:248|136:200,1,150.000000596046,0|8,0:0|0:0,0:0:0:0:
200,200,72319,1,0,0:0:0:0:
384,200,72491,2,0,L|360:104,1,75.000000298023,0|0,0:0|0:0,0:0:0:0:
184,120,72836,2,0,L|104:120,1,75.000000298023,8|0,0:0|0:0,0:0:0:0:
288,88,73181,6,0,P|371:130|384:184,1,150.000000596046,0|8,0:0|0:0,0:0:0:0:
288,184,73698,2,0,L|120:184,1,150.000000596046,0|0,0:0|0:0,0:0:0:0:
320,160,74215,2,0,P|381:269|304:328,1,225.000000894069,8|0,0:0|0:0,0:0:0:0:
136,112,74905,6,0,P|96:232|176:256,1,225.000000894069,8|0,0:0|0:0,0:0:0:0:
64,232,75595,2,0,L|48:152,1,75.000000298023,8|0,0:0|0:0,0:0:0:0:
232,152,75940,6,0,L|328:152,1,75.000000298023,0|0,0:0|0:0,0:0:0:0:
252,184,76198,1,0,0:0:0:0:
196,208,76284,2,0,L|184:292,1,75.000000298023,8|0,0:0|0:0,0:0:0:0:
272,296,76629,1,0,0:0:0:0:
448,200,76802,1,0,0:0:0:0:
404,200,76888,1,0,0:0:0:0:
360,200,76974,1,8,0:0:0:0:
452,176,77146,1,0,0:0:0:0:
120,160,77319,6,0,P|137:220|240:240,1,150.000000596046,4|8,0:0|0:0,0:0:0:0:
392,256,77836,2,0,L|472:256,2,75.000000298023,0|0|0,0:0|0:0|0:0,0:0:0:0:
208,312,78353,2,0,L|120:312,1,75.000000298023,8|0,0:0|0:0,0:0:0:0:
400,224,78698,6,0,P|368:296|288:312,1,150.000000596046,0|8,0:0|0:0,0:0:0:0:
224,296,79215,1,0,0:0:0:0:
408,200,79388,2,0,L|416:120,1,75.000000298023,0|0,0:0|0:0,0:0:0:0:
232,160,79733,2,0,L|136:160,1,75.000000298023,8|0,0:0|0:0,0:0:0:0:
408,104,80078,6,0,P|456:144|384:184,1,150.000000596046,0|8,0:0|0:0,0:0:0:0:
320,192,80595,1,0,0:0:0:0:
144,192,80767,2,0,L|128:272,1,75.000000298023,0|0,0:0|0:0,0:0:0:0:
312,80,81112,2,0,L|392:80,1,75.000000298023,8|0,0:0|0:0,0:0:0:0:
128,104,81457,6,0,P|64:136|48:224,1,150.000000596046,0|8,0:0|0:0,0:0:0:0:
128,240,81974,1,0,0:0:0:0:
312,256,82146,2,0,L|328:160,1,75.000000298023,0|0,0:0|0:0,0:0:0:0:
144,176,82491,2,0,L|48:176,1,75.000000298023,8|0,0:0|0:0,0:0:0:0:
336,216,82836,6,0,P|408:184|416:96,1,150.000000596046,0|8,0:0|0:0,0:0:0:0:
336,104,83353,1,0,0:0:0:0:
152,136,83526,2,0,L|136:216,1,75.000000298023,0|0,0:0|0:0,0:0:0:0:
320,224,83871,2,0,L|408:224,1,75.000000298023,8|0,0:0|0:0,0:0:0:0:
96,160,84215,6,0,P|117:225|205:245,1,150.000000596046,0|8,0:0|0:0,0:0:0:0:
288,248,84733,2,0,P|357:226|381:158,1,150.000000596046,0|0,0:0|0:0,0:0:0:0:
200,96,85250,2,0,P|144:136|208:256,1,225.000000894069,8|0,0:0|0:0,0:0:0:0:
384,96,85940,6,0,L|136:96,1,225.000000894069,8|0,0:0|0:0,0:0:0:0:
72,200,86629,2,0,L|88:288,1,75.000000298023,8|0,0:0|0:0,0:0:0:0:
360,256,86974,6,0,P|424:224|432:176,2,112.500000447034,0|0|0,0:0|0:0|0:0,0:0:0:0:
200,192,87836,1,0,0:0:0:0:
388,184,88009,2,0,L|404:104,1,75.000000298023,8|0,0:0|0:0,0:0:0:0:
128,120,88353,6,0,P|48:160|48:232,1,150.000000596046,4|8,0:0|0:0,0:0:0:0:
224,224,88871,2,0,L|384:224,1,150.000000596046,0|0,0:0|0:0,0:0:0:0:
288,280,89388,2,0,L|208:280,1,75.000000298023,8|0,0:0|0:0,0:0:0:0:
400,256,89733,6,0,P|448:216|400:160,1,150.000000596046,0|8,0:0|0:0,0:0:0:0:
216,176,90250,2,0,P|168:128|229:85,1,150.000000596046,0|0,0:0|0:0,0:0:0:0:
304,88,90767,2,0,L|408:88,1,75.000000298023,8|0,0:0|0:0,0:0:0:0:
120,168,91112,6,0,L|104:328,1,150.000000596046,0|8,0:0|0:0,0:0:0:0:
288,224,91629,2,0,P|352:208|384:136,1,150.000000596046,0|0,0:0|0:0,0:0:0:0:
288,120,92146,2,0,L|376:120,1,75.000000298023,8|0,0:0|0:0,0:0:0:0:
176,128,92491,6,0,P|132:160|181:227,1,150.000000596046,0|8,0:0|0:0,0:0:0:0:
360,216,93009,2,0,L|192:216,1,150.000000596046,0|0,0:0|0:0,0:0:0:0:
288,152,93526,2,0,L|200:152,1,75.000000298023,8|0,0:0|0:0,0:0:0:0:
456,192,93871,6,0,P|433:256|351:274,1,150.000000596046,0|8,0:0|0:0,0:0:0:0:
176,272,94388,2,0,P|131:225|177:167,1,150.000000596046,0|0,0:0|0:0,0:0:0:0:
264,176,94905,2,0,L|184:176,1,75.000000298023,8|0,0:0|0:0,0:0:0:0:
368,168,95250,6,0,P|438:150|463:79,1,150.000000596046,0|8,0:0|0:0,0:0:0:0:
279,58,95767,2,0,P|231:98|294:148,1,150.000000596046,0|0,0:0|0:0,0:0:0:0:
368,208,96284,2,0,L|279:207,1,75.000000298023,8|0,0:0|0:0,0:0:0:0:
112,176,96629,6,0,L|96:328,1,150.000000596046,0|8,0:0|0:0,0:0:0:0:
280,264,97146,2,0,P|328:224|272:176,1,150.000000596046,0|0,0:0|0:0,0:0:0:0:
192,184,97664,2,0,L|88:184,1,75.000000298023,8|0,0:0|0:0,0:0:0:0:
304,280,98009,6,0,L|320:200,1,75.000000298023,0|0,0:0|0:0,0:0:0:0:
136,200,98353,2,0,L|120:120,1,75.000000298023,8|0,0:0|0:0,0:0:0:0:
216,120,98698,1,0,0:0:0:0:
120,104,98871,2,0,L|72:104,2,37.5000001490115,0|0|8,0:0|0:0|0:0,0:0:0:0:
440,192,99388,6,0,P|488:232|433:286,1,150.000000596046,4|8,0:0|0:0,0:0:0:0:
280,288,99905,2,0,P|210:264|192:184,1,150.000000596046,0|0,0:0|0:0,0:0:0:0:
288,176,100422,2,0,L|368:176,1,75.000000298023,8|0,0:0|0:0,0:0:0:0:
192,184,100767,6,0,L|176:32,1,150.000000596046,0|8,0:0|0:0,0:0:0:0:
336,96,101284,2,0,L|176:96,1,150.000000596046,0|0,0:0|0:0,0:0:0:0:
288,168,101802,2,0,L|384:168,1,75.000000298023,8|0,0:0|0:0,0:0:0:0:
120,160,102146,6,0,P|56:176|28:264,1,150.000000596046,0|0,0:0|0:0,0:0:0:0:
204,248,102664,2,0,L|360:248,1,150.000000596046,8|0,0:0|0:0,0:0:0:0:
176,248,103181,2,0,L|88:248,1,75.000000298023,8|0,0:0|0:0,0:0:0:0:
344,192,103526,6,0,P|416:160|408:88,1,150.000000596046,0|8,0:0|0:0,0:0:0:0:
328,80,104043,1,0,0:0:0:0:
240,80,104215,2,0,L|160:80,3,75.000000298023,0|0|8|0,0:0|0:0|0:0|0:0,0:0:0:0:
408,152,104905,6,0,L|432:304,1,150.000000596046,0|8,0:0|0:0,0:0:0:0:
272,296,105422,2,0,P|192:272|176:208,1,150.000000596046,0|0,0:0|0:0,0:0:0:0:
272,200,105940,2,0,L|352:200,1,75.000000298023,8|0,0:0|0:0,0:0:0:0:
192,144,106284,6,0,L|342:144,1,150.000000596046,0|8,0:0|0:0,0:0:0:0:
184,96,106802,2,0,P|108:126|88:192,1,150.000000596046,0|0,0:0|0:0,0:0:0:0:
176,200,107319,2,0,L|96:200,1,75.000000298023,8|0,0:0|0:0,0:0:0:0:
336,232,107664,6,0,P|384:184|336:136,1,150.000000596046,0|8,0:0|0:0,0:0:0:0:
168,176,108181,2,0,P|96:152|72:80,1,150.000000596046,0|0,0:0|0:0,0:0:0:0:
168,80,108698,2,0,L|93:80,1,75.000000298023,8|0,0:0|0:0,0:0:0:0:
352,184,109043,6,0,P|408:168|424:104,2,112.500000447034,0|0|0,0:0|0:0|0:0,0:0:0:0:
200,184,109905,1,0,0:0:0:0:
384,184,110078,2,0,L|400:96,1,75.000000298023,8|0,0:0|0:0,0:0:0:0:
96,112,110422,5,4,0:0:0:0:
