osu file format v14

[General]
AudioFilename: audio.mp3
AudioLeadIn: 0
PreviewTime: -1
Countdown: 1
SampleSet: Normal
StackLeniency: 0.7
Mode: 0
LetterboxInBreaks: 0
WidescreenStoryboard: 1

[Editor]
Bookmarks: 46799,49371,54856,65313,65828
DistanceSpacing: 1.8
BeatDivisor: 4
GridSize: 4
TimelineZoom: 1.9

[Metadata]
Title:Shatter
TitleUnicode:Shatter
Artist:Feint
ArtistUnicode:Feint
Creator:kieranx6
Version:test_2
Source:
Tags:
BeatmapID:1038290
BeatmapSetID:473169

[Difficulty]
HPDrainRate:7.5
CircleSize:4.3
OverallDifficulty:7.5
ApproachRate:9.2
SliderMultiplier:1.49999990463257
SliderTickRate:1

[Events]
//Background and Video events
0,0,"Shatter.jpg",0,0
//Break Periods
//Storyboard Layer 0 (Background)
//Storyboard Layer 1 (Fail)
//Storyboard Layer 2 (Pass)
//Storyboard Layer 3 (Foreground)
//Storyboard Sound Samples

[TimingPoints]
0,342.857142857143,4,1,1,77,1,0
21942,-200,4,1,1,77,0,0
31371,-66.6666666666667,4,1,1,77,0,0
32914,-100,4,1,1,77,0,0
41142,-133.333333333333,4,1,1,77,0,0
43885,-80,4,1,1,77,0,0
87771,-100,4,1,1,77,0,0

[HitObjects]
88,212,10971,6,0,P|144:168|160:140,1,74.9999952316285,0|0,3:1|1:1,3:1:0:0:
145,165,11228,1,0,3:1:0:0:
145,165,11313,1,0,3:1:0:0:
256,88,11485,1,0,3:1:0:0:
276,220,11656,1,0,3:1:0:0:
380,132,11828,1,0,3:1:0:0:
436,256,11999,2,0,P|400:276|360:284,1,74.9999952316285,0|0,3:1|3:1,3:1:0:0:
316,160,12342,6,0,P|252:180|232:192,1,74.9999952316285,0|0,3:1|1:1,3:1:0:0:
245,183,12599,1,0,3:1:0:0:
245,183,12685,1,0,3:1:0:0:
168,296,12856,1,0,3:1:0:0:
304,312,13028,1,0,3:1:0:0:
212,216,13200,1,0,3:0:0:0:
344,196,13371,2,0,P|376:204|440:212,1,74.9999952316285,0|0,3:0|3:0,3:0:0:0:
356,332,13713,6,0,P|304:320|268:288,1,74.9999952316285,0|0,3:0|1:0,3:0:0:0:
286,308,13970,1,0,3:0:0:0:
286,308,14056,1,0,3:0:0:0:
272,172,14228,1,0,3:0:0:0:
152,112,14399,1,0,3:0:0:0:
56,208,14570,1,0,3:0:0:0:
148,308,14742,2,0,P|192:316|228:296,1,74.9999952316285,0|0,3:0|1:0,3:0:0:0:
308,204,15085,6,0,P|364:272|380:276,1,74.9999952316285,0|0,3:0|1:0,3:0:0:0:
472,320,15428,2,0,P|428:388|416:388,1,74.9999952316285,0|0,3:0|1:0,3:0:0:0:
328,316,15771,1,0,1:0:0:0:
328,316,15856,1,0,1:0:0:0:
328,316,15942,1,0,1:0:0:0:
204,268,16113,2,0,P|208:332|196:348,1,74.9999952316285,0|0,3:0|1:0,3:0:0:0:
240,208,16456,6,0,P|312:220|336:244,1,74.9999952316285,0|0,3:0|1:0,3:0:0:0:
311,219,16713,1,0,3:0:0:0:
311,219,16799,1,0,3:0:0:0:
392,112,16971,1,0,3:0:0:0:
260,96,17142,1,0,3:0:0:0:
256,232,17313,1,0,3:0:0:0:
132,180,17485,2,0,P|192:164|212:136,1,74.9999952316285,0|0,3:0|0:0,3:0:0:0:
300,64,17828,6,0,P|312:104|308:144,1,74.9999952316285,0|0,3:0|1:0,3:0:0:0:
309,136,18085,1,0,3:0:0:0:
309,136,18171,1,0,3:0:0:0:
288,268,18342,1,0,0:0:0:0:
152,280,18514,1,0,0:0:0:0:
64,212,18685,2,0,P|60:152|64:112,1,74.9999952316285
316,108,19199,6,0,P|252:116|224:140,1,74.9999952316285,0|0,3:0|1:0,3:0:0:0:
244,120,19456,1,0,3:0:0:0:
244,120,19542,1,0,3:0:0:0:
352,200,19713,1,0,3:0:0:0:
268,308,19885,1,0,3:0:0:0:
136,280,20056,1,0,3:0:0:0:
92,152,20228,2,0,P|100:192|80:224,1,74.9999952316285,0|0,3:0|3:0,3:0:0:0:
156,108,20571,2,0,P|164:68|144:36,1,74.9999952316285,0|0,3:0|1:0,3:0:0:0:
148,39,20828,1,0,3:0:0:0:
148,39,20913,1,0,3:0:0:0:
264,112,21085,1,0,3:0:0:0:
324,236,21257,2,0,L|256:288,1,74.9999952316285,0|0,3:0|1:0,3:0:0:0:
396,312,21599,1,0,1:0:0:0:
88,120,21942,6,0,P|176:96|236:112,1,149.999990463257,0|0,0:0|3:0,0:0:0:0:
336,176,22799,2,0,P|328:212|352:248,1,74.9999952316285,0|0,0:0|3:0,0:0:0:0:
136,300,23313,2,0,P|112:248|68:212,1,112.499992847443,0|0,0:0|3:0,0:0:0:0:
196,84,23999,2,0,P|284:88|320:72,1,112.499992847443,0|0,0:0|3:0,0:0:0:0:
452,220,24685,2,0,B|376:208|312:236|264:224|264:176|288:152,1,224.999985694886
112,140,26399,6,0,L|144:180,1,37.4999976158143,0|0,0:0|3:0,0:0:0:0:
400,140,26742,2,0,L|368:180,1,37.4999976158143,0|0,0:0|3:0,0:0:0:0:
256,308,27085,2,0,L|256:352,1,37.4999976158143,0|0,0:0|3:0,0:0:0:0:
268,104,27428,2,0,B|208:148|196:192|136:192,1,149.999990463257
136,364,28285,2,0,L|136:272,1,74.9999952316285,0|0,0:0|3:0,0:0:0:0:
132,40,28799,2,0,L|252:40,1,112.499992847443,0|0,0:0|3:0,0:0:0:0:
416,96,29485,2,0,L|328:184,1,112.499992847443,0|0,0:0|3:0,0:0:0:0:
216,336,30171,2,0,P|200:348|104:324,1,112.499992847443,0|0,0:0|3:0,0:0:0:0:
68,220,30856,1,0,0:0:0:0:
96,76,31028,1,0,0:0:0:0:
320,12,31371,2,0,P|364:60|424:76,1,112.499997138977
260,340,31885,5,0,0:0:0:0:
400,124,32228,1,0,0:0:0:0:
52,228,32571,1,0,0:0:0:0:
124,144,32914,2,0,P|148:108|128:68,1,74.9999952316285
236,176,33257,1,0,0:0:0:0:
324,280,33428,1,0,0:0:0:0:
324,144,33600,2,0,P|360:116|396:96,1,74.9999952316285
256,68,33942,1,0,0:0:0:0:
384,304,34285,2,0,P|440:280|468:248,1,74.9999952316285
324,228,34628,1,0,0:0:0:0:
432,148,34800,1,0,0:0:0:0:
304,108,34971,2,0,P|324:48|320:40,1,74.9999952316285
344,176,35314,2,0,P|432:140|508:152,1,149.999990463257
292,336,36000,1,0,0:0:0:0:
260,204,36171,1,0,0:0:0:0:
308,76,36342,2,0,P|320:24|312:0,1,74.9999952316285
224,108,36685,1,0,0:0:0:0:
432,280,37028,2,0,P|468:228|480:192,1,74.9999952316285
360,140,37371,1,0,0:0:0:0:
236,188,37542,1,0,0:0:0:0:
300,308,37714,2,0,P|332:264|364:252,1,74.9999952316285
360,120,38057,1,0,0:0:0:0:
316,280,38399,5,0,0:0:0:0:
260,236,38571,1,0,0:0:0:0:
212,188,38742,1,0,0:0:0:0:
232,124,38913,1,0,0:0:0:0:
48,276,39085,5,0,0:0:0:0:
112,300,39256,1,0,0:0:0:0:
164,340,39428,1,0,0:0:0:0:
232,340,39599,1,0,0:0:0:0:
316,236,39771,5,0,0:0:0:0:
308,168,39942,1,0,0:0:0:0:
280,108,40113,1,0,0:0:0:0:
216,92,40285,1,0,0:0:0:0:
68,228,40456,5,0,0:0:0:0:
76,160,40628,1,0,0:0:0:0:
80,92,40799,1,0,0:0:0:0:
40,36,40971,1,0,0:0:0:0:
280,252,41142,5,0,0:0:0:0:
288,220,41228,1,0,0:0:0:0:
272,188,41313,1,0,0:0:0:0:
276,156,41399,1,0,0:0:0:0:
300,132,41485,1,0,0:0:0:0:
316,104,41571,1,0,0:0:0:0:
296,76,41656,1,0,0:0:0:0:
268,56,41742,1,0,0:0:0:0:
236,64,41828,1,0,0:0:0:0:
204,76,41913,1,0,0:0:0:0:
172,76,41999,1,0,0:0:0:0:
144,84,42085,1,0,0:0:0:0:
80,132,42171,2,0,P|44:176|40:200,1,56.2499985694885
68,288,42513,6,0,P|128:304|136:308,1,56.2499985694885,0|0,0:0|3:0,0:0:0:0:
232,288,42856,6,0,P|264:268|280:244,1,56.2499985694885,0|0,0:0|3:0,0:0:0:0:
280,148,43199,6,0,P|264:112|240:92,1,56.2499985694885,0|0,0:0|3:0,0:0:0:0:
84,188,43542,5,0,0:0:0:0:
128,264,43885,6,0,L|248:288,1,93.7499940395356,0|0,3:0|3:0,3:0:0:0:
388,280,44228,1,0,3:0:0:0:
356,112,44400,1,0,1:0:0:0:
208,192,44571,1,0,1:0:0:0:
100,60,44743,1,0,3:0:0:0:
264,100,44913,2,0,P|320:60|360:56,1,93.7499940395356,0|0,3:0|3:0,3:0:0:0:
256,200,45256,2,0,P|312:236|380:248,1,93.7499940395356,0|0,3:0|3:0,3:0:0:0:
444,112,45599,1,0,3:0:0:0:
436,280,45771,1,0,1:0:0:0:
284,356,45942,1,0,1:0:0:0:
364,208,46113,1,0,3:0:0:0:
204,268,46285,1,0,3:0:0:0:
204,268,46371,1,0,3:0:0:0:
204,268,46456,2,0,P|268:284|308:288,1,93.7499940395356,0|0,3:0|3:0,3:0:0:0:
188,112,46971,6,0,L|280:36,1,93.7499940395356,0|0,3:0|3:0,3:0:0:0:
136,168,47314,1,0,1:0:0:0:
48,312,47485,1,0,3:0:0:0:
208,256,47656,2,0,L|288:188,1,93.7499940395356,0|0,3:0|3:0,3:0:0:0:
356,44,48000,1,0,1:0:0:0:
420,200,48171,1,0,3:0:0:0:
348,352,48342,2,0,L|248:324,1,93.7499940395356,0|0,3:0|3:0,3:0:0:0:
308,164,48685,1,0,1:0:0:0:
144,208,48857,1,0,3:0:0:0:
144,208,48942,1,0,3:0:0:0:
144,208,49028,1,0,3:0:0:0:
288,32,49371,6,0,L|408:56,1,93.7499940395356,0|0,3:0|3:0,3:0:0:0:
396,220,49714,1,0,3:0:0:0:
240,280,49885,1,0,1:0:0:0:
148,136,50057,1,0,1:0:0:0:
20,24,50229,1,0,3:0:0:0:
64,184,50399,2,0,P|64:248|116:296,1,93.7499940395356,0|0,3:0|3:0,3:0:0:0:
148,136,50742,2,0,P|200:172|268:184,1,93.7499940395356,0|0,3:0|3:0,3:0:0:0:
320,324,51085,1,0,3:0:0:0:
352,156,51257,1,0,1:0:0:0:
476,40,51428,1,0,1:0:0:0:
464,208,51599,1,0,3:0:0:0:
300,248,51771,1,0,3:0:0:0:
300,248,51857,1,0,3:0:0:0:
300,248,51942,1,0,3:0:0:0:
132,244,52113,6,0,P|164:168|180:140,1,93.7499940395356,0|0,3:0|3:0,3:0:0:0:
48,40,52456,1,0,3:0:0:0:
208,92,52628,1,0,1:0:0:0:
348,184,52800,1,0,1:0:0:0:
440,324,52971,1,0,3:0:0:0:
440,324,53056,1,0,3:0:0:0:
440,324,53142,1,0,3:0:0:0:
324,200,53314,1,0,1:0:0:0:
156,188,53485,1,0,1:0:0:0:
24,296,53657,1,0,3:0:0:0:
24,296,53742,1,0,3:0:0:0:
24,296,53828,1,0,3:0:0:0:
172,212,54000,1,0,1:0:0:0:
44,100,54171,1,0,1:0:0:0:
208,144,54342,2,0,L|288:72,1,93.7499940395356,0|0,3:0|3:0,3:0:0:0:
380,336,54856,6,0,P|460:356|496:348,1,93.7499940395356,0|0,3:0|3:0,3:0:0:0:
460,184,55199,1,0,3:0:0:0:
320,276,55371,1,0,1:0:0:0:
360,112,55542,1,0,1:0:0:0:
192,136,55713,1,0,3:0:0:0:
168,304,55885,2,0,L|244:216,1,93.7499940395356,0|0,3:0|3:0,3:0:0:0:
320,88,56228,1,0,3:0:0:0:
156,124,56400,1,0,1:0:0:0:
276,244,56571,1,0,3:0:0:0:
244,80,56742,1,0,1:0:0:0:
164,228,56914,1,0,1:0:0:0:
332,204,57085,1,0,3:0:0:0:
332,204,57171,1,0,3:0:0:0:
332,204,57256,2,0,L|404:140,1,93.7499940395356,0|0,3:0|3:0,3:0:0:0:
232,136,57599,6,0,L|304:52,1,93.7499940395356,0|0,3:0|3:0,3:0:0:0:
464,68,57942,1,0,3:0:0:0:
392,220,58114,1,0,1:0:0:0:
300,76,58285,1,0,1:0:0:0:
452,148,58456,1,0,3:0:0:0:
288,192,58628,2,0,L|380:168,1,93.7499940395356,0|0,3:0|3:0,3:0:0:0:
220,112,58971,1,0,1:0:0:0:
96,224,59142,1,0,3:0:0:0:
8,368,59313,2,0,L|112:368,1,93.7499940395356,0|0,3:0|3:0,3:0:0:0:
268,328,59657,1,0,1:0:0:0:
228,164,59828,1,0,3:0:0:0:
228,164,59914,1,0,3:0:0:0:
228,164,59999,1,0,3:0:0:0:
88,68,60171,1,0,1:0:0:0:
256,52,60342,2,0,P|328:60|344:92,1,93.7499940395356,0|0,3:0|3:0,3:0:0:0:
380,236,60685,1,0,3:0:0:0:
220,296,60857,1,0,1:0:0:0:
156,140,61028,1,0,1:0:0:0:
288,32,61199,2,0,L|380:16,1,93.7499940395356,0|0,3:0|3:0,3:0:0:0:
388,184,61542,1,0,1:0:0:0:
240,268,61713,2,0,L|128:280,1,93.7499940395356,0|0,3:0|3:0,3:0:0:0:
128,108,62056,1,0,3:0:0:0:
292,72,62228,1,0,1:0:0:0:
184,200,62400,1,0,1:0:0:0:
32,124,62571,1,0,3:0:0:0:
32,124,62656,1,0,3:0:0:0:
32,124,62742,1,0,3:0:0:0:
84,284,62914,1,0,1:0:0:0:
248,320,63085,2,0,L|364:312,1,93.7499940395356,0|0,3:0|3:0,3:0:0:0:
296,152,63428,1,0,3:0:0:0:
164,44,63600,1,0,1:0:0:0:
52,168,63771,1,0,1:0:0:0:
196,252,63942,1,0,3:0:0:0:
196,252,64028,1,0,3:0:0:0:
196,252,64113,1,0,3:0:0:0:
364,264,64285,1,0,1:0:0:0:
380,96,64457,1,0,1:0:0:0:
212,116,64627,1,0,3:0:0:0:
212,116,64713,1,0,3:0:0:0:
212,116,64799,1,0,3:0:0:0:
160,276,64971,1,0,0:0:0:0:
416,60,65313,6,0,L|512:20,1,93.7499940395356,0|0,3:0|3:0,3:0:0:0:
428,176,65656,1,0,3:0:0:0:
468,340,65828,2,0,L|348:316,1,93.7499940395356,0|0,3:0|3:0,3:0:0:0:
348,156,66171,1,0,3:0:0:0:
460,32,66342,1,0,1:0:0:0:
292,28,66514,1,0,1:0:0:0:
416,144,66686,1,0,3:0:0:0:
348,296,66856,2,0,P|292:336|252:340,1,93.7499940395356,0|0,3:0|3:0,3:0:0:0:
328,180,67199,2,0,P|272:144|204:132,1,93.7499940395356,0|0,3:0|3:0,3:0:0:0:
384,236,67542,1,0,3:0:0:0:
216,248,67714,1,0,0:0:0:0:
184,84,67885,1,0,0:0:0:0:
308,200,68056,1,0,3:0:0:0:
376,36,68228,1,0,3:0:0:0:
376,36,68314,1,0,3:0:0:0:
376,36,68399,2,0,P|312:20|272:16,1,93.7499940395356,0|0,3:0|3:0,3:0:0:0:
476,296,68914,6,0,L|384:372,1,93.7499940395356,0|0,3:0|3:0,3:0:0:0:
252,276,69257,1,0,0:0:0:0:
268,108,69428,1,0,3:0:0:0:
156,212,69599,2,0,L|76:280,1,93.7499940395356,0|0,3:0|3:0,3:0:0:0:
108,104,69942,1,0,0:0:0:0:
264,168,70114,1,0,3:0:0:0:
324,324,70285,2,0,L|224:352,1,93.7499940395356,0|0,3:0|3:0,3:0:0:0:
340,220,70628,1,0,0:0:0:0:
396,60,70800,1,0,3:0:0:0:
396,60,70885,1,0,3:0:0:0:
396,60,70971,1,0,3:0:0:0:
256,152,71142,1,0,0:0:0:0:
396,60,71314,6,0,L|276:36,1,93.7499940395356,0|0,3:0|3:0,3:0:0:0:
192,168,71657,1,0,3:0:0:0:
104,312,71828,1,0,0:0:0:0:
268,276,72000,1,0,0:0:0:0:
104,228,72172,1,0,3:0:0:0:
264,184,72342,2,0,P|320:224|360:228,1,93.7499940395356,0|0,3:0|3:0,3:0:0:0:
332,60,72685,2,0,P|276:24|208:12,1,93.7499940395356,0|0,3:0|3:0,3:0:0:0:
176,168,73028,1,0,3:0:0:0:
344,172,73200,1,0,0:0:0:0:
352,340,73371,1,0,0:0:0:0:
184,344,73542,1,0,3:0:0:0:
72,216,73714,1,0,3:0:0:0:
72,216,73800,1,0,3:0:0:0:
72,216,73885,1,0,3:0:0:0:
240,224,74056,2,0,P|272:148|288:120,1,93.7499940395356,0|0,3:0|3:0,3:0:0:0:
428,216,74399,1,0,3:0:0:0:
276,292,74571,1,0,0:0:0:0:
180,152,74742,1,0,0:0:0:0:
348,124,74914,1,0,3:0:0:0:
348,124,74999,1,0,3:0:0:0:
348,124,75085,1,0,3:0:0:0:
208,220,75257,1,0,0:0:0:0:
44,184,75428,1,0,0:0:0:0:
180,84,75600,1,0,3:0:0:0:
180,84,75685,1,0,3:0:0:0:
180,84,75771,1,0,3:0:0:0:
344,112,75942,1,0,0:0:0:0:
92,336,76285,6,0,L|172:264,1,93.7499940395356,0|0,3:0|3:0,3:0:0:0:
332,256,76628,1,0,0:0:0:0:
304,92,76799,2,0,P|224:72|188:80,1,93.7499940395356,0|0,3:0|3:0,3:0:0:0:
236,240,77142,1,0,3:0:0:0:
404,244,77314,1,0,0:0:0:0:
408,76,77485,1,0,0:0:0:0:
240,72,77656,1,0,3:0:0:0:
388,152,77828,2,0,L|288:200,1,93.7499940395356,0|0,3:0|3:0,3:0:0:0:
240,352,78171,1,0,3:0:0:0:
180,196,78342,1,0,0:0:0:0:
200,92,78514,2,0,L|312:44,1,93.7499940395356,0|0,3:0|3:0,3:0:0:0:
132,124,78857,1,0,0:0:0:0:
292,176,79028,1,0,3:0:0:0:
292,176,79114,1,0,3:0:0:0:
292,176,79199,2,0,L|220:240,1,93.7499940395356,0|0,3:0|3:0,3:0:0:0:
392,232,79542,2,0,L|320:316,1,93.7499940395356,0|0,3:0|3:0,3:0:0:0:
304,136,79885,2,0,L|200:164,1,93.7499940395356,0|0,3:0|3:0,3:0:0:0:
92,44,80228,1,0,0:0:0:0:
260,36,80399,1,0,3:0:0:0:
148,164,80571,2,0,L|56:188,1,93.7499940395356,0|0,3:0|3:0,3:0:0:0:
44,356,80914,1,0,0:0:0:0:
208,316,81085,1,0,3:0:0:0:
372,272,81256,2,0,L|476:272,1,93.7499940395356,0|0,3:0|3:0,3:0:0:0:
312,200,81600,1,0,0:0:0:0:
192,84,81771,1,0,3:0:0:0:
192,84,81857,1,0,3:0:0:0:
192,84,81942,1,0,3:0:0:0:
424,332,82285,6,0,P|352:304|320:288,1,93.7499940395356,0|0,3:0|3:0,3:0:0:0:
184,228,82628,1,0,3:0:0:0:
68,104,82800,1,0,0:0:0:0:
224,40,82971,1,0,0:0:0:0:
376,112,83142,2,0,L|284:128,1,93.7499940395356,0|0,3:0|3:0,3:0:0:0:
144,224,83485,1,0,0:0:0:0:
300,288,83656,2,0,L|188:276,1,93.7499940395356,0|0,3:0|3:0,3:0:0:0:
272,120,83999,1,0,3:0:0:0:
104,128,84171,1,0,0:0:0:0:
108,296,84342,1,0,0:0:0:0:
276,280,84514,1,0,3:0:0:0:
276,280,84599,1,0,3:0:0:0:
276,280,84685,2,0,L|248:168,1,93.7499940395356
104,128,85028,5,0,3:0:0:0:
164,204,85371,1,0,3:0:0:0:
52,32,85714,1,0,3:0:0:0:
384,120,86057,1,0,3:0:0:0:
60,176,86400,2,0,P|88:108|104:84,1,93.7499940395356,0|0,3:0|3:0,3:0:0:0:
176,296,86657,1,0,3:0:0:0:
216,296,86742,1,0,3:0:0:0:
248,276,86828,1,0,3:0:0:0:
260,240,86914,1,0,3:0:0:0:
252,204,87000,1,0,3:0:0:0:
240,176,87085,1,0,3:0:0:0:
236,112,87171,2,0,P|248:56|276:16,1,93.7499940395356,0|0,3:0|3:0,3:0:0:0:
344,28,87428,2,0,P|388:60|400:108,1,93.7499940395356,0|0,3:0|3:0,3:0:0:0:
276,152,87771,6,0,P|304:136|328:88,1,74.9999952316285
192,84,88114,1,0,0:0:0:0:
112,192,88285,1,0,0:0:0:0:
192,84,88457,1,0,0:0:0:0:
112,192,88628,1,0,0:0:0:0:
248,204,88800,2,0,P|264:132|264:108,1,74.9999952316285
392,92,89142,1,0,0:0:0:0:
376,228,89314,1,0,0:0:0:0:
284,328,89485,1,0,0:0:0:0:
212,212,89657,2,0,P|220:140|172:48,1,149.999990463257
300,152,90171,2,0,P|332:148|372:108,1,74.9999952316285
388,256,90514,6,0,P|416:240|440:192,1,74.9999952316285
304,204,90857,2,0,L|208:176,3,74.9999952316285
144,80,91542,1,0,0:0:0:0:
283,58,91714,2,0,P|307:150|299:222,1,149.999990463257
308,340,92228,1,0,0:0:0:0:
184,284,92400,2,0,P|136:216|144:120,1,149.999990463257
252,88,92914,2,0,P|284:84|324:44,1,74.9999952316285
128,356,93257,6,0,P|100:340|76:292,1,74.9999952316285
212,284,93600,1,0,0:0:0:0:
312,372,93771,1,0,0:0:0:0:
212,284,93943,1,0,0:0:0:0:
312,372,94114,1,0,0:0:0:0:
404,272,94286,2,0,P|384:240|344:224,1,74.9999952316285
220,192,94628,1,0,0:0:0:0:
196,60,94800,1,0,0:0:0:0:
304,140,94971,1,0,0:0:0:0:
364,260,95143,2,0,P|356:188|404:96,1,149.999990463257
252,148,95657,2,0,P|220:144|180:104,1,74.9999952316285
304,52,96000,6,0,P|276:36|252:-12,1,74.9999952316285
160,96,96342,2,0,L|104:160,3,74.9999952316285
196,256,97028,1,0,0:0:0:0:
204,120,97200,2,0,P|308:116|368:128,1,149.999990463257
300,248,97714,1,0,0:0:0:0:
180,184,97886,2,0,P|228:116|220:20,1,149.999990463257
108,108,98400,2,0,P|76:104|36:64,1,74.9999952316285
400,360,98742,6,0,P|428:344|452:296,1,74.9999952316285
356,208,99085,1,0,0:0:0:0:
308,332,99256,1,0,0:0:0:0:
240,216,99428,1,0,0:0:0:0:
200,344,99599,1,0,0:0:0:0:
92,264,99771,2,0,P|108:192|108:168,1,74.9999952316285
224,120,100113,1,0,0:0:0:0:
336,220,100285,1,0,0:0:0:0:
232,304,100456,1,0,0:0:0:0:
180,180,100628,2,0,P|188:108|140:16,1,149.999990463257
292,68,101142,2,0,P|324:64|364:24,1,74.9999952316285
388,256,101485,6,0,P|416:240|440:192,1,74.9999952316285
308,172,101828,2,0,L|208:180,3,74.9999952316285
100,160,102514,1,0,0:0:0:0:
68,292,102685,2,0,L|232:284,1,149.999990463257
336,220,103199,1,0,0:0:0:0:
204,192,103371,2,0,P|156:124|164:28,1,149.999990463257
288,76,103885,2,0,P|320:72|360:32,1,74.9999952316285
460,128,104228,6,0,P|488:112|512:64,1,74.9999952316285
380,108,104571,1,0,0:0:0:0:
380,244,104742,1,0,0:0:0:0:
244,244,104914,1,0,0:0:0:0:
244,108,105085,1,0,0:0:0:0:
136,192,105257,2,0,P|152:120|152:96,1,74.9999952316285
284,132,105599,1,0,0:0:0:0:
304,264,105771,1,0,0:0:0:0:
200,176,105942,1,0,0:0:0:0:
336,172,106114,2,0,P|344:100|296:8,1,149.999990463257
224,132,106628,2,0,P|268:136|308:96,1,74.9999952316285
356,240,106971,6,0,P|384:224|408:176,1,74.9999952316285
420,324,107314,2,0,L|320:332,3,74.9999952316285
228,264,108000,1,0,0:0:0:0:
148,156,108171,2,0,P|248:152|276:96,1,149.999990463257
352,228,108685,1,0,0:0:0:0:
220,196,108857,2,0,P|172:128|180:32,1,149.999990463257
304,76,109371,2,0,P|336:72|376:32,1,74.9999952316285
