osu file format v14

[General]
AudioFilename: audio.mp3
AudioLeadIn: 0
PreviewTime: -1
Countdown: 1
SampleSet: None
StackLeniency: 0.7
Mode: 0
LetterboxInBreaks: 0
WidescreenStoryboard: 1

[Editor]
DistanceSpacing: 0.7
BeatDivisor: 4
GridSize: 8
TimelineZoom: 1.2

[Metadata]
Title:Shatter
TitleUnicode:Shatter
Artist:Feint
ArtistUnicode:Feint
Creator:kieranx6
Version:Easy
Source:
Tags:
BeatmapID:1038288
BeatmapSetID:473169

[Difficulty]
HPDrainRate:2.2
CircleSize:3.2
OverallDifficulty:5
ApproachRate:5
SliderMultiplier:1.09999990463257
SliderTickRate:1

[Events]
//Background and Video events
0,0,"Shatter.jpg",0,0
//Break Periods
2,21799,30127
//Storyboard Layer 0 (Background)
//Storyboard Layer 1 (Fail)
//Storyboard Layer 2 (Pass)
//Storyboard Layer 3 (Foreground)
//Storyboard Sound Samples

[TimingPoints]
10971,342.857142857143,4,2,1,100,1,0
43885,-86.9565217391304,4,2,1,100,0,0
54513,-50,4,2,1,100,0,0
54856,-86.9565217391304,4,2,1,100,0,0

[HitObjects]
56,332,10970,6,0,P|124:316|156:264,1,109.999990463257
160,184,11485,1,0,0:0:0:0:
256,256,11828,2,0,L|324:256,1,54.9999952316285
416,72,12342,6,0,P|344:76|308:96,1,109.999990463257
232,40,12856,1,0,0:0:0:0:
152,120,13199,2,0,L|100:72,1,54.9999952316285
288,104,13713,2,0,P|336:132|376:184,1,109.999990463257
320,296,14228,1,0,0:0:0:0:
260,220,14570,2,0,L|184:224,1,54.9999952316285
52,24,15085,2,0,P|36:72|52:140,1,109.999990463257
128,168,15599,2,0,L|196:132,3,54.9999952316285
352,32,16456,2,0,P|296:56|268:108,1,109.999990463257
272,184,16971,1,0,0:0:0:0:
376,200,17313,2,0,L|380:264,1,54.9999952316285
464,360,17828,2,0,P|400:348|348:324,1,109.999990463257
248,304,18342,1,0,0:0:0:0:
296,228,18685,2,0,L|356:248,1,54.9999952316285
264,120,19199,2,0,P|164:120|136:132,1,109.999990463257
32,164,19713,1,0,0:0:0:0:
44,64,20056,2,0,P|84:84|112:72,1,54.9999952316285
104,216,20571,2,0,P|120:272|180:288,1,109.999990463257
256,324,21085,1,0,0:0:0:0:
284,236,21428,2,0,P|300:192|296:180,1,54.9999952316285
112,184,31542,5,0,0:0:0:0:
176,108,31885,1,0,0:0:0:0:
256,168,32228,1,0,0:0:0:0:
252,268,32571,1,0,0:0:0:0:
80,36,32913,6,0,P|60:64|40:136,1,109.999990463257
132,148,33428,1,0,0:0:0:0:
280,72,33942,1,0,0:0:0:0:
240,224,34628,2,0,L|296:264,1,54.9999952316285
432,184,35313,1,0,0:0:0:0:
224,304,35999,2,0,P|216:344|228:352,1,54.9999952316285
360,336,36685,1,0,0:0:0:0:
336,176,37028,1,0,0:0:0:0:
224,144,37371,2,0,L|204:88,1,54.9999952316285
32,80,38056,1,0,0:0:0:0:
256,192,38399,12,0,42513,0:0:0:0:
120,264,42856,5,0,0:0:0:0:
192,232,43199,1,0,0:0:0:0:
168,160,43542,2,0,P|144:100|144:96,1,54.9999952316285
168,72,43885,6,0,P|220:72|304:48,1,126.499991445541
376,152,44741,1,0,0:0:0:0:
344,184,44913,1,0,0:0:0:0:
344,272,45256,2,0,P|428:300|480:296,1,126.499991445541
448,376,46156,1,0,0:0:0:0:
416,368,46285,2,0,L|384:360,2,31.6249978613854
464,160,46971,5,0,0:0:0:0:
336,184,47485,1,0,0:0:0:0:
304,152,47656,2,0,L|368:96,1,63.2499957227707
264,64,48213,1,0,0:0:0:0:
232,80,48342,2,0,L|160:48,1,63.2499957227707
88,48,48856,2,0,L|88:-8,2,31.6249978613854
40,120,49371,6,0,P|24:160|20:248,1,126.499991445541
128,320,50228,2,0,L|160:240,1,63.2499957227707
176,176,50742,2,0,P|248:200|312:208,1,126.499991445541
280,72,51599,1,0,0:0:0:0:
280,32,51771,2,0,L|280:-16,2,31.6249978613854
184,128,52456,1,0,0:0:0:0:
320,192,52971,2,0,L|352:160,2,31.6249978613854
200,192,53656,2,0,L|148:164,2,31.6249978613854
312,256,54342,2,0,L|384:296,2,63.2499957227707
320,216,54856,6,0,P|384:200|424:144,1,126.499991445541
400,24,55713,1,0,0:0:0:0:
352,24,55885,1,0,0:0:0:0:
264,32,56228,2,0,P|196:120|168:128,1,126.499991445541
104,224,57085,1,0,0:0:0:0:
96,264,57256,2,0,L|80:296,2,31.6249978613854
136,288,57599,2,0,P|168:328|240:344,1,126.499991445541
288,216,58456,1,0,0:0:0:0:
328,232,58628,2,0,L|400:264,1,63.2499957227707
392,344,59142,1,0,0:0:0:0:
432,352,59313,2,0,L|516:380,1,63.2499957227707
504,288,59828,2,0,L|504:232,2,31.6249978613854
504,200,60342,6,0,L|504:48,1,126.499991445541
376,32,61199,1,0,0:0:0:0:
376,80,61371,1,0,0:0:0:0:
352,136,61713,2,0,P|312:80|264:112,1,126.499991445541
136,96,62571,1,0,0:0:0:0:
96,112,62742,2,0,L|56:132,2,31.6249978613854
152,176,63085,2,0,P|224:216|240:264,1,126.499991445541
368,296,63942,2,0,L|400:288,2,31.6249978613854
352,160,64628,2,0,L|384:152,2,31.6249978613854
224,120,65313,2,0,L|176:168,2,63.2499957227707
32,352,65828,6,0,P|76:376|152:344,1,126.499991445541
272,320,66684,1,0,0:0:0:0:
320,320,66856,1,0,0:0:0:0:
336,232,67199,2,0,P|252:204|196:208,1,126.499991445541
80,200,68056,1,0,0:0:0:0:
48,232,68228,2,0,L|16:256,2,31.6249978613854
24,200,68571,2,0,L|24:56,1,126.499991445541
128,152,69428,5,0,0:0:0:0:
168,168,69599,2,0,L|240:148,1,63.2499957227707
248,64,70114,1,0,0:0:0:0:
288,40,70285,2,0,L|368:32,1,63.2499957227707
440,24,70799,2,0,L|488:24,2,31.6249978613854
352,40,71314,6,0,L|172:16,1,158.124989306927
168,128,72171,2,0,L|208:192,1,63.2499957227707
280,152,72685,2,0,L|384:240,1,126.499991445541
464,328,73542,2,0,L|504:256,1,63.2499957227707
464,192,74056,2,0,P|504:136|464:96,1,126.499991445541
376,184,74914,2,0,L|344:216,2,31.6249978613854
480,272,75599,2,0,L|532:300,2,31.6249978613854
456,144,76285,1,0,0:0:0:0:
416,120,76456,2,0,L|352:96,1,63.2499957227707
336,136,76799,6,0,P|260:128|204:88,1,126.499991445541
88,96,77656,1,0,0:0:0:0:
64,56,77828,1,0,0:0:0:0:
0,120,78171,2,0,P|12:232|40:256,1,126.499991445541
112,328,79028,1,0,0:0:0:0:
152,320,79199,2,0,L|184:312,2,31.6249978613854
232,360,79542,6,0,P|312:360|360:384,1,126.499991445541
456,288,80399,1,0,0:0:0:0:
456,240,80571,2,0,L|500:168,1,63.2499957227707
448,112,81085,1,0,0:0:0:0:
472,72,81256,2,0,L|388:44,1,63.2499957227707
336,0,81771,2,0,L|312:40,2,31.6249978613854
264,88,82285,6,0,P|208:16|168:0,1,126.499991445541
48,32,83142,1,0,0:0:0:0:
48,80,83314,1,0,0:0:0:0:
40,168,83656,2,0,L|40:304,1,126.499991445541
176,296,84513,1,0,0:0:0:0:
184,256,84685,2,0,L|224:228,2,31.6249978613854
256,192,85028,12,0,87771,0:0:0:0:
