osu file format v14

[General]
AudioFilename: audio.mp3
AudioLeadIn: 0
PreviewTime: 67764
Countdown: 0
SampleSet: Normal
StackLeniency: 0.7
Mode: 0
LetterboxInBreaks: 0
WidescreenStoryboard: 1

[Editor]
Bookmarks: 12992,23964,40421
DistanceSpacing: 1
BeatDivisor: 4
GridSize: 32
TimelineZoom: 1.6

[Metadata]
Title:Outbreak (feat. MYLK)
TitleUnicode:Outbreak (feat. MYLK)
Artist:Feint
ArtistUnicode:Feint
Creator:Reform
Version:_orange's Normal
Source:Rocket League
Tags:kujinn kergio _orange stingy monstercat monster cat drum and n bass dnb electro dubstep
BeatmapID:1433790
BeatmapSetID:672530

[Difficulty]
HPDrainRate:4
CircleSize:3.5
OverallDifficulty:4
ApproachRate:5
SliderMultiplier:0.999999999999999
SliderTickRate:1

[Events]
//Background and Video events
0,0,"BG.JPG",0,0
//Break Periods
//Storyboard Layer 0 (Background)
//Storyboard Layer 1 (Fail)
//Storyboard Layer 2 (Pass)
//Storyboard Layer 3 (Foreground)
//Storyboard Sound Samples

[TimingPoints]
715,342.857142857143,4,2,1,48,1,0
13057,-100,4,2,1,30,0,0
24029,-100,4,2,1,40,0,0
35000,-100,4,2,1,25,0,0
37743,-100,4,2,1,30,0,0
40486,-100,4,2,1,35,0,0
43229,-100,4,2,1,45,0,0
45972,-100,4,2,1,60,0,0
56943,-100,4,2,1,75,0,0
67915,-100,4,1,1,85,0,1
68943,-100,4,1,1,85,0,1
69286,-100,4,1,1,85,0,1
74429,-100,4,1,1,85,0,1
74772,-100,4,1,1,85,0,1
79915,-100,4,1,1,85,0,1
80257,-100,4,1,1,85,0,1
87115,-100,4,1,1,85,0,0
89857,-100,4,1,1,85,0,1
111800,-100,4,1,1,85,0,0

[Colours]
Combo1 : 60,78,81
Combo2 : 132,217,191
Combo3 : 36,169,213
Combo4 : 205,54,54

[HitObjects]
121,45,13057,6,0,P|66:125|92:218,1,200,2|0,0:0|0:0,0:0:0:0:
160,292,14086,2,0,B|259:309|259:309|345:262|345:262|447:275,1,300,2|0,0:0|0:0,0:0:0:0:
503,190,15457,2,0,B|519:117|519:117|449:7|325:39,1,300,2|0,0:0|0:0,0:0:0:0:
322,140,16829,2,0,B|278:165|225:167|225:167|140:104|41:101,1,300,2|0,0:0|0:0,0:0:0:0:
16,198,18200,1,2,0:0:0:0:
27,297,18543,6,0,P|94:366|191:360,1,200,0|0,0:0|0:0,0:0:0:0:
190,258,19572,2,0,B|332:208|332:311|482:262,1,300,2|0,0:0|0:0,0:0:0:0:
428,177,20943,2,0,B|409:134|432:91|432:91|310:114|237:37,1,300,2|0,0:0|0:0,0:0:0:0:
167,108,22315,2,0,P|44:151|114:262,1,300,2|0,0:0|0:0,0:0:0:0:
214,262,23686,1,0,0:0:0:0:
297,317,24029,6,0,L|396:304,1,99.9999999999999,2|0,0:0|0:0,0:0:0:0:
436,276,24543,2,0,P|455:229|450:180,1,99.9999999999999,0|0,0:0|0:0,0:0:0:0:
399,94,25229,1,0,0:0:0:0:
349,101,25400,2,0,L|299:105,1,50,2|0,0:0|0:0,0:0:0:0:
220,43,25915,1,0,0:0:0:0:
117,53,26257,2,0,P|99:99|107:148,1,99.9999999999999,0|0,0:0|0:0,0:0:0:0:
138,189,26772,6,0,L|125:288,1,99.9999999999999,2|0,0:0|0:0,0:0:0:0:
195,359,27457,2,0,L|294:346,1,99.9999999999999,2|0,0:0|0:0,0:0:0:0:
391,322,28143,2,0,B|384:272|384:272|400:226,1,99.9999999999999,2|0,0:0|0:0,0:0:0:0:
472,155,28829,2,0,L|478:105,1,50,2|0,0:0|0:0,0:0:0:0:
433,83,29172,2,0,L|426:33,1,50,0|0,0:0|0:0,0:0:0:0:
380,11,29515,6,0,P|331:7|284:22,2,99.9999999999999,2|0|2,0:0|0:0|0:0,0:0:0:0:
342,104,30543,2,0,L|335:153,1,50,0|0,0:0|0:0,0:0:0:0:
329,203,30886,2,0,P|281:187|231:190,1,99.9999999999999,2|0,0:0|0:0,0:0:0:0:
209,235,31400,2,0,P|161:250|111:247,1,99.9999999999999,0|0,0:0|0:0,0:0:0:0:
67,223,31915,2,0,L|74:174,1,50,0|0,0:0|0:0,0:0:0:0:
55,127,32257,6,0,B|40:79|40:79|49:31,2,99.9999999999999,2|0|2,0:0|0:0|0:0,0:0:0:0:
145,82,33286,2,0,L|194:88,1,50,0|0,0:0|0:0,0:0:0:0:
240,107,33629,1,2,0:0:0:0:
285,127,33800,2,0,L|384:113,1,99.9999999999999,0|0,0:0|0:0,0:0:0:0:
434,107,34315,2,0,P|424:155|445:199,1,99.9999999999999,2|0,0:0|0:0,0:0:0:0:
484,291,35000,6,0,L|384:303,1,99.9999999999999,2|8,3:2|0:0,0:0:0:0:
302,360,35686,2,0,L|202:348,1,99.9999999999999,0|8,0:0|0:0,0:0:0:0:
156,329,36200,1,0,0:0:0:0:
111,305,36372,2,0,L|104:255,1,50,2|0,3:2|0:0,0:0:0:0:
179,190,36886,2,0,P|185:141|163:97,1,99.9999999999999,0|0,0:0|3:0,0:0:0:0:
123,67,37400,1,8,0:0:0:0:
208,14,37743,6,0,B|257:13|257:13|305:26,1,99.9999999999999,2|8,3:2|0:0,0:0:0:0:
385,88,38429,1,0,0:0:0:0:
430,169,38772,2,0,L|423:218,1,50,8|0,0:0|0:0,0:0:0:0:
438,266,39115,2,0,P|419:283|398:296,1,50,2|0,3:2|0:0,0:0:0:0:
297,301,39629,2,0,P|248:301|199:313,1,99.9999999999999,0|0,0:0|3:0,0:0:0:0:
155,337,40143,1,8,0:0:0:0:
60,305,40486,5,2,3:2:0:0:
122,227,40829,2,0,B|141:181|141:181|132:131,1,99.9999999999999,8|0,0:0|0:0,0:0:0:0:
80,45,41515,2,0,L|129:38,1,50,8|0,0:0|0:0,0:0:0:0:
178,29,41857,2,0,L|277:41,1,99.9999999999999,2|8,3:2|0:0,0:0:0:0:
317,70,42372,2,0,P|363:52|413:48,1,99.9999999999999,0|0,0:0|3:0,0:0:0:0:
460,64,42886,2,0,L|466:113,1,50,8|0,0:0|0:0,0:0:0:0:
456,162,43229,5,2,3:2:0:0:
400,245,43572,2,0,B|350:251|350:251|302:235|302:235|252:241,1,150,8|0,0:0|3:0,0:0:0:0:
132,322,44600,5,2,3:2:0:0:
89,71,45972,6,0,L|188:83,1,99.9999999999999,4|2,0:0|0:0,0:0:0:0:
237,92,46486,1,0,0:0:0:0:
183,231,47000,2,0,L|282:218,1,99.9999999999999,2|2,0:0|0:0,0:0:0:0:
331,210,47514,1,0,0:0:0:0:
436,103,48029,2,0,B|407:175|462:175|434:249,1,150,2|0,0:0|0:0,0:0:0:0:
411,293,48715,6,0,B|369:315|369:315|316:313,1,99.9999999999999,2|2,0:0|0:0,0:0:0:0:
266,309,49229,1,0,0:0:0:0:
121,350,49743,2,0,B|99:307|99:307|101:254,1,99.9999999999999,2|2,0:0|0:0,0:0:0:0:
105,204,50257,1,0,0:0:0:0:
197,165,50600,2,0,P|281:175|261:92,1,200,0|0,0:0|0:0,0:0:0:0:
223,59,51457,6,0,P|174:70|124:71,1,99.9999999999999,2|2,0:0|0:0,0:0:0:0:
74,61,51972,1,0,0:0:0:0:
52,209,52486,2,0,P|78:251|113:287,1,99.9999999999999,2|2,0:0|0:0,0:0:0:0:
156,315,53001,1,0,0:0:0:0:
305,300,53515,2,0,L|299:251,2,50,2|0|2,0:0|0:0|0:0,0:0:0:0:
351,320,54029,1,0,0:0:0:0:
379,172,54543,6,0,B|339:142|339:142|290:131|290:131|248:103,1,150,2|0,0:0|0:0,0:0:0:0:
207,74,55229,1,2,0:0:0:0:
116,117,55572,2,0,L|109:166,1,50,2|0,0:0|0:0,0:0:0:0:
159,253,56086,2,0,L|208:259,1,50,0|2,0:0|0:0,0:0:0:0:
242,295,56429,1,0,0:0:0:0:
276,331,56600,2,0,L|325:324,1,50,2|0,0:0|0:0,0:0:0:0:
355,283,56943,6,0,P|397:258|446:246,1,99.9999999999999,6|10,3:2|0:0,0:0:0:0:
494,232,57457,2,0,L|507:132,1,99.9999999999999,0|0,0:0|3:0,0:0:0:0:
491,85,57972,1,10,0:0:0:0:
397,47,58315,2,0,B|348:44|348:44|300:59,1,99.9999999999999,2|10,3:2|0:0,0:0:0:0:
259,88,58829,1,0,0:0:0:0:
219,118,59000,2,0,L|119:105,1,99.9999999999999,2|10,0:0|0:0,0:0:0:0:
21,125,59686,6,0,P|42:169|83:197,1,99.9999999999999,2|10,3:2|0:0,0:0:0:0:
127,220,60200,2,0,L|139:319,1,99.9999999999999,0|0,0:0|3:0,0:0:0:0:
177,351,60715,1,10,0:0:0:0:
273,323,61057,2,0,B|372:335,1,99.9999999999999,2|10,3:2|0:0,0:0:0:0:
415,309,61572,2,0,P|395:237|416:166,1,150,0|10,0:0|0:0,0:0:0:0:
477,86,62429,6,0,P|431:69|382:73,1,99.9999999999999,6|10,3:2|0:0,0:0:0:0:
339,99,62943,2,0,P|292:116|243:112,1,99.9999999999999,0|0,0:0|3:0,0:0:0:0:
195,98,63457,1,10,0:0:0:0:
97,76,63800,2,0,L|84:175,1,99.9999999999999,2|10,3:2|0:0,0:0:0:0:
162,238,64486,2,0,L|168:287,2,50,2|0|10,0:0|3:0|0:0,0:0:0:0:
191,197,65000,1,0,0:0:0:0:
329,139,65515,6,0,L|347:287,1,150,2|2,1:2|1:2,0:0:0:0:
391,311,66200,1,2,1:2:0:0:
478,263,66543,2,0,L|471:213,1,50,2|0,3:0|0:0,0:0:0:0:
451,115,67057,1,0,3:0:0:0:
441,65,67229,2,0,P|400:36|351:30,1,99.9999999999999,0|10,3:0|0:0,0:0:0:0:
277,97,67915,6,0,L|177:84,1,99.9999999999999,6|8,3:2|0:0,0:0:0:0:
78,89,68600,2,0,P|72:114|71:139,1,50,0|0,0:0|3:0,0:0:0:0:
71,189,68943,1,8,0:0:0:0:
110,281,69286,2,0,B|158:294|158:294|208:292,1,99.9999999999999,2|8,3:2|0:0,0:0:0:0:
300,255,69972,2,0,L|349:261,1,50,0|0,0:0|3:0,0:0:0:0:
388,292,70315,2,0,L|437:285,1,50,8|0,0:0|0:0,0:0:0:0:
478,256,70657,6,0,P|481:207|465:160,1,99.9999999999999,2|8,3:2|0:0,0:0:0:0:
452,60,71343,2,0,L|502:67,2,50,0|0|8,0:0|3:0|0:0,0:0:0:0:
401,60,71857,1,0,0:0:0:0:
351,68,72029,2,0,B|301:75,1,50,2|0,3:2|0:0,0:0:0:0:
251,81,72372,2,0,L|261:6,2,74.9999999999999,8|8|0,0:0|0:0|3:0,0:0:0:0:
229,125,73057,2,0,L|179:130,1,50,8|0,0:0|3:0,0:0:0:0:
140,161,73400,6,0,P|140:218|163:275,1,99.9999999999999,2|8,3:2|0:0,0:0:0:0:
228,327,74086,2,0,P|252:320|277:320,1,50,0|0,0:0|3:0,0:0:0:0:
326,328,74429,1,8,0:0:0:0:
310,229,74772,2,0,L|297:129,1,99.9999999999999,2|8,3:2|0:0,0:0:0:0:
328,34,75457,2,0,L|377:40,1,50,0|0,0:0|3:0,0:0:0:0:
419,67,75800,2,0,L|468:60,1,50,8|0,0:0|0:0,0:0:0:0:
499,100,76143,6,0,B|494:149|494:149|510:196,1,99.9999999999999,2|8,3:2|0:0,0:0:0:0:
496,296,76829,2,0,L|502:345,2,50,0|0|8,0:0|3:0|0:0,0:0:0:0:
447,282,77343,1,0,0:0:0:0:
397,273,77515,2,0,L|347:266,1,50,2|0,3:2|0:0,0:0:0:0:
302,241,77857,2,0,P|291:206|293:169,2,74.9999999999999,8|8|0,0:0|0:0|3:0,0:0:0:0:
264,274,78543,2,0,P|240:268|215:268,1,50,8|0,0:0|3:0,0:0:0:0:
177,233,78886,6,0,B|178:183|178:183|164:135,1,99.9999999999999,6|8,3:2|0:0,0:0:0:0:
172,36,79572,2,0,L|221:29,1,50,0|0,0:0|3:0,0:0:0:0:
271,21,79915,1,8,0:0:0:0:
275,120,80257,2,0,P|323:109|357:74,1,99.9999999999999,2|8,3:2|0:0,0:0:0:0:
454,49,80943,2,0,L|460:98,1,50,0|0,0:0|3:0,0:0:0:0:
435,142,81286,2,0,L|428:191,1,50,8|0,0:0|0:0,0:0:0:0:
463,227,81629,6,0,P|465:276|451:324,1,99.9999999999999,2|8,3:2|0:0,0:0:0:0:
351,333,82315,2,0,L|344:382,2,50,0|0|8,0:0|3:0|0:0,0:0:0:0:
316,297,82829,1,0,0:0:0:0:
278,263,83000,2,0,L|273:213,1,50,2|0,3:2|0:0,0:0:0:0:
233,182,83343,2,0,P|199:198|162:200,2,74.9999999999999,8|8|0,0:0|0:0|3:0,0:0:0:0:
244,133,84029,2,0,L|239:83,1,50,8|0,0:0|3:0,0:0:0:0:
200,49,84372,6,0,P|234:14|282:6,1,99.9999999999999,0|8,3:0|0:0,0:0:0:0:
345,86,85057,2,0,L|394:92,1,50,0|0,0:0|3:0,0:0:0:0:
443,103,85400,1,8,0:0:0:0:
500,184,85743,2,0,P|455:202|405:195,1,99.9999999999999,0|8,3:0|0:0,0:0:0:0:
320,248,86429,2,0,P|295:242|270:241,1,50,0|0,0:0|3:0,0:0:0:0:
229,212,86772,2,0,P|204:217|179:218,1,50,8|0,0:0|0:0,0:0:0:0:
135,194,87115,5,0,3:0:0:0:
93,103,87457,2,0,L|98:53,1,50,0|0,3:0|3:0,0:0:0:0:
187,8,87972,1,0,3:0:0:0:
217,47,88143,2,0,P|239:58|263:59,1,50,0|0,3:0|3:0,0:0:0:0:
311,75,88486,2,0,P|350:45|399:44,1,99.9999999999999,0|0,3:0|3:0,0:0:0:0:
388,144,89172,1,0,3:0:0:0:
319,216,89515,1,8,0:0:0:0:
242,151,89857,6,0,L|142:163,1,99.9999999999999,6|8,3:2|0:0,0:0:0:0:
85,212,90457,2,0,L|10:202,2,74.9999999999999,0|0|0,3:0|3:0|3:0,0:0:0:0:
155,238,91229,1,2,3:2:0:0:
204,325,91572,1,8,0:0:0:0:
275,347,91829,2,0,P|310:358|347:360,2,74.9999999999999,0|0|0,3:0|3:0|3:0,0:0:0:0:
261,272,92600,6,0,B|259:222|259:222|280:177,1,99.9999999999999,2|8,3:2|0:0,0:0:0:0:
336,124,93200,2,0,P|337:86|320:53,2,74.9999999999999,0|0|0,3:0|3:0|3:0,0:0:0:0:
264,104,93972,1,2,3:2:0:0:
187,39,94315,1,8,0:0:0:0:
111,30,94572,2,0,P|87:57|79:94,1,74.9999999999999,8|0,0:0|3:0,0:0:0:0:
58,139,95000,2,0,L|109:145,1,50,8|0,0:0|0:0,0:0:0:0:
158,157,95343,6,0,L|170:256,1,99.9999999999999,2|8,3:2|0:0,0:0:0:0:
150,329,95943,2,0,B|114:338|114:338|77:338,2,74.9999999999999,0|0|0,3:0|3:0|3:0,0:0:0:0:
224,313,96715,1,2,3:2:0:0:
322,330,97057,1,8,0:0:0:0:
311,255,97315,2,0,L|301:180,2,74.9999999999999,0|0|0,3:0|3:0|3:0,0:0:0:0:
379,284,98086,6,0,P|424:302|472:289,1,99.9999999999999,2|8,3:2|0:0,0:0:0:0:
503,220,98686,2,0,L|512:145,2,74.9999999999999,0|0|0,3:0|3:0|3:0,0:0:0:0:
428,225,99457,1,2,3:2:0:0:
397,129,99800,1,8,0:0:0:0:
321,138,100057,2,0,P|287:125|262:98,1,74.9999999999999,8|0,0:0|3:0,0:0:0:0:
246,50,100486,2,0,L|196:45,1,50,8|0,0:0|0:0,0:0:0:0:
146,43,100829,6,0,P|155:91|160:141,1,99.9999999999999,6|8,3:2|0:0,0:0:0:0:
107,195,101429,2,0,P|70:189|32:191,2,74.9999999999999,0|0|0,3:0|3:0|3:0,0:0:0:0:
178,215,102200,1,2,3:2:0:0:
228,301,102543,1,8,0:0:0:0:
289,257,102800,2,0,B|287:219|287:219|280:183,2,74.9999999999999,0|0|0,3:0|3:0|3:0,0:0:0:0:
300,331,103572,6,0,L|399:344,1,99.9999999999999,2|8,3:2|0:0,0:0:0:0:
392,269,104172,2,0,P|390:231|405:197,2,74.9999999999999,0|0|0,3:0|3:0|3:0,0:0:0:0:
463,245,104943,1,2,3:2:0:0:
493,149,105286,1,8,0:0:0:0:
449,87,105543,2,0,L|374:96,1,74.9999999999999,8|0,0:0|3:0,0:0:0:0:
332,68,105972,2,0,L|282:63,1,50,8|0,0:0|0:0,0:0:0:0:
237,86,106315,6,0,L|248:186,1,99.9999999999999,2|8,3:2|0:0,0:0:0:0:
225,257,106915,2,0,B|189:246|189:246|151:246,2,74.9999999999999,0|0|0,3:0|3:0|3:0,0:0:0:0:
261,322,107686,1,2,3:2:0:0:
345,267,108029,1,8,0:0:0:0:
408,306,108286,2,0,L|399:380,2,74.9999999999999,0|0|0,3:0|3:0|3:0,0:0:0:0:
463,255,109057,6,0,P|476:208|475:158,1,99.9999999999999,2|8,3:2|0:0,0:0:0:0:
442,88,109657,2,0,P|432:53|434:17,2,74.9999999999999,0|0|0,3:0|3:0|3:0,0:0:0:0:
401,151,110429,1,2,3:2:0:0:
330,80,110772,1,8,0:0:0:0:
276,132,111029,2,0,L|266:206,1,74.9999999999999,8|0,0:0|3:0,0:0:0:0:
231,242,111457,2,0,L|181:246,1,50,8|0,0:0|0:0,0:0:0:0:
136,223,111800,5,6,2:0:0:0:
