osu file format v14

[General]
AudioFilename: audio.mp3
AudioLeadIn: 0
PreviewTime: 67764
Countdown: 0
SampleSet: Soft
StackLeniency: 0.2
Mode: 0
LetterboxInBreaks: 0
WidescreenStoryboard: 1

[Editor]
Bookmarks: 12992,23964
DistanceSpacing: 0.2
BeatDivisor: 4
GridSize: 32
TimelineZoom: 1.6

[Metadata]
Title:Outbreak (feat. MYLK)
TitleUnicode:Outbreak (feat. MYLK)
Artist:Feint
ArtistUnicode:Feint
Creator:Reform
Version:Uprising
Source:Rocket League
Tags:kujinn kergio _orange stingy monstercat monster cat drum and n bass dnb electro dubstep
BeatmapID:1469645
BeatmapSetID:672530

[Difficulty]
HPDrainRate:6.5
CircleSize:4.2
OverallDifficulty:9
ApproachRate:9
SliderMultiplier:1.8
SliderTickRate:1

[Events]
//Background and Video events
0,0,"BG.jpg",0,0
//Break Periods
//Storyboard Layer 0 (Background)
//Storyboard Layer 1 (Fail)
//Storyboard Layer 2 (Pass)
//Storyboard Layer 3 (Foreground)
//Storyboard Sound Samples

[TimingPoints]
715,342.857142857143,4,2,1,48,1,0
13057,-166.666666666667,4,2,1,30,0,0
24029,-125,4,2,1,40,0,0
35000,-125,4,2,1,25,0,0
37743,-125,4,2,1,30,0,0
40486,-125,4,2,1,35,0,0
43229,-125,4,2,1,45,0,0
45972,-100,4,2,1,60,0,0
56943,-90.9090909090909,4,2,1,75,0,0
67915,-83.3333333333333,4,1,1,85,0,1
68943,-125,4,1,1,85,0,1
69286,-83.3333333333333,4,1,1,85,0,1
74429,-125,4,1,1,85,0,1
74772,-83.3333333333333,4,1,1,85,0,1
79915,-125,4,1,1,85,0,1
80257,-83.3333333333333,4,1,1,85,0,1
87115,-83.3333333333333,4,1,1,85,0,0
89857,-83.3333333333333,4,1,1,85,0,1
111800,-83.3333333333333,4,1,1,85,0,0

[Colours]
Combo1 : 60,78,81
Combo2 : 132,217,191
Combo3 : 36,169,213
Combo4 : 205,54,54

[HitObjects]
273,165,13057,6,0,L|399:157,1,107.999996704102,2|0,0:0|0:0,0:0:0:0:
126,226,13743,1,0,0:0:0:0:
126,226,14086,2,0,P|112:174|123:113,2,107.999996704102,2|0|0,0:0|0:0|0:0,0:0:0:0:
305,333,15115,5,0,0:0:0:0:
305,333,15457,2,0,L|429:338,2,107.999996704102,2|0|0,0:0|0:0|0:0,0:0:0:0:
126,226,16486,5,0,0:0:0:0:
126,226,16829,2,0,L|119:350,2,107.999996704102,2|0|0,0:0|0:0|0:0,0:0:0:0:
134,37,17857,5,0,0:0:0:0:
134,37,18200,2,0,P|82:19|15:39,2,107.999996704102,2|0|0,0:0|0:0|0:0,0:0:0:0:
278,150,19229,5,0,0:0:0:0:
278,150,19572,2,0,P|330:168|397:148,2,107.999996704102,2|0|0,0:0|0:0|0:0,0:0:0:0:
126,226,20600,5,0,0:0:0:0:
126,226,20943,2,0,P|110:280|126:349,2,107.999996704102,2|0|0,0:0|0:0|0:0,0:0:0:0:
380,157,21972,5,0,0:0:0:0:
380,157,22315,2,0,L|388:42,2,107.999996704102,2|0|0,0:0|0:0|0:0,0:0:0:0:
225,338,23343,6,0,L|110:329,1,107.999996704102,0|0,0:0|0:0,0:0:0:0:
114,146,24029,6,0,P|72:138|30:148,2,72,2|0|0,0:0|0:0|0:0,0:0:0:0:
193,234,24543,2,0,P|269:234|358:234,1,144,0|0,0:0|0:0,0:0:0:0:
380,157,25057,2,0,P|329:150|293:155,1,72
294,325,25400,5,2,0:0:0:0:
294,325,25572,2,0,P|345:332|381:327,1,72,0|0,0:0|0:0,0:0:0:0:
464,235,25915,2,0,L|472:157,1,72,0|2,0:0|0:0,0:0:0:0:
331,155,26257,2,0,L|323:77,1,72,0|0,0:0|0:0,0:0:0:0:
197,33,26600,1,0,0:0:0:0:
197,33,26772,6,0,P|128:9|41:42,2,144,2|0|2,0:0|0:0|0:0,0:0:0:0:
126,178,27800,2,0,P|119:143|125:108,1,72,0|0,0:0|0:0,0:0:0:0:
216,141,28143,6,0,P|212:209|205:318,1,144,2|0,0:0|0:0,0:0:0:0:
300,350,28657,1,0,0:0:0:0:
300,350,28829,2,0,P|342:362|384:354,1,72,2|0,0:0|0:0,0:0:0:0:
416,235,29172,2,0,P|374:223|332:231,1,72,0|0,0:0|0:0,0:0:0:0:
207,284,29515,6,0,P|139:300|60:262,2,144,2|0|2,0:0|0:0|0:0,0:0:0:0:
143,131,30543,2,0,P|137:166|144:202,1,72,0|0,0:0|0:0,0:0:0:0:
225,48,30886,5,2,0:0:0:0:
225,48,31057,2,0,P|281:45|324:44,1,72,0|0,0:0|0:0,0:0:0:0:
427,94,31400,2,0,P|363:101|318:181,1,144,0|0,0:0|0:0,0:0:0:0:
411,187,31915,2,0,L|416:273,1,72,0|0,0:0|0:0,0:0:0:0:
316,330,32257,6,0,B|239:307|253:357|169:331,2,144,2|0|2,0:0|0:0|0:0,0:0:0:0:
411,187,33286,2,0,L|406:115,1,72,0|0,0:0|0:0,0:0:0:0:
346,50,33629,6,0,P|399:30|472:56,2,108,2|0|0,0:0|0:0|0:0,0:0:0:0:
248,113,34315,2,0,P|210:109|155:101,1,72,2|0,0:0|0:0,0:0:0:0:
59,202,34657,2,0,P|97:206|152:214,1,72,0|0,0:0|0:0,0:0:0:0:
140,342,35000,6,0,P|111:286|134:205,1,144,2|8,3:2|0:0,0:0:0:0:
151,92,35600,1,0,3:0:0:0:
151,92,35686,2,0,L|251:84,1,72,0|0,0:0|3:0,0:0:0:0:
294,174,36029,1,8,0:0:0:0:
294,174,36115,2,0,L|374:181,1,72,0|0,3:0|0:0,0:0:0:0:
456,195,36372,5,2,3:2:0:0:
344,335,36715,2,0,P|296:340|253:318,1,72,8|0,0:0|0:0,0:0:0:0:
234,303,36972,1,0,3:0:0:0:
234,303,37057,2,0,P|186:298|143:320,1,72,0|0,0:0|3:0,0:0:0:0:
64,345,37400,1,8,0:0:0:0:
64,345,37486,2,0,P|56:303|69:265,1,72,0|0,3:0|0:0,0:0:0:0:
108,160,37743,5,2,3:2:0:0:
108,160,38086,2,0,L|209:169,1,72,8|0,0:0|0:0,0:0:0:0:
218,169,38343,1,0,3:0:0:0:
218,169,38429,2,0,P|227:125|216:81,1,72,0|0,0:0|3:0,0:0:0:0:
365,34,38772,1,8,0:0:0:0:
365,34,38857,2,0,P|356:78|367:122,1,72,0|0,3:0|0:0,0:0:0:0:
420,218,39115,5,2,3:2:0:0:
420,218,39457,2,0,L|409:322,1,72,8|0,0:0|0:0,0:0:0:0:
408,320,39715,1,0,3:0:0:0:
408,320,39800,2,0,P|368:311|330:324,1,72,0|0,0:0|3:0,0:0:0:0:
239,364,40143,1,8,0:0:0:0:
239,364,40229,2,0,P|192:370|156:354,1,72,0|0,3:0|0:0,0:0:0:0:
41,272,40486,5,2,3:2:0:0:
41,272,40829,2,0,L|35:176,1,72,8|0,0:0|0:0,0:0:0:0:
34,156,41086,1,0,3:0:0:0:
34,156,41172,2,0,P|79:166|117:147,1,72,0|0,0:0|3:0,0:0:0:0:
219,75,41515,1,8,0:0:0:0:
219,75,41600,2,0,L|212:168,1,72,0|0,3:0|0:0,0:0:0:0:
201,290,41857,5,2,3:2:0:0:
201,290,42200,2,0,P|245:282|287:302,1,72,8|0,0:0|0:0,0:0:0:0:
304,313,42457,1,0,3:0:0:0:
304,313,42543,2,0,P|350:323|399:302,1,72,0|0,0:0|3:0,0:0:0:0:
459,243,42886,1,8,0:0:0:0:
459,243,42972,2,0,L|465:157,1,72,0|0,3:0|0:0,0:0:0:0:
475,34,43229,5,2,3:2:0:0:
475,34,43572,2,0,L|392:39,1,72,8|0,0:0|0:0,0:0:0:0:
362,46,43829,1,0,3:0:0:0:
362,46,43915,2,0,L|268:33,1,72,0|0,0:0|3:0,0:0:0:0:
186,117,44257,1,8,0:0:0:0:
186,117,44343,2,0,P|179:158|197:206,1,72,0|0,3:0|0:0,0:0:0:0:
272,289,44600,5,2,3:2:0:0:
272,289,45457,6,0,L|197:282,2,72,0|0|0,0:0|0:0|0:0,0:0:0:0:
344,362,45972,6,0,P|366:309|334:214,1,135,4|0,0:0|0:0,0:0:0:0:
334,197,46315,2,0,P|325:147|350:95,1,90,2|0,0:0|0:0,0:0:0:0:
404,34,46657,2,0,L|507:35,1,90,2|0,0:0|0:0,0:0:0:0:
269,29,47000,1,2,0:0:0:0:
269,28,47343,6,0,P|219:48|137:12,1,135,2|0,0:0|0:0,0:0:0:0:
132,39,47686,2,0,P|150:92|131:140,1,90,2|0,0:0|0:0,0:0:0:0:
46,266,48029,1,2,0:0:0:0:
46,266,48200,1,0,0:0:0:0:
236,190,48372,1,2,0:0:0:0:
63,83,48543,1,0,0:0:0:0:
179,268,48715,6,0,P|228:288|320:248,1,135,2|0,0:0|0:0,0:0:0:0:
332,241,49057,2,0,P|319:282|347:346,1,90,2|0,0:0|0:0,0:0:0:0:
416,283,49400,2,0,L|532:275,1,90,2|0,0:0|0:0,0:0:0:0:
378,151,49743,1,2,0:0:0:0:
378,151,49915,1,0,0:0:0:0:
242,201,50086,6,0,P|190:212|144:187,1,90,2|0,0:0|0:0,0:0:0:0:
146,190,50343,1,0,0:0:0:0:
134,183,50429,2,0,P|82:172|36:197,1,90,2|0,0:0|0:0,0:0:0:0:
112,332,50772,2,0,L|263:320,1,135,2|0,0:0|0:0,0:0:0:0:
274,319,51115,1,2,0:0:0:0:
439,365,51286,1,0,0:0:0:0:
351,260,51457,6,0,P|326:197|349:125,1,135,2|0,0:0|0:0,0:0:0:0:
354,102,51800,2,0,L|264:99,1,90,2|0,0:0|0:0,0:0:0:0:
141,49,52143,2,0,P|158:98|145:150,1,90,2|0,0:0|0:0,0:0:0:0:
114,253,52486,1,2,0:0:0:0:
114,253,52829,6,0,P|177:232|259:271,1,135,2|0,0:0|0:0,0:0:0:0:
273,283,53172,2,0,P|260:239|278:186,1,90,2|0,0:0|0:0,0:0:0:0:
379,76,53515,1,2,0:0:0:0:
379,76,53686,1,0,0:0:0:0:
191,131,53857,1,2,0:0:0:0:
340,240,54029,1,0,0:0:0:0:
250,57,54200,6,0,P|185:80|110:48,1,135,2|0,0:0|0:0,0:0:0:0:
101,45,54543,2,0,P|85:98|102:144,1,90,2|0,0:0|0:0,0:0:0:0:
140,321,54886,2,0,P|155:279|147:235,1,90,2|0,0:0|0:0,0:0:0:0:
57,275,55229,1,2,0:0:0:0:
57,275,55400,1,0,0:0:0:0:
248,195,55572,6,0,P|293:184|356:213,1,90,2|0,0:0|0:0,0:0:0:0:
345,203,55829,1,0,0:0:0:0:
356,209,55915,2,0,P|401:220|464:191,1,90,2|0,0:0|0:0,0:0:0:0:
293,60,56257,2,0,B|224:77|224:77|148:57,1,135,2|0,0:0|0:0,0:0:0:0:
139,52,56600,2,0,P|91:45|36:67,1,90,2|0,0:0|0:0,0:0:0:0:
98,143,56943,6,0,L|89:288,1,99.0000030212403,6|0,3:2|0:0,0:0:0:0:
178,325,57286,2,0,P|237:313|299:344,1,99.0000030212403,10|0,0:0|0:0,0:0:0:0:
289,330,57543,1,0,3:0:0:0:
303,336,57629,2,0,P|299:258|296:194,1,99.0000030212403,2|0,0:0|3:0,0:0:0:0:
427,131,57972,1,10,0:0:0:0:
427,131,58057,2,0,L|421:214,1,49.5000015106202,0|0,3:0|0:0,0:0:0:0:
327,56,58315,6,0,B|250:34|270:103|149:60,1,148.50000453186,2|0,3:2|0:0,0:0:0:0:
157,87,58657,2,0,P|106:74|48:95,1,99.0000030212403,10|0,0:0|0:0,0:0:0:0:
48,96,58915,1,0,3:0:0:0:
32,107,59000,2,0,P|35:163|37:215,1,99.0000030212403,2|0,0:0|3:0,0:0:0:0:
233,291,59343,1,10,0:0:0:0:
233,291,59429,2,0,L|236:210,1,49.5000015106202,0|0,3:0|0:0,0:0:0:0:
179,354,59686,6,0,P|206:369|290:353,1,99.0000030212403,2|0,3:2|0:0,0:0:0:0:
364,185,60029,2,0,P|337:170|253:186,1,99.0000030212403,10|0,0:0|0:0,0:0:0:0:
254,183,60286,1,0,3:0:0:0:
237,192,60372,2,0,P|188:200|143:181,1,99.0000030212403,2|0,0:0|3:0,0:0:0:0:
205,82,60715,1,10,0:0:0:0:
205,82,60800,2,0,L|280:89,1,49.5000015106202,0|0,3:0|0:0,0:0:0:0:
364,185,61057,6,0,P|353:129|371:74,1,99.0000030212403,2|0,3:2|0:0,0:0:0:0:
446,134,61315,1,0,0:0:0:0:
446,134,61400,2,0,P|457:190|439:245,1,99.0000030212403,10|0,0:0|0:0,0:0:0:0:
385,285,61657,1,0,3:0:0:0:
385,285,61743,2,0,B|337:259|260:287,1,99.0000030212403,2|0,0:0|3:0,0:0:0:0:
145,310,62086,1,10,0:0:0:0:
145,310,62172,2,0,P|106:312|73:290,1,49.5000015106202,0|0,3:0|0:0,0:0:0:0:
125,110,62429,6,0,L|118:209,1,99.0000030212403,6|0,3:2|0:0,0:0:0:0:
181,305,62772,2,0,P|226:309|287:278,1,99.0000030212403,10|0,0:0|0:0,0:0:0:0:
289,280,63029,1,0,3:0:0:0:
305,272,63115,2,0,P|349:252|398:255,1,99.0000030212403,2|0,0:0|3:0,0:0:0:0:
368,369,63457,1,10,0:0:0:0:
368,369,63543,2,0,L|283:363,1,49.5000015106202,0|0,3:0|0:0,0:0:0:0:
276,135,63800,6,0,B|357:106|344:177|431:146,1,148.50000453186,2|0,3:2|0:0,0:0:0:0:
453,164,64143,2,0,P|457:106|459:53,1,99.0000030212403,10|0,0:0|0:0,0:0:0:0:
459,48,64400,1,0,3:0:0:0:
460,29,64486,2,0,P|397:25|329:21,1,99.0000030212403,2|0,0:0|3:0,0:0:0:0:
209,215,64829,1,10,0:0:0:0:
209,215,64915,2,0,P|272:211|303:209,1,49.5000015106202,0|0,3:0|0:0,0:0:0:0:
119,110,65172,6,0,L|113:26,3,49.5000015106202,2|0|2|0,1:2|1:2|1:2|1:2,1:2:0:0:
47,231,65515,2,0,L|53:315,3,49.5000015106202,2|0|2|0,1:2|1:2|1:2|1:2,1:2:0:0:
143,331,65857,1,2,1:2:0:0:
178,313,65943,1,0,1:2:0:0:
217,313,66029,1,2,1:2:0:0:
254,324,66115,1,0,1:2:0:0:
286,345,66200,1,2,1:2:0:0:
323,356,66286,1,0,1:2:0:0:
362,351,66372,1,2,1:2:0:0:
395,330,66457,1,0,1:2:0:0:
418,307,66543,6,0,P|407:252|429:198,1,99.0000030212403,2|0,3:0|0:0,0:0:0:0:
295,107,66886,2,0,L|290:47,3,49.5000015106202,0|0|0|0,3:0|3:0|3:0|3:0,3:0:0:0:
415,162,67229,2,0,L|420:222,3,49.5000015106202,0|0|0|0,3:0|3:0|3:0|3:0,3:0:0:0:
254,324,67572,5,10,0:0:0:0:
254,324,67915,6,0,B|170:299|186:363|78:325,1,161.999995056153,6|0,3:2|0:0,0:0:0:0:
62,318,68257,1,8,0:0:0:0:
29,111,68429,1,0,0:0:0:0:
200,217,68600,1,0,0:0:0:0:
0,251,68772,1,0,3:0:0:0:
280,193,68943,6,0,P|280:239|235:292,1,108,8|0,0:0|0:0,0:0:0:0:
200,217,69286,6,0,P|206:148|216:39,1,161.999995056153,2|0,3:2|0:0,0:0:0:0:
219,18,69629,1,8,0:0:0:0:
464,111,69800,1,0,0:0:0:0:
214,55,69972,1,0,0:0:0:0:
402,280,70143,1,0,3:0:0:0:
365,30,70315,1,8,0:0:0:0:
201,219,70486,1,0,0:0:0:0:
351,354,70657,6,0,P|416:350|480:347,1,107.999996704102,2|0,3:2|0:0,0:0:0:0:
323,169,71000,1,8,0:0:0:0:
216,349,71172,1,0,0:0:0:0:
409,211,71343,2,0,P|422:156|391:94,1,107.999996704102,0|0,0:0|3:0,0:0:0:0:
193,49,71686,1,8,0:0:0:0:
306,287,71857,1,0,0:0:0:0:
456,50,72029,5,2,3:2:0:0:
323,169,72200,1,0,0:0:0:0:
323,169,72286,1,0,0:0:0:0:
323,169,72372,2,0,L|216:163,1,107.999996704102,8|0,0:0|0:0,0:0:0:0:
133,269,72629,1,8,0:0:0:0:
132,268,72715,2,0,P|124:242|125:215,1,53.9999983520508,0|0,3:0|0:0,0:0:0:0:
56,110,72886,5,0,3:0:0:0:
232,243,73057,1,8,0:0:0:0:
19,308,73229,1,0,3:0:0:0:
194,74,73400,6,0,B|278:50|274:106|368:74,1,161.999995056153,2|0,3:2|0:0,0:0:0:0:
374,52,73743,1,8,0:0:0:0:
308,271,73915,1,0,0:0:0:0:
411,129,74086,1,0,0:0:0:0:
485,337,74257,1,0,3:0:0:0:
214,287,74429,6,0,P|218:230|275:182,1,107.999996704102,8|0,0:0|0:0,0:0:0:0:
308,271,74772,6,0,L|115:255,1,161.999995056153,2|0,3:2|0:0,0:0:0:0:
113,234,75115,1,8,0:0:0:0:
377,211,75286,1,0,0:0:0:0:
107,271,75457,1,0,0:0:0:0:
255,80,75629,1,0,3:0:0:0:
262,352,75800,1,8,0:0:0:0:
23,206,75972,1,0,0:0:0:0:
276,62,76143,6,0,P|340:58|421:52,1,107.999996704102,2|0,3:2|0:0,0:0:0:0:
234,228,76486,1,8,0:0:0:0:
106,75,76657,1,0,0:0:0:0:
320,181,76829,2,0,P|330:238|295:301,1,107.999996704102,0|0,0:0|3:0,0:0:0:0:
205,368,77172,1,8,0:0:0:0:
183,138,77343,1,0,0:0:0:0:
405,123,77515,5,2,3:2:0:0:
416,355,77686,1,0,0:0:0:0:
416,355,77772,1,0,0:0:0:0:
416,355,77857,2,0,P|356:356|300:321,1,107.999996704102,8|0,0:0|0:0,0:0:0:0:
197,253,78115,1,8,0:0:0:0:
197,253,78200,2,0,L|206:306,1,53.9999983520508,0|0,3:0|0:0,0:0:0:0:
163,105,78372,5,0,3:0:0:0:
57,307,78543,1,8,0:0:0:0:
300,267,78715,1,0,3:0:0:0:
186,25,78886,6,0,B|94:9|121:88|8:40,1,161.999995056153,6|0,3:2|0:0,0:0:0:0:
0,38,79229,1,8,0:0:0:0:
270,160,79400,1,0,0:0:0:0:
57,307,79572,1,0,0:0:0:0:
163,105,79743,1,0,3:0:0:0:
300,267,79915,6,0,P|246:259|192:253,1,108,8|0,0:0|0:0,0:0:0:0:
105,293,80257,6,0,P|103:215|162:163,1,161.999995056153,2|0,3:2|0:0,0:0:0:0:
194,149,80600,1,8,0:0:0:0:
333,298,80772,1,0,0:0:0:0:
377,99,80943,1,0,0:0:0:0:
345,322,81115,1,0,3:0:0:0:
183,133,81286,1,8,0:0:0:0:
413,196,81457,1,0,0:0:0:0:
170,342,81629,6,0,L|39:334,1,107.999996704102,2|0,3:2|0:0,0:0:0:0:
247,216,81972,1,8,0:0:0:0:
113,117,82143,1,0,0:0:0:0:
354,105,82315,2,0,L|485:97,1,107.999996704102,0|0,0:0|3:0,0:0:0:0:
252,304,82657,1,8,0:0:0:0:
232,65,82829,1,0,0:0:0:0:
386,251,83000,5,2,3:2:0:0:
115,220,83172,1,0,0:0:0:0:
115,220,83257,1,0,0:0:0:0:
115,220,83343,2,0,P|100:166|124:99,1,107.999996704102,8|0,0:0|0:0,0:0:0:0:
235,71,83600,1,8,0:0:0:0:
235,71,83686,2,0,L|228:156,1,53.9999983520508,0|0,3:0|0:0,0:0:0:0:
207,320,83857,5,0,3:0:0:0:
341,169,84029,1,8,0:0:0:0:
413,368,84200,1,0,3:0:0:0:
224,223,84372,6,0,B|141:207|141:207|60:270,1,161.999995056153,0|0,3:0|0:0,0:0:0:0:
30,314,84715,2,0,P|3:267|22:207,1,107.999996704102,8|0,0:0|0:0,0:0:0:0:
14,216,84972,1,0,0:0:0:0:
14,216,85057,1,0,0:0:0:0:
135,128,85229,1,0,3:0:0:0:
247,339,85400,2,0,L|370:331,1,107.999996704102,8|0,0:0|0:0,0:0:0:0:
455,138,85743,6,0,B|368:112|395:192|270:144,1,161.999995056153,0|0,3:0|0:0,0:0:0:0:
241,97,86086,2,0,P|220:146|232:198,1,107.999996704102,8|0,0:0|0:0,0:0:0:0:
231,197,86343,1,0,0:0:0:0:
231,197,86429,1,0,0:0:0:0:
338,378,86600,1,0,3:0:0:0:
395,192,86772,1,8,0:0:0:0:
232,313,86943,1,0,0:0:0:0:
429,289,87115,5,0,3:0:0:0:
169,183,87286,1,0,3:0:0:0:
450,156,87457,1,0,3:0:0:0:
169,303,87629,1,0,3:0:0:0:
473,294,87800,5,0,3:0:0:0:
156,120,87972,1,0,3:0:0:0:
452,104,88143,1,0,3:0:0:0:
152,327,88315,1,0,3:0:0:0:
323,352,88486,5,0,3:0:0:0:
336,322,88572,1,0,3:0:0:0:
338,289,88657,1,0,3:0:0:0:
323,259,88743,1,0,3:0:0:0:
310,229,88829,1,0,3:0:0:0:
301,197,88915,1,0,3:0:0:0:
308,165,89000,1,0,3:0:0:0:
326,138,89086,1,0,3:0:0:0:
355,124,89172,6,0,L|434:119,1,53.9999983520508,0|0,3:0|3:0,0:0:0:0:
228,297,89343,2,0,L|152:306,1,53.9999983520508,0|0,3:0|3:0,0:0:0:0:
121,104,89515,5,8,0:0:0:0:
423,268,89686,1,0,3:0:0:0:
130,376,89857,6,0,P|92:314|166:214,1,161.999995056153,6|0,3:2|0:0,0:0:0:0:
150,220,90200,2,0,L|289:206,1,107.999996704102,8|0,0:0|0:0,0:0:0:0:
319,62,90457,2,0,B|303:115|303:115|350:192,1,107.999996704102,0|0,3:0|0:0,0:0:0:0:
423,268,90715,2,0,L|428:184,1,53.9999983520508,0|0,3:0|0:0,0:0:0:0:
339,326,90886,1,8,0:0:0:0:
339,326,90972,2,0,P|281:338|223:306,1,107.999996704102,0|0,3:0|0:0,0:0:0:0:
135,241,91229,5,2,3:2:0:0:
43,356,91400,1,0,0:0:0:0:
43,356,91486,1,0,0:0:0:0:
43,356,91572,2,0,P|36:282|28:209,1,107.999996704102,8|0,0:0|0:0,0:0:0:0:
129,151,91829,2,0,B|75:171|75:171|15:149,1,107.999996704102,0|0,3:0|0:0,0:0:0:0:
73,84,92086,2,0,L|68:24,1,53.9999983520508,0|0,3:0|0:0,0:0:0:0:
201,118,92257,1,8,0:0:0:0:
201,118,92343,2,0,P|253:105|329:138,1,107.999996704102,0|0,3:0|0:0,0:0:0:0:
253,202,92600,6,0,B|229:277|229:277|266:354,1,161.999995056153,2|0,3:2|0:0,0:0:0:0:
354,288,92943,2,0,P|360:225|367:163,1,107.999996704102,8|0,0:0|0:0,0:0:0:0:
304,94,93200,2,0,B|252:109|252:109|196:88,1,107.999996704102,0|0,3:0|0:0,0:0:0:0:
117,138,93457,2,0,L|190:166,1,53.9999983520508,0|0,3:0|0:0,0:0:0:0:
159,339,93629,1,8,0:0:0:0:
159,339,93715,2,0,P|139:281|171:221,1,107.999996704102,0|0,3:0|0:0,0:0:0:0:
239,287,93972,5,2,3:2:0:0:
53,213,94143,1,0,0:0:0:0:
53,213,94229,1,0,0:0:0:0:
53,213,94315,2,0,P|48:133|41:71,1,107.999996704102,8|0,0:0|0:0,0:0:0:0:
128,37,94572,1,8,0:0:0:0:
128,37,94657,2,0,L|211:43,1,53.9999983520508
309,137,94829,1,0,3:0:0:0:
170,301,95000,1,8,0:0:0:0:
170,301,95086,2,0,P|164:241|159:188,1,107.999996704102,0|0,3:0|0:0,0:0:0:0:
204,119,95343,6,0,B|273:92|293:159|383:112,1,161.999995056153,2|0,3:2|0:0,0:0:0:0:
446,137,95686,2,0,P|438:84|400:47,1,107.999996704102,8|0,0:0|0:0,0:0:0:0:
395,211,95943,2,0,P|444:231|495:216,1,107.999996704102,0|0,3:0|0:0,0:0:0:0:
362,121,96200,2,0,L|294:117,1,53.9999983520508,0|0,3:0|0:0,0:0:0:0:
252,206,96372,1,8,0:0:0:0:
252,206,96457,2,0,B|268:263|268:263|227:338,1,107.999996704102,0|0,3:0|0:0,0:0:0:0:
162,233,96715,5,2,3:2:0:0:
327,347,96886,1,0,0:0:0:0:
327,347,96972,1,0,0:0:0:0:
327,347,97057,2,0,P|392:340|485:331,1,107.999996704102,8|0,0:0|0:0,0:0:0:0:
372,147,97315,2,0,P|361:205|407:271,1,107.999996704102,0|0,3:0|0:0,0:0:0:0:
457,190,97572,2,0,L|471:108,1,53.9999983520508,0|0,3:0|0:0,0:0:0:0:
333,64,97743,1,8,0:0:0:0:
333,64,97829,2,0,B|276:82|276:82|187:43,1,107.999996704102,0|0,3:0|0:0,0:0:0:0:
139,131,98086,6,0,P|206:144|248:257,1,161.999995056153,2|0,3:2|0:0,0:0:0:0:
155,227,98429,6,0,L|23:219,1,107.999996704102,8|0,0:0|0:0,0:0:0:0:
11,325,98686,2,0,B|67:308|67:308|128:337,1,107.999996704102,0|0,3:0|0:0,0:0:0:0:
204,367,98943,2,0,P|195:326|205:286,1,53.9999983520508,0|0,3:0|0:0,0:0:0:0:
387,333,99114,1,8,0:0:0:0:
387,333,99200,2,0,L|271:327,1,107.999996704102,0|0,3:0|0:0,0:0:0:0:
480,350,99457,5,2,3:2:0:0:
309,222,99629,1,0,0:0:0:0:
309,222,99715,1,0,0:0:0:0:
309,222,99800,2,0,P|303:162|295:98,1,107.999996704102,8|0,0:0|0:0,0:0:0:0:
441,43,100057,1,8,0:0:0:0:
441,43,100143,2,0,L|434:134,1,53.9999983520508
426,244,100315,1,0,3:0:0:0:
269,34,100486,1,8,0:0:0:0:
269,34,100572,2,0,P|311:31|372:76,1,107.999996704102,0|0,3:0|0:0,0:0:0:0:
297,114,100829,6,0,B|236:103|236:103|196:120|196:120|107:104,1,161.999995056153,6|0,3:2|0:0,0:0:0:0:
73,152,101172,2,0,P|61:91|104:32,1,107.999996704102,8|0,0:0|0:0,0:0:0:0:
148,187,101429,2,0,P|101:227|28:220,1,107.999996704102,0|0,3:0|0:0,0:0:0:0:
140,109,101686,2,0,L|216:125,1,53.9999983520508,0|0,3:0|0:0,0:0:0:0:
241,284,101857,1,8,0:0:0:0:
241,284,101943,2,0,B|223:228|223:228|258:167,1,107.999996704102,0|0,3:0|0:0,0:0:0:0:
328,244,102200,5,2,3:2:0:0:
191,351,102372,1,0,0:0:0:0:
191,351,102457,1,0,0:0:0:0:
191,351,102543,2,0,L|53:343,1,107.999996704102,8|0,0:0|0:0,0:0:0:0:
12,235,102800,2,0,P|73:245|131:190,1,107.999996704102,0|0,3:0|0:0,0:0:0:0:
46,111,103057,2,0,L|52:165,1,53.9999983520508,0|0,3:0|0:0,0:0:0:0:
151,45,103229,1,8,0:0:0:0:
151,45,103315,2,0,B|201:62|201:62|278:35,1,107.999996704102,0|0,3:0|0:0,0:0:0:0:
351,120,103572,6,0,P|270:122|223:218,1,161.999995056153,2|0,3:2|0:0,0:0:0:0:
315,209,103915,2,0,L|327:347,1,107.999996704102,8|0,0:0|0:0,0:0:0:0:
450,229,104172,2,0,L|459:121,1,107.999996704102,0|0,3:0|0:0,0:0:0:0:
414,305,104429,2,0,P|447:313|483:302,1,53.9999983520508,0|0,3:0|0:0,0:0:0:0:
327,324,104600,1,8,0:0:0:0:
327,324,104686,2,0,B|272:308|272:308|196:341,1,107.999996704102,0|0,3:0|0:0,0:0:0:0:
68,306,104943,5,2,3:2:0:0:
272,208,105115,1,0,0:0:0:0:
272,208,105200,1,0,0:0:0:0:
272,208,105286,2,0,L|147:196,1,107.999996704102,8|0,0:0|0:0,0:0:0:0:
46,98,105543,1,8,0:0:0:0:
46,98,105629,2,0,L|55:180,1,53.9999983520508
68,306,105800,1,0,3:0:0:0:
171,203,105972,1,8,0:0:0:0:
171,203,106057,2,0,P|178:139|190:78,1,107.999996704102,0|0,3:0|0:0,0:0:0:0:
336,30,106315,6,0,P|353:109|390:237,1,161.999995056153,2|0,3:2|0:0,0:0:0:0:
333,251,106657,2,0,P|391:265|448:211,1,107.999996704102,8|0,0:0|0:0,0:0:0:0:
227,274,106915,2,0,P|185:317|204:393,1,107.999996704102,0|0,3:0|0:0,0:0:0:0:
264,189,107172,2,0,L|249:118,1,53.9999983520508,0|0,3:0|0:0,0:0:0:0:
127,50,107343,1,8,0:0:0:0:
127,50,107429,2,0,B|181:65|181:65|256:32,1,107.999996704102,0|0,3:0|0:0,0:0:0:0:
371,144,107686,5,2,3:2:0:0:
174,170,107857,1,0,0:0:0:0:
174,170,107943,1,0,0:0:0:0:
174,170,108029,2,0,P|102:155|28:141,1,107.999996704102,8|0,0:0|0:0,0:0:0:0:
104,333,108286,2,0,P|134:271|97:202,1,107.999996704102,0|0,3:0|0:0,0:0:0:0:
53,268,108543,2,0,L|-8:257,1,53.9999983520508,0|0,3:0|0:0,0:0:0:0:
204,345,108715,1,8,0:0:0:0:
204,345,108800,2,0,L|361:324,1,107.999996704102,0|0,3:0|0:0,0:0:0:0:
389,359,109057,6,0,P|377:282|307:250,1,161.999995056153,2|0,3:2|0:0,0:0:0:0:
120,228,109400,2,0,P|175:256|236:241,1,107.999996704102,8|0,0:0|0:0,0:0:0:0:
344,92,109657,2,0,P|292:125|274:185,1,107.999996704102,0|0,3:0|0:0,0:0:0:0:
318,301,109915,2,0,P|310:255|277:221,1,53.9999983520508,0|0,3:0|0:0,0:0:0:0:
170,71,110086,1,8,0:0:0:0:
170,71,110172,2,0,L|185:200,1,107.999996704102,0|0,3:0|0:0,0:0:0:0:
202,352,110429,5,2,3:2:0:0:
369,187,110600,1,0,0:0:0:0:
369,187,110686,1,0,0:0:0:0:
369,187,110772,2,0,B|424:175|424:175|505:212,1,107.999996704102,8|0,0:0|0:0,0:0:0:0:
330,277,111029,1,8,0:0:0:0:
330,277,111115,2,0,L|256:269,1,53.9999983520508
145,164,111286,1,0,3:0:0:0:
261,53,111457,2,0,L|252:134,1,53.9999983520508,8|0,0:0|3:0,0:0:0:0:
85,295,111629,2,0,L|77:200,1,53.9999983520508,0|0,0:0|0:0,0:0:0:0:
48,52,111800,5,6,2:0:0:0:
