osu file format v14

[General]
AudioFilename: audio.mp3
AudioLeadIn: 0
PreviewTime: 67764
Countdown: 0
SampleSet: Normal
StackLeniency: 0.4
Mode: 0
LetterboxInBreaks: 0
WidescreenStoryboard: 1

[Editor]
Bookmarks: 23964
DistanceSpacing: 1.5
BeatDivisor: 4
GridSize: 32
TimelineZoom: 3

[Metadata]
Title:Outbreak (feat. MYLK)
TitleUnicode:Outbreak (feat. MYLK)
Artist:Feint
ArtistUnicode:Feint
Creator:Reform
Version:Stingy's Hard
Source:Rocket League
Tags:kujinn kergio _orange stingy monstercat monster cat drum and n bass dnb electro dubstep
BeatmapID:1469644
BeatmapSetID:672530

[Difficulty]
HPDrainRate:5
CircleSize:3.5
OverallDifficulty:6
ApproachRate:8
SliderMultiplier:1.5
SliderTickRate:1

[Events]
//Background and Video events
0,0,"BG.JPG",0,0
//Break Periods
2,46172,53375
//Storyboard Layer 0 (Background)
//Storyboard Layer 1 (Fail)
//Storyboard Layer 2 (Pass)
//Storyboard Layer 3 (Foreground)
//Storyboard Sound Samples

[TimingPoints]
715,342.857142857143,4,2,1,30,1,0
13057,-133.333333333333,4,2,1,30,0,0
24029,-125,4,2,1,40,0,0
35000,-125,4,2,1,25,0,0
37743,-125,4,2,1,30,0,0
40486,-125,4,2,1,35,0,0
43229,-125,4,2,1,45,0,0
45972,-125,4,2,1,60,0,0
56943,-111.111111111111,4,2,1,75,0,0
62429,-105.263157894737,4,2,1,75,0,0
67915,-100,4,1,1,85,0,1
84372,-100,4,1,1,85,0,0
89857,-90.9090909090909,4,1,1,85,0,1
111800,-133.333333333333,4,1,1,85,0,0

[Colours]
Combo1 : 60,78,81
Combo2 : 132,217,191
Combo3 : 36,169,213
Combo4 : 205,54,54

[HitObjects]
192,192,13057,6,0,P|128:192|80:176,1,112.500004291535,2|0,0:0|0:0,0:0:0:0:
256,128,13743,2,0,P|256:64|272:16,1,112.500004291535,2|2,0:0|0:0,0:0:0:0:
320,192,14429,2,0,P|384:192|432:208,1,112.500004291535,0|0,0:0|0:0,0:0:0:0:
256,256,15115,2,0,P|256:320|240:368,1,112.500004291535,2|2,0:0|0:0,0:0:0:0:
320,192,15800,6,0,L|432:176,1,112.500004291535,0|0,0:0|0:0,0:0:0:0:
256,128,16486,2,0,L|240:16,1,112.500004291535,2|2,0:0|0:0,0:0:0:0:
192,192,17172,2,0,L|80:208,1,112.500004291535,0|0,0:0|0:0,0:0:0:0:
256,256,17857,2,0,L|272:368,1,112.500004291535,2|2,0:0|0:0,0:0:0:0:
320,192,18543,5,0,0:0:0:0:
256,128,18886,1,0,0:0:0:0:
192,192,19229,1,2,0:0:0:0:
256,256,19572,1,2,0:0:0:0:
304,144,19915,5,0,0:0:0:0:
208,144,20257,1,0,0:0:0:0:
208,240,20600,1,2,0:0:0:0:
304,240,20943,1,2,0:0:0:0:
256,128,21286,6,0,L|240:16,1,112.500004291535
192,192,21972,2,0,L|80:208,1,112.500004291535,2|2,0:0|0:0,0:0:0:0:
256,256,22658,2,0,L|272:368,1,112.500004291535,0|0,0:0|0:0,0:0:0:0:
320,192,23343,2,0,L|432:176,1,112.500004291535,2|2,0:0|0:0,0:0:0:0:
399,90,24029,6,0,P|435:93|468:87,2,60,4|0|2,3:2|0:0|0:0,0:0:0:0:
313,63,24543,2,0,P|223:43|117:69,1,180,0|2,0:0|0:0,0:0:0:0:
66,112,25229,1,0,0:0:0:0:
25,191,25400,1,0,0:0:0:0:
25,191,25572,2,0,L|17:254,1,60,0|2,0:0|0:0,0:0:0:0:
67,326,25915,2,0,L|130:318,1,60
170,239,26257,2,0,L|107:231,1,60,0|2,0:0|0:0,0:0:0:0:
234,169,26600,6,0,P|264:233|239:342,1,180,0|2,0:0|0:0,0:0:0:0:
243,336,27457,2,0,P|264:326|370:316,1,120,0|2,0:0|0:0,0:0:0:0:
359,314,28143,2,0,P|349:293|339:187,1,120,0|2,0:0|0:0,0:0:0:0:
338,198,28829,2,0,P|344:166|355:134,2,60,0|0|2,0:0|0:0|0:0,0:0:0:0:
265,251,29343,1,0,0:0:0:0:
265,251,29515,6,0,B|234:259|234:259|143:252,1,120,0|2,0:0|0:0,0:0:0:0:
147,252,30200,2,0,B|155:221|155:221|148:130,1,120,0|2,0:0|0:0,0:0:0:0:
143,42,30715,1,0,0:0:0:0:
226,77,30886,1,0,0:0:0:0:
226,77,31057,2,0,L|233:140,1,60,0|2,0:0|0:0,0:0:0:0:
190,215,31400,2,0,L|197:278,1,60
260,339,31743,1,0,0:0:0:0:
161,356,31915,1,2,0:0:0:0:
161,356,32086,5,0,0:0:0:0:
342,299,32600,2,0,P|344:272|389:166,2,120,2|0|2,0:0|0:0|0:0,0:0:0:0:
342,299,33629,2,0,P|315:301|209:346,1,120,0|2,0:0|0:0,0:0:0:0:
229,332,34315,2,0,P|175:307|116:298,1,120,0|2,0:0|0:0,0:0:0:0:
116,298,35000,6,0,L|107:171,2,120,0|2|0,3:0|3:0|0:0,0:0:0:0:
200,262,35857,2,0,L|195:188,2,60,0|2|0,3:0|3:0|0:0,0:0:0:0:
283,225,36372,1,0,3:0:0:0:
283,225,36543,2,0,L|289:298,1,60,0|2,0:0|3:0,0:0:0:0:
376,302,36886,2,0,L|371:228,1,60,0|0,0:0|3:0,0:0:0:0:
460,264,37229,2,0,L|455:190,1,60,0|2,3:0|3:0,0:0:0:0:
395,138,37572,1,0,0:0:0:0:
395,138,37743,6,0,P|361:106|217:115,2,180,0|0|2,3:0|0:0|3:0,0:0:0:0:
435,219,38943,1,0,0:0:0:0:
392,298,39115,1,0,3:0:0:0:
392,298,39286,2,0,L|317:292,1,60,0|2,0:0|3:0,0:0:0:0:
249,260,39629,2,0,L|174:266,1,60,0|0,0:0|3:0,0:0:0:0:
111,220,39972,2,0,L|117:145,1,60,0|2,3:0|3:0,0:0:0:0:
69,83,40315,1,0,0:0:0:0:
69,83,40486,6,0,P|148:76|206:153,1,180,0|2,0:0|3:0,0:0:0:0:
282,240,41172,2,0,P|292:196|305:172,1,60,0|0,0:0|3:0,0:0:0:0:
365,121,41515,1,2,3:0:0:0:
388,119,41600,1,0,3:0:0:0:
507,198,41857,1,0,0:0:0:0:
507,198,42029,2,0,L|435:202,1,60,0|2,0:0|3:0,0:0:0:0:
374,256,42372,2,0,L|302:251,2,60,0|0|0,0:0|0:0|3:0,0:0:0:0:
442,306,42886,1,2,3:0:0:0:
448,328,42972,1,0,3:0:0:0:
324,348,43229,6,0,P|280:334|193:359,1,120,0|2,3:0|3:0,0:0:0:0:
91,304,43829,1,0,3:0:0:0:
104,283,43915,2,0,P|116:235|117:212,1,60,0|0,0:0|3:0,0:0:0:0:
94,138,44257,1,2,3:0:0:0:
74,144,44343,1,0,0:0:0:0:
196,181,44600,5,0,0:0:0:0:
195,261,44772,2,0,P|252:238|276:181,1,120
249,106,45286,5,2,0:0:0:0:
358,155,45457,1,0,0:0:0:0:
348,264,45629,1,2,0:0:0:0:
276,187,45800,1,0,0:0:0:0:
368,73,45972,5,4,3:2:0:0:
256,192,54200,12,4,56600,0:0:0:0:
49,122,56943,6,0,L|61:266,1,134.999995880127,4|2,3:2|0:3,0:0:0:0:
169,331,57543,1,0,3:0:0:0:
169,331,57629,2,0,L|177:231,1,67.4999979400635,0|0,0:0|3:0,0:0:0:0:
255,230,57972,2,0,L|399:242,1,134.999995880127,2|0,0:3|3:0,0:0:0:0:
472,211,58486,1,0,0:0:0:0:
510,132,58657,2,0,L|501:28,1,101.249996910095,2|0,0:3|3:0,0:0:0:0:
464,6,59000,2,0,P|463:48|452:84,1,67.4999979400635,0|0,0:0|3:0,0:0:0:0:
406,144,59343,1,2,0:3:0:0:
406,144,59429,1,0,3:0:0:0:
287,202,59686,6,0,B|249:192|249:192|143:203,1,134.999995880127,0|2,3:0|0:3,0:0:0:0:
75,308,60286,1,0,3:0:0:0:
75,308,60372,2,0,L|144:302,1,67.4999979400635,0|0,0:0|3:0,0:0:0:0:
226,326,60715,2,0,B|264:336|264:336|370:325,1,134.999995880127,2|0,0:3|3:0,0:0:0:0:
455,324,61229,1,0,0:0:0:0:
455,324,61315,1,0,0:0:0:0:
455,324,61400,2,0,L|459:255,1,67.4999979400635,2|0,0:3|0:0,0:0:0:0:
512,187,61743,2,0,L|508:118,1,67.4999979400635,0|0,0:0|3:0,0:0:0:0:
507,31,62086,1,2,0:3:0:0:
507,31,62172,1,0,3:0:0:0:
359,6,62429,6,0,P|373:49|360:159,1,142.49999619484,4|2,3:2|0:3,0:0:0:0:
298,218,62943,1,0,0:0:0:0:
199,235,63115,2,0,P|154:228|125:208,2,71.2499980974198,0|0|2,0:0|3:0|0:3,0:0:0:0:
386,302,63800,2,0,P|400:259|387:149,1,142.49999619484,0|2,3:0|0:3,0:0:0:0:
325,90,64314,1,0,0:0:0:0:
226,73,64486,2,0,P|181:80|152:100,2,71.2499980974198,0|0|2,0:0|3:0|0:3,0:0:0:0:
325,90,65000,1,0,0:0:0:0:
224,172,65172,5,0,3:0:0:0:
256,192,65257,12,12,67572,0:0:0:0:
12,12,67915,6,0,P|68:-6|154:30,1,150,4|8,3:2|0:0,0:0:0:0:
187,107,68429,1,2,0:3:0:0:
192,196,68600,2,0,L|180:298,1,75,0|0,0:0|3:0,0:0:0:0:
251,329,68943,6,0,P|307:347|393:311,2,150,8|0|8,0:0|3:0|0:0,0:0:0:0:
183,270,69800,1,2,0:3:0:0:
146,187,69972,2,0,L|134:85,1,75,0|0,0:0|3:0,0:0:0:0:
227,118,70315,2,0,L|239:220,1,75,8|2,0:0|0:3,0:0:0:0:
183,270,70657,6,0,P|239:285|325:229,1,150,0|8,3:0|0:0,0:0:0:0:
353,160,71172,1,2,0:3:0:0:
373,72,71343,2,0,L|271:84,1,75,0|0,0:0|3:0,0:0:0:0:
228,23,71686,1,8,0:0:0:0:
173,94,71857,1,2,0:3:0:0:
243,150,72029,5,0,3:0:0:0:
306,88,72200,1,0,0:0:0:0:
306,88,72286,1,0,0:0:0:0:
306,88,72372,2,0,L|423:73,1,112.5,8|8,0:0|0:0,0:0:0:0:
459,88,72715,2,0,P|472:149|470:188,1,75,0|0,3:0|3:0,0:0:0:0:
451,250,73057,1,8,0:0:0:0:
398,323,73229,1,0,3:0:0:0:
313,352,73400,6,0,L|154:331,1,150,0|8,3:0|0:0,0:0:0:0:
123,251,73915,1,2,0:3:0:0:
170,174,74086,2,0,L|272:186,1,75,0|0,0:0|3:0,0:0:0:0:
327,147,74429,6,0,P|356:83|310:-1,2,150,8|0|8,0:0|3:0|0:0,0:0:0:0:
244,182,75286,1,2,0:3:0:0:
154,173,75457,2,0,L|52:161,1,75,0|0,0:0|3:0,0:0:0:0:
132,91,75800,2,0,L|234:103,1,75,8|2,0:0|0:3,0:0:0:0:
244,182,76143,6,0,P|273:246|227:330,1,150,0|8,3:0|0:0,0:0:0:0:
183,249,76657,1,2,0:3:0:0:
116,309,76829,2,0,L|14:321,1,75,0|0,0:0|3:0,0:0:0:0:
2,236,77172,1,8,0:0:0:0:
46,157,77343,1,2,0:3:0:0:
129,190,77515,5,0,3:0:0:0:
173,111,77686,1,0,0:0:0:0:
173,111,77772,1,0,0:0:0:0:
173,111,77857,2,0,P|237:140|308:116,1,112.5,8|8,0:0|0:0,0:0:0:0:
317,113,78200,2,0,P|366:107|399:116,1,75,0|0,3:0|3:0,0:0:0:0:
469,155,78543,1,8,0:0:0:0:
497,240,78715,1,0,3:0:0:0:
461,322,78886,6,0,B|426:355|426:355|308:352,1,150,4|8,3:2|0:0,0:0:0:0:
262,286,79400,1,2,0:3:0:0:
192,228,79572,2,0,P|143:222|110:231,1,75,0|0,0:0|3:0,0:0:0:0:
34,261,79915,6,0,P|29:213|98:142,2,150,8|0|8,0:0|3:0|0:0,0:0:0:0:
93,329,80772,1,2,0:3:0:0:
172,371,80943,2,0,P|221:377|254:368,1,75,0|0,0:0|3:0,0:0:0:0:
325,329,81286,2,0,P|374:323|407:332,1,75,8|2,0:0|0:3,0:0:0:0:
484,356,81629,6,0,L|499:202,1,150,0|8,3:0|0:0,0:0:0:0:
450,130,82143,1,2,0:3:0:0:
398,55,82315,2,0,P|349:61|316:52,1,75,0|0,0:0|3:0,0:0:0:0:
248,6,82657,1,8,0:0:0:0:
174,57,82829,1,2,0:3:0:0:
248,106,83000,5,0,3:0:0:0:
174,157,83172,1,0,0:0:0:0:
174,157,83257,1,0,0:0:0:0:
174,157,83343,2,0,L|188:271,1,112.5,8|8,0:0|0:0,0:0:0:0:
216,303,83686,2,0,P|265:297|298:306,1,75,0|0,3:0|3:0,0:0:0:0:
368,346,84029,1,8,0:0:0:0:
425,277,84200,1,0,3:0:0:0:
507,239,84372,6,0,L|499:79,1,150,0|8,3:0|0:0,0:0:0:0:
438,23,84886,1,0,0:0:0:0:
366,78,85058,2,0,L|361:174,2,75,0|0|8,0:0|3:0|0:0,0:0:0:0:
190,117,85743,2,0,L|182:276,1,150,0|8,3:0|0:0,0:0:0:0:
121,333,86257,1,0,0:0:0:0:
49,278,86429,2,0,L|44:181,2,75,0|0|8,0:0|3:0|0:0,0:0:0:0:
121,333,86943,1,0,0:0:0:0:
182,266,87115,6,0,P|222:244|269:243,1,75,0|0,3:0|3:0,0:0:0:0:
325,315,87457,2,0,P|285:337|238:338,1,75,0|0,3:0|3:0,0:0:0:0:
399,240,87800,2,0,P|421:277|429:326,1,75,0|0,3:0|3:0,0:0:0:0:
325,166,88143,2,0,P|303:129|295:80,1,75,0|0,3:0|3:0,0:0:0:0:
295,0,88486,6,0,L|338:0,3,37.5,0|0|0|0,3:0|3:0|3:0|3:0,0:0:0:0:
223,49,88829,2,0,L|180:49,3,37.5,0|0|0|0,3:0|3:0|3:0|3:0,0:0:0:0:
295,98,89172,2,0,L|381:98,1,75,0|0,3:0|3:0,0:0:0:0:
214,163,89515,2,0,L|128:163,1,75,8|0,3:2|3:0,0:0:0:0:
109,64,89857,6,0,B|173:64|173:64|205:80|205:80|285:80,1,165.000005035401,4|8,3:2|0:0,0:0:0:0:
386,151,90457,2,0,P|454:139|511:158,2,123.75000377655,0|0|0,3:0|3:0|3:0,0:0:0:0:
276,232,91229,2,0,P|208:244|161:228,1,82.5000025177003,0|2,3:0|0:3,0:0:0:0:
195,241,91486,1,0,0:0:0:0:
195,241,91572,1,8,0:0:0:0:
118,353,91829,2,0,P|50:341|-7:360,2,123.75000377655,0|0|0,3:0|3:0|3:0,0:0:0:0:
195,241,92600,6,0,B|219:202|219:202|206:75,1,165.000005035401,0|8,3:0|0:0,0:0:0:0:
327,147,93200,2,0,L|314:275,2,123.75000377655,0|0|0,3:0|3:0|3:0,0:0:0:0:
341,11,93972,2,0,P|409:-1|456:15,1,82.5000025177003,0|2,3:0|0:3,0:0:0:0:
463,18,94229,1,0,0:0:0:0:
494,50,94315,2,0,L|481:178,1,123.75000377655,8|8,0:0|0:0,0:0:0:0:
493,216,94657,2,0,P|480:258|478:304,1,82.5000025177003,0|0,3:0|3:0,0:0:0:0:
356,246,95000,2,0,L|349:182,2,41.2500012588501,8|0|0,0:0|3:0|0:0,0:0:0:0:
222,256,95343,6,0,P|166:272|43:249,1,165.000005035401,0|8,3:0|0:0,0:0:0:0:
141,146,95943,2,0,B|141:18,2,123.75000377655,0|0|0,3:0|3:0|3:0,0:0:0:0:
223,256,96715,2,0,L|223:361,1,82.5000025177003,0|2,3:0|0:3,0:0:0:0:
223,338,96972,1,0,0:0:0:0:
223,338,97057,1,8,0:0:0:0:
332,256,97315,2,0,B|332:128,2,123.75000377655,0|0|0,3:0|3:0|3:0,0:0:0:0:
452,318,98086,6,0,P|434:262|468:162,1,165.000005035401,0|8,3:0|0:0,0:0:0:0:
332,132,98686,2,0,P|273:151|206:124,2,123.75000377655,0|0|0,3:0|3:0|3:0,0:0:0:0:
459,81,99457,2,0,L|466:176,1,82.5000025177003,0|2,3:0|0:3,0:0:0:0:
454,208,99715,1,0,0:0:0:0:
440,250,99800,2,0,P|381:231|314:258,1,123.75000377655,8|8,0:0|0:0,0:0:0:0:
286,274,100143,2,0,L|191:267,1,82.5000025177003,0|2,3:0|3:0,0:0:0:0:
94,305,100486,2,0,L|99:354,2,41.2500012588501,8|0|2,0:0|3:0|3:0,0:0:0:0:
18,229,100829,6,0,B|42:190|42:190|29:63,1,165.000005035401,4|8,3:2|0:0,0:0:0:0:
154,16,101429,2,0,L|141:144,2,123.75000377655,0|0|0,3:0|3:0|3:0,0:0:0:0:
257,104,102200,2,0,P|308:119|341:115,1,82.5000025177003,0|2,3:0|0:3,0:0:0:0:
379,101,102457,1,0,0:0:0:0:
417,75,102543,2,0,L|430:203,1,123.75000377655,8|0,0:0|3:0,0:0:0:0:
500,314,103057,2,0,L|513:186,1,123.75000377655,0|0,3:0|3:0,0:0:0:0:
506,54,103572,6,0,P|451:-3|368:2,1,165.000005035401,0|8,3:0|0:0,0:0:0:0:
276,100,104172,2,0,L|289:228,2,123.75000377655,0|0|0,3:0|3:0|3:0,0:0:0:0:
157,33,104943,2,0,P|106:18|73:22,1,82.5000025177003,0|2,3:0|0:3,0:0:0:0:
33,31,105200,1,0,0:0:0:0:
9,70,105286,2,0,B|30:107|30:107|24:198,1,123.75000377655,8|8,0:0|0:0,0:0:0:0:
47,227,105629,2,0,P|98:242|131:238,1,82.5000025177003,0|0,3:0|3:0,0:0:0:0:
247,197,105972,2,0,L|241:144,2,41.2500012588501,8|0|0,0:0|3:0|0:0,0:0:0:0:
372,214,106315,6,0,B|400:240|400:240|493:240|493:240|523:208,1,165.000005035401,0|8,3:0|0:0,0:0:0:0:
431,33,106915,2,0,L|448:182,2,123.75000377655,0|0|0,3:0|3:0|3:0,0:0:0:0:
294,68,107686,2,0,L|206:58,1,82.5000025177003,0|2,3:0|0:3,0:0:0:0:
169,75,107943,1,0,0:0:0:0:
126,91,108029,2,0,P|64:88|10:126,1,123.75000377655,8|0,0:0|3:0,0:0:0:0:
103,224,108543,2,0,P|165:227|219:189,1,123.75000377655,0|0,3:0|3:0,0:0:0:0:
294,68,109057,6,0,B|319:41|319:41|311:179,1,165.000005035401,0|8,3:0|0:0,0:0:0:0:
410,264,109657,2,0,L|418:129,2,123.75000377655,0|0|0,3:0|3:0|3:0,0:0:0:0:
306,351,110429,2,0,P|255:366|222:362,1,82.5000025177003,0|2,3:0|0:3,0:0:0:0:
182,353,110686,1,0,0:0:0:0:
158,314,110772,2,0,B|179:277|179:277|173:186,1,123.75000377655,8|8,0:0|0:0,0:0:0:0:
170,151,111115,2,0,P|119:136|86:140,1,82.5000025177003,0|2,3:0|3:0,0:0:0:0:
7,169,111457,1,8,0:0:0:0:
7,169,111543,1,0,3:0:0:0:
7,169,111629,1,2,0:3:0:0:
24,51,111800,5,4,3:2:0:0:
