osu file format v14

[General]
AudioFilename: audio.mp3
AudioLeadIn: 0
PreviewTime: 67764
Countdown: 0
SampleSet: Normal
StackLeniency: 0.6
Mode: 0
LetterboxInBreaks: 0
WidescreenStoryboard: 1

[Editor]
Bookmarks: 34935,56878,89792,111735
DistanceSpacing: 1.5
BeatDivisor: 4
GridSize: 4
TimelineZoom: 2.2

[Metadata]
Title:Outbreak (feat. MYLK)
TitleUnicode:Outbreak (feat. MYLK)
Artist:Feint
ArtistUnicode:Feint
Creator:Reform
Version:Kergio's Insane
Source:Rocket League
Tags:kujinn kergio _orange stingy monstercat monster cat drum and n bass dnb electro dubstep
BeatmapID:1434114
BeatmapSetID:672530

[Difficulty]
HPDrainRate:6
CircleSize:4.2
OverallDifficulty:7.8
ApproachRate:9
SliderMultiplier:1.7
SliderTickRate:1

[Events]
//Background and Video events
0,0,"BG.JPG",0,0
//Break Periods
//Storyboard Layer 0 (Background)
//Storyboard Layer 1 (Fail)
//Storyboard Layer 2 (Pass)
//Storyboard Layer 3 (Foreground)
//Storyboard Sound Samples

[TimingPoints]
715,342.857142857143,4,2,1,48,1,0
13057,-200,4,2,1,30,0,0
24029,-133.333333333333,4,2,1,40,0,0
35000,-133.333333333333,4,2,1,25,0,0
37743,-133.333333333333,4,2,1,30,0,0
40486,-133.333333333333,4,2,1,35,0,0
43229,-133.333333333333,4,2,1,45,0,0
45972,-100,4,2,1,60,0,0
56943,-100,4,2,1,75,0,0
67915,-83.3333333333333,4,1,1,85,0,1
68257,-90.9090909090909,4,1,1,85,0,1
78886,-83.3333333333333,4,1,1,85,0,1
79229,-90.9090909090909,4,1,1,85,0,1
87115,-90.9090909090909,4,1,1,85,0,0
89857,-71.4285714285714,4,1,1,85,0,1
90200,-83.3333333333333,4,1,1,85,0,1
111800,-83.3333333333333,4,1,1,85,0,0

[Colours]
Combo1 : 60,78,81
Combo2 : 132,217,191
Combo3 : 36,169,213
Combo4 : 205,54,54

[HitObjects]
132,208,13057,6,0,L|128:112,1,85,2|0,0:0|0:0,0:0:0:0:
247,245,13743,1,0,0:0:0:0:
247,245,14086,2,0,P|291:253|335:245,1,85,2|0,0:0|0:0,0:0:0:0:
430,167,14772,5,0,0:0:0:0:
285,78,15115,1,0,0:0:0:0:
285,78,15457,2,0,L|289:174,1,85,2|0,0:0|0:0,0:0:0:0:
365,265,16143,5,0,0:0:0:0:
223,358,16486,1,0,0:0:0:0:
223,358,16829,2,0,P|215:318|227:266,1,85,2|0,0:0|0:0,0:0:0:0:
288,162,17515,5,0,0:0:0:0:
392,295,17857,1,0,0:0:0:0:
392,295,18200,2,0,L|496:291,1,85,2|0,0:0|0:0,0:0:0:0:
432,171,18886,5,0,0:0:0:0:
289,78,19229,1,0,0:0:0:0:
289,78,19572,2,0,P|281:118|289:166,1,85,2|0,0:0|0:0,0:0:0:0:
376,252,20257,5,0,0:0:0:0:
241,355,20600,1,0,0:0:0:0:
241,355,20943,2,0,L|144:352,1,85,2|0,0:0|0:0,0:0:0:0:
80,252,21629,5,0,0:0:0:0:
202,133,21972,1,0,0:0:0:0:
202,133,22315,2,0,P|210:173|202:221,1,85,2|0,0:0|0:0,0:0:0:0:
168,340,23000,5,0,0:0:0:0:
276,276,23343,2,0,L|280:180,1,85,0|0,0:0|0:0,0:0:0:0:
359,86,24029,6,0,L|363:14,2,63.7500024318696,2|0|0,0:0|0:0|0:0,0:0:0:0:
291,154,24543,2,0,P|227:166|167:142,1,127.500004863739,0|0,0:0|0:0,0:0:0:0:
75,58,25057,2,0,P|79:98|67:142,1,63.7500024318696,0|0,0:0|0:0,0:0:0:0:
15,194,25400,5,2,0:0:0:0:
99,290,25572,2,0,L|95:362,1,63.7500024318696,0|0,0:0|0:0,0:0:0:0:
195,274,25915,2,0,L|191:202,1,63.7500024318696,0|2,0:0|0:0,0:0:0:0:
287,294,26257,2,0,L|283:366,1,63.7500024318696,0|0,0:0|0:0,0:0:0:0:
375,266,26600,1,0,0:0:0:0:
295,166,26772,6,0,P|283:106|307:38,2,127.500004863739,2|0|2,0:0|0:0|0:0,0:0:0:0:
479,346,27800,2,0,P|483:314|475:270,1,63.7500024318696,0|0,0:0|0:0,0:0:0:0:
407,178,28143,6,0,P|347:166|287:194,1,127.500004863739,2|0,0:0|0:0,0:0:0:0:
231,270,28657,1,0,0:0:0:0:
231,270,28829,2,0,P|227:310|239:354,1,63.7500024318696,2|0,0:0|0:0,0:0:0:0:
316,376,29172,2,0,P|320:336|308:292,1,63.7500024318696,0|0,0:0|0:0,0:0:0:0:
208,188,29515,6,0,P|144:176|84:200,2,127.500004863739,2|0|2,0:0|0:0|0:0,0:0:0:0:
392,368,30543,2,0,P|396:328|384:284,1,63.7500024318696,0|0,0:0|0:0,0:0:0:0:
300,216,30886,5,2,0:0:0:0:
300,216,31057,2,0,L|296:296,1,63.7500024318696,0|0,0:0|0:0,0:0:0:0:
228,348,31400,2,0,P|168:364|108:344,1,127.500004863739,0|0,0:0|0:0,0:0:0:0:
172,212,31915,2,0,P|176:244|168:280,1,63.7500024318696,0|0,0:0|0:0,0:0:0:0:
69,236,32257,6,0,P|53:172|69:108,2,127.500004863739,2|0|2,0:0|0:0|0:0,0:0:0:0:
284,372,33286,2,0,P|288:340|280:296,1,63.7500024318696,0|0,0:0|0:0,0:0:0:0:
204,208,33629,6,0,P|196:163|212:108,2,95.6250036478044,2|0|0,0:0|0:0|0:0,0:0:0:0:
284,308,34315,2,0,L|289:236,1,63.7500024318696,2|0,0:0|0:0,0:0:0:0:
184,364,34657,2,0,L|180:288,1,63.7500024318696,0|0,0:0|0:0,0:0:0:0:
288,152,35000,6,0,P|352:140|408:164,1,127.500004863739,2|8,3:2|0:0,0:0:0:0:
476,232,35515,1,0,0:0:0:0:
392,328,35686,2,0,L|388:260,1,63.7500024318696,0|0,0:0|3:0,0:0:0:0:
376,252,35943,1,0,0:0:0:0:
376,252,36029,1,8,0:0:0:0:
288,344,36200,1,0,0:0:0:0:
200,248,36372,6,0,P|205:279|200:316,1,63.7500024318696,2|0,3:2|0:0,0:0:0:0:
136,384,36715,1,8,0:0:0:0:
35,285,36886,5,0,0:0:0:0:
35,285,36972,2,0,L|121:287,1,63.7500024318696,0|0,3:0|0:0,0:0:0:0:
109,298,37229,1,0,3:0:0:0:
265,184,37400,5,8,0:0:0:0:
265,184,37486,2,0,L|179:186,1,63.7500024318696,0|0,3:0|0:0,0:0:0:0:
191,197,37743,1,2,3:2:0:0:
60,56,38086,6,0,L|64:132,1,63.7500024318696,8|0,0:0|0:0,0:0:0:0:
87,160,38343,1,0,3:0:0:0:
87,160,38429,2,0,P|121:165|157:161,1,63.7500024318696,0|0,0:0|3:0,0:0:0:0:
241,73,38772,1,8,0:0:0:0:
241,73,38858,2,0,P|275:68|311:72,1,63.7500024318696,0|0,3:0|0:0,0:0:0:0:
345,93,39115,2,0,L|349:161,1,63.7500024318696,2|0,3:2|0:0,0:0:0:0:
409,229,39457,1,8,0:0:0:0:
316,317,39629,5,0,0:0:0:0:
316,317,39715,2,0,P|288:321|252:317,1,63.7500024318696,0|0,3:0|0:0,0:0:0:0:
241,305,39972,1,0,3:0:0:0:
83,197,40143,5,8,0:0:0:0:
83,197,40229,2,0,P|111:201|147:197,1,63.7500024318696,0|0,3:0|0:0,0:0:0:0:
158,185,40486,1,2,3:2:0:0:
322,87,40829,6,0,L|326:171,1,63.7500024318696,8|0,0:0|0:0,0:0:0:0:
297,190,41086,1,0,3:0:0:0:
297,190,41172,2,0,P|266:185|231:189,1,63.7500024318696,0|0,0:0|3:0,0:0:0:0:
132,265,41515,1,8,0:0:0:0:
132,265,41601,2,0,L|128:185,1,63.7500024318696,0|0,3:0|0:0,0:0:0:0:
71,106,41857,5,2,3:2:0:0:
71,106,42200,2,0,P|107:110|139:106,1,63.7500024318696,8|0,0:0|0:0,0:0:0:0:
172,77,42457,1,0,3:0:0:0:
172,77,42543,2,0,P|208:73|240:77,1,63.7500024318696,0|0,0:0|3:0,0:0:0:0:
342,145,42886,1,8,0:0:0:0:
342,145,42972,2,0,L|346:225,1,63.7500024318696,0|0,3:0|0:0,0:0:0:0:
285,303,43229,5,2,3:2:0:0:
285,303,43571,2,0,P|249:299|217:303,1,63.7500024318696,8|0,0:0|0:0,0:0:0:0:
184,332,43828,1,0,3:0:0:0:
184,332,43914,2,0,P|148:336|116:332,1,63.7500024318696,0|0,0:0|3:0,0:0:0:0:
14,264,44257,1,8,0:0:0:0:
14,264,44343,2,0,L|10:184,1,63.7500024318696,0|0,3:0|0:0,0:0:0:0:
84,116,44600,5,2,3:2:0:0:
100,296,45457,5,0,0:0:0:0:
124,204,45629,1,0,0:0:0:0:
84,116,45800,1,0,0:0:0:0:
191,271,45972,6,0,P|259:283|319:259,1,127.5,4|0,0:0|0:0,0:0:0:0:
312,263,46315,1,2,0:0:0:0:
415,131,46486,2,0,P|411:171|423:215,1,85,0|2,0:0|0:0,0:0:0:0:
501,313,46829,1,0,0:0:0:0:
381,349,47000,2,0,L|469:345,1,85,2|0,0:0|0:0,0:0:0:0:
312,263,47343,6,0,P|296:215|313:141,1,127.5,2|0,0:0|0:0,0:0:0:0:
312,141,47686,1,2,0:0:0:0:
400,52,47857,2,0,P|408:96|396:140,1,85,0|2,0:0|0:0,0:0:0:0:
244,208,48200,1,0,0:0:0:0:
372,320,48372,2,0,L|368:228,1,85,2|0,0:0|0:0,0:0:0:0:
256,108,48715,6,0,P|196:92|136:116,1,127.5,2|0,0:0|0:0,0:0:0:0:
137,115,49057,1,2,0:0:0:0:
44,216,49229,2,0,L|40:128,1,85,0|2,0:0|0:0,0:0:0:0:
200,184,49572,1,0,0:0:0:0:
160,304,49743,2,0,L|164:212,1,85,2|0,0:0|0:0,0:0:0:0:
304,120,50086,5,2,0:0:0:0:
408,192,50257,1,0,0:0:0:0:
416,212,50343,1,0,0:0:0:0:
424,232,50429,1,2,0:0:0:0:
464,112,50600,1,0,0:0:0:0:
292,240,50772,2,0,L|284:148,1,85,2|0,0:0|0:0,0:0:0:0:
192,68,51115,1,2,0:0:0:0:
284,155,51286,1,0,0:0:0:0:
432,72,51457,6,0,P|420:120|444:204,1,127.5,2|0,0:0|0:0,0:0:0:0:
437,194,51800,1,2,0:0:0:0:
360,348,51972,2,0,P|364:308|352:256,1,85,0|2,0:0|0:0,0:0:0:0:
268,172,52315,1,0,0:0:0:0:
152,296,52486,2,0,L|156:384,1,85,2|0,0:0|0:0,0:0:0:0:
36,260,52829,6,0,L|32:124,1,127.5,2|0,0:0|0:0,0:0:0:0:
32,132,53172,1,2,0:0:0:0:
156,16,53343,2,0,L|152:108,1,85,0|2,0:0|0:0,0:0:0:0:
260,172,53686,1,0,0:0:0:0:
296,296,53857,2,0,L|292:196,1,85,2|0,0:0|0:0,0:0:0:0:
436,116,54200,6,0,P|452:172|436:240,1,127.5,2|0,0:0|0:0,0:0:0:0:
436,238,54543,1,2,0:0:0:0:
340,152,54715,2,0,P|332:108|340:68,1,85,0|2,0:0|0:0,0:0:0:0:
252,216,55057,1,0,0:0:0:0:
296,336,55229,2,0,L|292:240,1,85,2|0,0:0|0:0,0:0:0:0:
192,172,55572,5,2,0:0:0:0:
336,84,55743,1,0,0:0:0:0:
336,84,55829,1,0,0:0:0:0:
336,84,55915,2,0,P|344:123|337:175,1,85,2|0,0:0|0:0,0:0:0:0:
305,263,56257,1,2,0:0:0:0:
252,127,56428,1,0,0:0:0:0:
405,203,56599,1,2,0:0:0:0:
336,84,56771,1,0,0:0:0:0:
223,211,56942,6,0,P|169:229|101:209,1,127.5,6|0,3:2|0:0,0:0:0:0:
76,176,57286,2,0,L|72:88,1,85,10|0,0:0|0:0,0:0:0:0:
48,68,57543,1,0,3:0:0:0:
48,68,57629,1,2,0:0:0:0:
164,144,57800,1,0,3:0:0:0:
282,36,57972,1,10,0:0:0:0:
282,36,58057,2,0,P|238:28|190:36,1,85,0|0,3:0|0:0,0:0:0:0:
166,60,58315,6,0,P|158:104|166:152,1,85,2|0,3:2|0:0,0:0:0:0:
256,232,58657,2,0,P|264:276|256:320,1,85,10|0,0:0|0:0,0:0:0:0:
233,351,58915,1,0,3:0:0:0:
233,351,59000,1,2,0:0:0:0:
152,252,59172,1,0,3:0:0:0:
292,157,59343,1,10,0:0:0:0:
292,157,59429,2,0,L|384:153,1,85,0|0,3:0|0:0,0:0:0:0:
452,113,59686,6,0,L|360:109,1,85,2|0,3:2|0:0,0:0:0:0:
236,0,60029,2,0,L|232:92,1,85,10|0,0:0|0:0,0:0:0:0:
204,116,60286,1,0,3:0:0:0:
204,116,60372,1,2,0:0:0:0:
296,204,60543,1,0,3:0:0:0:
184,332,60715,1,10,0:0:0:0:
184,332,60800,2,0,P|176:292|184:244,1,85,0|0,3:0|0:0,0:0:0:0:
204,200,61057,6,0,P|160:192|112:200,1,85,2|0,3:2|0:0,0:0:0:0:
92,220,61315,1,0,0:0:0:0:
92,220,61400,1,10,0:0:0:0:
264,300,61572,2,0,L|268:348,2,42.5,0|0|2,0:0|3:0|0:0,0:0:0:0:
338,195,61915,1,0,3:0:0:0:
233,132,62086,1,10,0:0:0:0:
233,132,62172,2,0,L|237:40,1,85,0|0,3:0|0:0,0:0:0:0:
268,20,62429,6,0,P|312:12|356:20,1,85,6|0,3:2|0:0,0:0:0:0:
448,160,62772,2,0,L|444:68,1,85,10|0,0:0|0:0,0:0:0:0:
460,44,63029,1,0,3:0:0:0:
460,44,63115,1,2,0:0:0:0:
340,164,63286,1,0,3:0:0:0:
236,80,63457,1,10,0:0:0:0:
236,80,63543,2,0,P|192:72|152:80,1,85,0|0,3:0|0:0,0:0:0:0:
124,112,63800,6,0,L|128:196,1,85,2|0,3:2|0:0,0:0:0:0:
40,344,64143,2,0,L|32:252,1,85,10|0,0:0|0:0,0:0:0:0:
8,236,64400,1,0,3:0:0:0:
8,236,64486,1,2,0:0:0:0:
156,320,64657,1,0,3:0:0:0:
236,168,64829,1,10,0:0:0:0:
228,148,64915,1,0,3:0:0:0:
220,128,65000,1,0,0:0:0:0:
383,225,65172,6,0,L|387:277,3,42.5,2|0|2|0,1:2|1:2|1:2|1:2,0:0:0:0:
297,324,65515,2,0,L|292:375,3,42.5,2|0|2|0,1:2|1:2|1:2|1:2,0:0:0:0:
217,235,65857,5,2,1:2:0:0:
183,210,65942,1,0,1:2:0:0:
142,200,66028,1,2,1:2:0:0:
101,206,66114,1,0,1:2:0:0:
64,227,66200,2,0,L|56:295,1,42.5,2|0,1:2|1:2,0:0:0:0:
130,378,66372,2,0,L|138:314,1,42.5,2|0,1:2|1:2,0:0:0:0:
217,235,66543,6,0,L|281:231,3,42.5,2|0|0|0,3:0|3:0|3:0|3:0,3:0:0:0:
141,160,66886,2,0,L|77:156,3,42.5,0|0|0|0,3:0|3:0|3:0|3:0,0:0:0:0:
265,89,67229,6,0,L|269:149,1,42.5,0|0,3:0|3:0,0:0:0:0:
343,235,67400,2,0,L|351:167,1,42.5,0|0,3:0|3:0,0:0:0:0:
420,87,67572,5,10,0:0:0:0:
203,332,67915,6,0,B|259:328|259:328|299:344|299:344|355:340,1,152.999995330811,6|0,3:2|0:0,0:0:0:0:
353,340,68257,1,8,0:0:0:0:
227,228,68429,1,0,0:0:0:0:
343,148,68600,1,0,0:0:0:0:
203,244,68772,1,0,3:0:0:0:
64,104,68943,2,0,P|132:84|199:104,1,140.25000428009,8|0,0:0|0:0,0:0:0:0:
231,134,69286,6,0,L|227:230,1,93.5000028533936,2|0,3:2|0:0,0:0:0:0:
295,328,69629,1,8,0:0:0:0:
139,228,69800,1,0,0:0:0:0:
311,156,69972,1,0,0:0:0:0:
119,236,70143,1,0,3:0:0:0:
267,352,70315,2,0,L|271:256,1,93.5000028533936,8|0,0:0|0:0,0:0:0:0:
127,140,70657,6,0,L|123:236,1,93.5000028533936,2|0,3:2|0:0,0:0:0:0:
55,324,71000,1,8,0:0:0:0:
215,228,71172,1,0,0:0:0:0:
31,340,71343,1,0,0:0:0:0:
95,172,71515,1,0,3:0:0:0:
235,360,71686,2,0,L|239:264,1,93.5000028533936,8|0,0:0|0:0,0:0:0:0:
339,168,72029,5,2,3:2:0:0:
179,68,72200,1,0,0:0:0:0:
179,68,72286,1,0,0:0:0:0:
179,68,72372,2,0,P|171:116|179:164,1,93.5000028533936,8|0,0:0|0:0,0:0:0:0:
213,190,72629,1,8,0:0:0:0:
213,190,72715,2,0,L|265:186,1,46.7500014266968,0|0,3:0|0:0,0:0:0:0:
373,278,72886,2,0,L|313:274,1,46.7500014266968,0|0,3:0|0:0,0:0:0:0:
209,270,73057,5,8,0:0:0:0:
333,142,73229,1,0,3:0:0:0:
130,352,73400,6,0,P|105:299|108:217,1,140.25000428009,2|0,3:2|0:0,0:0:0:0:
138,182,73743,2,0,P|184:170|230:175,1,93.5000028533936,8|0,0:0|0:0,0:0:0:0:
320,248,74086,1,0,0:0:0:0:
192,284,74257,1,0,3:0:0:0:
320,160,74429,2,0,L|316:16,1,140.25000428009,8|0,0:0|0:0,0:0:0:0:
272,0,74772,6,0,L|276:100,1,93.5000028533936,2|0,3:2|0:0,0:0:0:0:
188,260,75115,2,0,L|180:160,1,93.5000028533936,8|0,0:0|0:0,0:0:0:0:
100,92,75457,1,0,0:0:0:0:
260,192,75629,1,0,3:0:0:0:
77,79,75800,2,0,L|73:179,1,93.5000028533936,8|0,0:0|0:0,0:0:0:0:
202,308,76143,6,0,P|250:316|302:304,1,93.5000028533936,2|0,3:2|0:0,0:0:0:0:
414,236,76486,1,8,0:0:0:0:
258,172,76657,1,0,0:0:0:0:
439,248,76829,1,0,0:0:0:0:
266,316,77000,1,0,3:0:0:0:
370,160,77172,2,0,L|366:64,1,93.5000028533936,8|0,0:0|0:0,0:0:0:0:
240,204,77515,5,2,3:2:0:0:
136,112,77686,1,0,0:0:0:0:
136,112,77772,1,0,0:0:0:0:
136,112,77857,2,0,P|88:104|40:116,1,93.5000028533936,8|0,0:0|0:0,0:0:0:0:
20,156,78115,1,8,0:0:0:0:
20,156,78200,2,0,L|24:220,1,46.7500014266968,0|0,3:0|0:0,0:0:0:0:
112,312,78372,2,0,L|116:248,1,46.7500014266968,0|0,3:0|0:0,0:0:0:0:
248,168,78543,5,8,0:0:0:0:
340,344,78715,1,0,3:0:0:0:
192,256,78886,6,0,B|248:252|248:252|288:268|288:268|344:264,1,152.999995330811,6|0,3:2|0:0,0:0:0:0:
342,264,79229,1,8,0:0:0:0:
216,340,79400,1,0,0:0:0:0:
320,188,79572,1,0,0:0:0:0:
204,360,79743,1,0,3:0:0:0:
96,272,79915,2,0,L|88:132,1,140.25000428009,8|0,0:0|0:0,0:0:0:0:
120,100,80257,6,0,L|128:212,1,93.5000028533936,2|0,3:2|0:0,0:0:0:0:
260,328,80600,2,0,L|268:216,1,93.5000028533936,8|0,0:0|0:0,0:0:0:0:
352,164,80943,1,0,0:0:0:0:
180,224,81115,1,0,3:0:0:0:
372,156,81286,1,8,0:0:0:0:
252,88,81457,1,0,0:0:0:0:
160,248,81629,6,0,L|164:348,1,93.5000028533936,2|0,3:2|0:0,0:0:0:0:
352,164,81972,2,0,P|308:156|256:164,1,93.5000028533936,8|0,0:0|0:0,0:0:0:0:
370,250,82315,1,0,0:0:0:0:
298,78,82486,1,0,3:0:0:0:
447,155,82657,1,8,0:0:0:0:
280,68,82829,1,0,0:0:0:0:
168,220,83000,5,2,3:2:0:0:
40,124,83172,1,0,0:0:0:0:
40,124,83257,1,0,0:0:0:0:
40,124,83343,2,0,L|36:228,1,93.5000028533936,8|0,0:0|0:0,0:0:0:0:
64,256,83600,1,8,0:0:0:0:
64,256,83686,2,0,L|60:328,1,46.7500014266968,0|0,3:0|0:0,0:0:0:0:
176,384,83857,2,0,L|172:320,1,46.7500014266968,0|0,3:0|0:0,0:0:0:0:
240,240,84029,5,8,0:0:0:0:
80,176,84200,1,0,3:0:0:0:
156,116,84372,6,0,P|172:168|144:256,1,140.25000428009,0|0,3:0|0:0,0:0:0:0:
112,280,84715,2,0,P|64:272|12:284,1,93.5000028533936,8|0,0:0|0:0,0:0:0:0:
224,372,85057,2,0,L|228:272,1,93.5000028533936,0|0,0:0|3:0,0:0:0:0:
344,196,85400,1,8,0:0:0:0:
367,216,85743,6,0,L|359:76,1,140.25000428009,0|0,3:0|0:0,0:0:0:0:
324,44,86086,2,0,L|328:152,1,93.5000028533936,8|0,0:0|0:0,0:0:0:0:
216,288,86429,2,0,L|220:180,1,93.5000028533936,0|0,0:0|3:0,0:0:0:0:
140,116,86772,1,8,0:0:0:0:
36,156,86943,1,0,0:0:0:0:
114,272,87115,5,0,3:0:0:0:
114,272,87286,1,0,3:0:0:0:
238,133,87457,1,0,3:0:0:0:
238,133,87628,1,0,3:0:0:0:
220,272,87800,1,0,3:0:0:0:
220,272,87971,1,0,3:0:0:0:
124,112,88143,1,0,3:0:0:0:
124,112,88314,1,0,3:0:0:0:
41,213,88486,5,0,3:0:0:0:
71,234,88571,1,0,3:0:0:0:
107,245,88657,1,0,3:0:0:0:
144,243,88743,1,0,3:0:0:0:
180,231,88828,1,0,3:0:0:0:
210,211,88915,1,0,3:0:0:0:
246,200,89001,1,0,3:0:0:0:
283,202,89087,1,0,3:0:0:0:
319,214,89172,2,0,L|322:273,1,46.7500014266968,0|0,3:0|3:0,0:0:0:0:
410,341,89343,2,0,L|413:282,1,46.7500014266968,0|0,3:0|3:0,0:0:0:0:
400,167,89515,5,8,0:0:0:0:
270,329,89686,1,0,3:0:0:0:
111,235,89857,6,0,B|170:230|170:230|221:256|221:256|285:252,1,178.499994552612,6|0,3:2|0:0,0:0:0:0:
319,233,90200,2,0,L|323:121,1,101.999996887207,8|0,0:0|0:0,0:0:0:0:
311,93,90457,2,0,P|263:81|203:93,1,101.999996887207,0|0,3:0|0:0,0:0:0:0:
179,117,90715,1,0,3:0:0:0:
67,13,90886,1,8,0:0:0:0:
67,13,90972,2,0,P|79:65|67:121,1,101.999996887207,0|0,3:0|0:0,0:0:0:0:
47,145,91229,5,2,3:2:0:0:
163,245,91400,1,0,0:0:0:0:
156,224,91486,1,0,0:0:0:0:
150,203,91571,1,8,0:0:0:0:
320,48,91829,6,0,P|372:40|420:52,1,101.999996887207,0|0,3:0|0:0,0:0:0:0:
448,80,92086,1,0,3:0:0:0:
324,240,92257,1,8,0:0:0:0:
324,240,92343,2,0,L|316:128,1,101.999996887207,0|0,3:0|0:0,0:0:0:0:
288,112,92600,6,0,P|216:96|148:132,1,152.999995330811,2|0,3:2|0:0,0:0:0:0:
120,160,92943,2,0,L|116:52,1,101.999996887207,8|0,0:0|0:0,0:0:0:0:
144,29,93200,2,0,L|148:133,1,101.999996887207,0|0,3:0|0:0,0:0:0:0:
176,160,93457,1,0,3:0:0:0:
272,280,93629,1,8,0:0:0:0:
272,280,93715,2,0,P|324:288|376:276,1,101.999996887207,0|0,3:0|0:0,0:0:0:0:
404,252,93972,5,2,3:2:0:0:
326,151,94143,1,0,0:0:0:0:
317,171,94229,1,0,0:0:0:0:
310,191,94315,2,0,L|304:80,1,101.999996887207,8|0,0:0|0:0,0:0:0:0:
272,64,94572,1,8,0:0:0:0:
272,64,94657,5,0,0:0:0:0:
396,152,94829,1,0,3:0:0:0:
260,272,95000,1,8,0:0:0:0:
253,251,95086,1,0,3:0:0:0:
247,230,95171,1,0,0:0:0:0:
420,124,95343,6,0,L|432:284,1,152.999995330811,2|0,3:2|0:0,0:0:0:0:
396,300,95686,2,0,L|388:188,1,101.999996887207,8|0,0:0|0:0,0:0:0:0:
352,180,95943,2,0,P|304:172|252:188,1,101.999996887207,0|0,3:0|0:0,0:0:0:0:
228,220,96200,1,0,3:0:0:0:
128,104,96372,1,8,0:0:0:0:
128,104,96457,2,0,P|140:152|128:216,1,101.999996887207,0|0,3:0|0:0,0:0:0:0:
108,236,96715,5,2,3:2:0:0:
244,145,96886,1,0,0:0:0:0:
249,166,96972,1,0,0:0:0:0:
253,187,97057,1,8,0:0:0:0:
448,308,97315,6,0,L|440:204,1,101.999996887207,0|0,3:0|0:0,0:0:0:0:
463,173,97572,1,0,3:0:0:0:
356,64,97743,1,8,0:0:0:0:
356,64,97829,2,0,P|308:56|252:72,1,101.999996887207,0|0,3:0|0:0,0:0:0:0:
228,96,98086,6,0,P|244:164|224:248,1,152.999995330811,2|0,3:2|0:0,0:0:0:0:
196,272,98429,2,0,P|148:280|92:268,1,101.999996887207,8|0,0:0|0:0,0:0:0:0:
64,244,98686,2,0,L|60:136,1,101.999996887207,0|0,3:0|0:0,0:0:0:0:
32,112,98943,1,0,3:0:0:0:
148,12,99115,1,8,0:0:0:0:
148,12,99200,2,0,L|156:120,1,101.999996887207,0|0,3:0|0:0,0:0:0:0:
184,140,99457,5,2,3:2:0:0:
64,244,99629,1,0,0:0:0:0:
57,223,99715,1,0,0:0:0:0:
51,202,99800,2,0,L|55:94,1,101.999996887207,8|0,0:0|0:0,0:0:0:0:
28,72,100057,1,8,0:0:0:0:
28,72,100143,5,0,0:0:0:0:
156,156,100315,1,0,3:0:0:0:
77,286,100486,1,8,0:0:0:0:
71,265,100571,1,0,3:0:0:0:
64,244,100657,1,0,0:0:0:0:
255,69,100829,6,0,P|279:133|255:221,1,152.999995330811,6|0,3:2|0:0,0:0:0:0:
224,228,101172,2,0,P|176:220|124:232,1,101.999996887207,8|0,0:0|0:0,0:0:0:0:
96,260,101429,2,0,L|100:364,1,101.999996887207,0|0,3:0|0:0,0:0:0:0:
136,384,101686,1,0,3:0:0:0:
251,283,101857,1,8,0:0:0:0:
251,283,101943,2,0,P|263:231|251:175,1,101.999996887207,0|0,3:0|0:0,0:0:0:0:
231,151,102200,5,2,3:2:0:0:
347,51,102371,1,0,0:0:0:0:
340,72,102457,1,0,0:0:0:0:
334,93,102542,1,8,0:0:0:0:
156,236,102800,6,0,P|108:244|56:232,1,101.999996887207,0|0,3:0|0:0,0:0:0:0:
24,208,103057,1,0,3:0:0:0:
113,60,103229,1,8,0:0:0:0:
113,60,103315,2,0,P|105:108|117:168,1,101.999996887207,0|0,3:0|0:0,0:0:0:0:
145,188,103572,6,0,L|305:176,1,152.999995330811,2|0,3:2|0:0,0:0:0:0:
321,212,103915,2,0,L|209:220,1,101.999996887207,8|0,0:0|0:0,0:0:0:0:
201,256,104172,2,0,P|193:304|209:356,1,101.999996887207,0|0,3:0|0:0,0:0:0:0:
241,380,104429,1,0,3:0:0:0:
104,312,104600,1,8,0:0:0:0:
104,312,104686,2,0,L|100:200,1,101.999996887207,0|0,3:0|0:0,0:0:0:0:
76,176,104943,5,2,3:2:0:0:
240,76,105115,1,0,0:0:0:0:
249,56,105201,1,0,0:0:0:0:
256,36,105287,2,0,L|262:147,1,101.999996887207,8|0,0:0|0:0,0:0:0:0:
288,168,105543,1,8,0:0:0:0:
288,168,105629,5,0,0:0:0:0:
164,80,105800,1,0,3:0:0:0:
352,4,105972,1,8,0:0:0:0:
357,25,106058,1,0,3:0:0:0:
361,46,106143,1,0,0:0:0:0:
224,240,106315,6,0,P|156:260|76:228,1,152.999995330811,2|0,3:2|0:0,0:0:0:0:
60,200,106657,2,0,P|68:156|56:96,1,101.999996887207,8|0,0:0|0:0,0:0:0:0:
36,64,106915,2,0,P|80:72|140:60,1,101.999996887207,0|0,3:0|0:0,0:0:0:0:
168,36,107172,1,0,3:0:0:0:
268,152,107343,1,8,0:0:0:0:
268,152,107429,2,0,L|264:256,1,101.999996887207,0|0,3:0|0:0,0:0:0:0:
292,284,107686,5,2,3:2:0:0:
172,380,107857,1,0,0:0:0:0:
167,359,107943,1,0,0:0:0:0:
163,338,108028,1,8,0:0:0:0:
268,152,108286,6,0,P|316:144|368:156,1,101.999996887207,0|0,3:0|0:0,0:0:0:0:
396,184,108543,1,0,3:0:0:0:
328,348,108715,1,8,0:0:0:0:
328,348,108800,2,0,L|320:244,1,101.999996887207,0|0,3:0|0:0,0:0:0:0:
284,228,109057,6,0,P|216:216|136:256,1,152.999995330811,2|0,3:2|0:0,0:0:0:0:
116,280,109400,2,0,L|108:176,1,101.999996887207,8|0,0:0|0:0,0:0:0:0:
72,156,109657,2,0,L|79:257,1,101.999996887207,0|0,3:0|0:0,0:0:0:0:
52,292,109915,1,0,3:0:0:0:
184,372,110086,1,8,0:0:0:0:
184,372,110172,2,0,P|236:380|284:364,1,101.999996887207,0|0,3:0|0:0,0:0:0:0:
312,340,110429,5,2,3:2:0:0:
200,235,110600,1,0,0:0:0:0:
191,255,110686,1,0,0:0:0:0:
184,275,110772,2,0,L|178:164,1,101.999996887207,8|0,0:0|0:0,0:0:0:0:
146,148,111029,1,8,0:0:0:0:
146,148,111114,5,0,0:0:0:0:
312,275,111286,1,0,3:0:0:0:
260,132,111457,2,0,L|258:184,1,50.9999984436036,8|0,0:0|3:0,0:0:0:0:
187,325,111629,2,0,L|183:270,1,50.9999984436036,0|0,0:0|0:0,0:0:0:0:
80,200,111800,5,6,2:0:0:0:
