osu file format v14

[General]
AudioFilename: feint-outbreak.mp3
AudioLeadIn: 0
PreviewTime: -1
Countdown: 0
SampleSet: Soft
StackLeniency: 0.7
Mode: 0
LetterboxInBreaks: 0
WidescreenStoryboard: 0

[Editor]
DistanceSpacing: 0.8
BeatDivisor: 4
GridSize: 8
TimelineZoom: 1

[Metadata]
Title:Outbreak (feat. MYLK)
TitleUnicode:Outbreak (feat. MYLK)
Artist:Feint
ArtistUnicode:Feint
Creator:Nines
Version:Breakout
Source:
Tags:Nines
BeatmapID:1380587
BeatmapSetID:651419

[Difficulty]
HPDrainRate:5.5
CircleSize:4
OverallDifficulty:9
ApproachRate:9.5
SliderMultiplier:1.9
SliderTickRate:1

[Events]
//Background and Video events
//Break Periods
//Storyboard Layer 0 (Background)
//Storyboard Layer 1 (Fail)
//Storyboard Layer 2 (Pass)
//Storyboard Layer 3 (Foreground)
//Storyboard Sound Samples

[TimingPoints]
108,342.857142857143,4,2,0,100,1,0
108,-200,4,2,0,100,0,0
21279,-200,4,2,0,5,0,0
21365,-200,4,2,0,100,0,0
21622,-200,4,2,0,5,0,0
21708,-200,4,2,0,100,0,0
43136,-133.333333333333,4,2,0,100,0,0
43822,-66.6666666666667,4,2,0,100,0,0
43993,-100,4,2,0,100,0,0
45365,-66.6666666666667,4,2,0,100,0,0
46736,-100,4,2,0,100,0,0
48793,-200,4,2,0,100,0,0
49479,-100,4,2,0,100,0,0
54965,-100,4,2,0,100,0,0
65936,-66.6666666666667,4,2,0,100,0,0
66450,-100,4,2,0,100,0,0
69708,-66.6666666666667,4,2,0,100,0,0
71422,-83.3333333333333,4,2,0,100,0,0
71936,-100,4,2,0,100,0,0
72450,-100,4,2,0,100,0,0
72793,-83.3333333333333,4,2,0,100,0,0
74165,-100,4,2,0,100,0,0
75193,-66.6666666666667,4,2,0,100,0,0
77422,-76.9230769230769,4,2,0,100,0,0
78279,-83.3333333333333,4,2,0,100,0,0
82908,-66.6666666666667,4,2,0,100,0,0
83422,-100,4,2,0,100,0,0
84965,-66.6666666666667,4,2,0,100,0,0
85136,-76.9230769230769,4,2,0,100,0,0
86508,-100,4,2,0,100,0,0
87879,-100,4,2,0,100,0,1
88479,-66.6666666666667,4,2,0,100,0,1
93365,-100,4,2,0,100,0,1
93879,-66.6666666666667,4,2,0,100,0,1
94736,-100,4,2,0,100,0,1
95765,-66.6666666666667,4,2,0,100,0,1
96108,-100,4,2,0,100,0,1
96622,-66.6666666666667,4,2,0,100,0,1
98850,-100,4,2,0,100,0,1
101593,-66.6666666666667,4,2,0,100,0,1
102965,-100,4,2,0,100,0,1
109822,-100,4,2,0,100,0,0

[HitObjects]
380,76,108,6,0,L|368:188,3,95
460,188,1479,2,0,L|467:282,3,95
369,170,2850,2,0,P|327:150|282:160,3,95
232,336,4222,2,0,L|224:241,3,95
132,76,5593,6,0,L|144:188,3,95
52,188,6964,2,0,L|45:282,3,95
143,170,8335,2,0,P|185:150|230:160,3,95
280,336,9707,2,0,L|288:241,3,95
280,88,11079,6,0,B|372:84|324:132|420:128,1,142.5
404,48,11765,1,0,0:0:0:0:
292,172,12108,2,0,B|200:168|248:216|152:212,1,142.5
87,168,12793,2,0,P|101:148|121:136,1,47.5
88,250,13136,2,0,P|100:270|120:284,1,47.5
280,256,13479,6,0,B|325:245|325:245|373:266|373:266|415:256,1,142.5
380,180,14165,2,0,B|380:152|380:152|368:124,1,47.5
320,332,14508,2,0,B|320:360|320:360|332:388,1,47.5
415,255,14850,6,0,B|360:272|324:236|324:236|280:260,1,142.5
192,272,15536,2,0,L|184:220,1,47.5
104,276,15879,2,0,L|100:328,1,47.5
184,356,16222,1,0,0:0:0:0:
104,180,16565,6,0,B|124:84|124:84|104:28,1,142.5
36,92,17250,1,0,0:0:0:0:
200,152,17593,2,0,B|292:184|292:184|344:164,1,142.5
288,92,18279,2,0,L|288:40,1,47.5
288,272,18622,2,0,L|288:324,1,47.5
376,92,18965,2,0,P|408:80|436:76,1,47.5
484,164,19308,6,0,P|448:164|424:156,1,47.5
376,92,19650,2,0,B|352:136|352:136|352:192,1,95
424,248,20336,1,0,0:0:0:0:
260,228,20679,1,0,0:0:0:0:
144,104,21022,6,0,B|138:137|144:168|144:168|132:188,1,71.25
136,244,21365,6,0,B|140:238|140:238|134:207|140:174,1,71.25
140,174,21708,1,0,0:0:0:0:
338,36,22050,2,0,L|392:32,1,47.5
305,135,22393,1,2,2:0:0:0:
231,58,22565,1,0,0:0:0:0:
231,58,22736,2,0,L|121:53,1,95,0|0,1:0|0:0,0:0:0:0:
73,228,23250,6,0,L|65:172,1,47.5,0|0,1:0|0:0,0:0:0:0:
160,185,23593,1,0,1:0:0:0:
160,185,23764,2,0,P|155:229|150:282,1,95,0|0,3:0|0:0,0:0:0:0:
277,367,24279,5,0,0:0:0:0:
346,315,24450,1,0,0:0:0:0:
266,281,24621,1,0,0:0:0:0:
335,229,24793,6,0,L|343:168,1,47.5,0|0,3:0|0:0,0:0:0:0:
434,92,25136,2,0,L|443:194,1,95,0|0,0:0|1:0,0:0:0:0:
266,281,25822,6,0,L|202:268,1,47.5,2|0,0:0|0:0,0:0:0:0:
259,193,26164,1,0,1:0:0:0:
232,356,26336,1,0,1:0:0:0:
177,202,26507,2,0,P|174:153|168:96,1,95,0|0,3:0|1:0,0:0:0:0:
389,34,27021,6,0,L|383:88,1,47.5,0|0,3:0|0:0,0:0:0:0:
305,53,27364,1,0,1:0:0:0:
470,77,27536,6,0,L|478:183,1,95,0|0,3:0|0:0,0:0:0:0:
379,254,28221,2,0,L|386:159,1,95,0|0,1:0|0:0,0:0:0:0:
284,250,28736,5,0,1:0:0:0:
265,340,28908,2,0,L|312:336,1,47.5,0|0,1:0|0:0,0:0:0:0:
488,344,29250,1,0,0:0:0:0:
411,246,29422,2,0,P|406:293|406:341,1,95,0|0,3:0|1:0,0:0:0:0:
216,100,29936,5,2,0:0:0:0:
268,166,30107,1,0,0:0:0:0:
346,89,30279,6,0,L|299:88,1,47.5,0|0,3:0|0:0,0:0:0:0:
133,134,30622,2,0,P|136:86|144:40,1,95,0|0,0:0|1:0,0:0:0:0:
184,204,31136,1,2,0:0:0:0:
128,264,31307,6,0,P|130:287|132:311,1,47.5,2|0,0:0|0:0,0:0:0:0:
346,202,31650,1,0,1:0:0:0:
428,280,31822,2,0,L|440:168,1,95
360,340,32336,2,0,L|295:332,1,47.5,0|0,0:0|1:0,0:0:0:0:
18,287,32679,6,0,L|28:344,1,47.5,2|0,0:0|0:0,0:0:0:0:
103,299,33022,1,2,0:0:0:0:
80,127,33193,6,0,P|72:179|71:244,1,95,0|0,3:0|0:0,0:0:0:0:
72,38,33707,1,0,0:0:0:0:
176,188,33879,1,0,0:0:0:0:
178,157,33965,2,0,P|176:132|172:108,1,47.5,0|0,1:0|0:0,0:0:0:0:
160,32,34222,1,0,0:0:0:0:
304,122,34393,6,0,L|243:113,1,47.5,0|0,1:0|0:0,0:0:0:0:
301,38,34736,1,0,1:0:0:0:
396,60,34908,1,0,0:0:0:0:
396,93,34993,2,0,P|389:139|388:168,1,71.25,0|0,3:0|1:0,0:0:0:0:
388,280,35422,1,0,0:0:0:0:
388,280,35508,1,0,0:0:0:0:
388,280,35593,1,0,0:0:0:0:
250,268,35765,1,2,0:0:0:0:
319,220,35936,6,0,L|325:159,1,47.5,0|0,3:0|0:0,0:0:0:0:
240,74,36279,2,0,P|241:122|240:174,1,95,0|0,0:0|1:0,0:0:0:0:
406,255,36793,6,0,L|465:249,1,47.5,2|0,0:0|0:0,0:0:0:0:
419,173,37136,1,0,1:0:0:0:
353,324,37307,1,0,1:0:0:0:
419,173,37479,1,0,1:0:0:0:
480,352,37650,1,0,0:0:0:0:
489,322,37736,2,0,P|483:275|488:236,1,71.25,0|0,3:0|1:0,0:0:0:0:
338,66,38165,5,0,0:0:0:0:
339,77,38250,1,0,0:0:0:0:
341,89,38336,1,0,0:0:0:0:
252,28,38508,6,0,P|250:76|244:145,1,95,0|0,3:0|0:0,0:0:0:0:
172,178,39022,1,0,0:0:0:0:
172,178,39108,1,0,0:0:0:0:
172,178,39193,1,0,0:0:0:0:
255,213,39365,2,0,L|320:220,1,47.5,0|0,1:0|0:0,0:0:0:0:
376,228,39622,1,0,0:0:0:0:
190,315,39879,6,0,L|184:247,1,47.5,0|0,1:0|0:0,0:0:0:0:
246,122,40222,1,0,1:0:0:0:
172,176,40393,1,0,0:0:0:0:
143,182,40479,2,0,P|124:185|80:184,1,47.5,0|0,3:0|0:0,0:0:0:0:
20,172,40736,1,0,0:0:0:0:
255,213,40907,5,2,0:0:0:0:
255,213,40993,1,0,0:0:0:0:
255,213,41079,1,0,0:0:0:0:
237,31,41250,1,2,0:0:0:0:
348,86,41422,6,0,L|345:142,1,47.5,0|0,3:0|0:0,0:0:0:0:
332,252,41765,1,0,0:0:0:0:
360,240,41851,2,0,P|403:231|422:231,1,47.5,0|0,0:0|1:0,0:0:0:0:
484,236,42108,1,0,0:0:0:0:
281,344,42279,5,0,0:0:0:0:
279,332,42364,1,0,0:0:0:0:
278,320,42450,1,0,0:0:0:0:
255,213,42622,1,0,1:0:0:0:
362,312,42793,1,0,0:0:0:0:
255,213,42965,1,0,1:0:0:0:
166,279,43136,6,0,B|94:264|104:312|22:294,1,142.500005435944,0|0,3:0|1:0,0:0:0:0:
147,359,43650,1,2,0:0:0:0:
62,211,43822,2,0,P|71:170|78:92,1,71.2500027179719,2|0,0:0|1:0,0:0:0:0:
88,28,43993,6,0,P|92:88|108:156,1,95
336,116,44336,2,0,B|310:78|310:78|234:71,1,95
180,72,44679,1,0,0:0:0:0:
228,144,44850,1,0,0:0:0:0:
148,148,45022,1,0,0:0:0:0:
480,160,45365,6,0,L|472:304,1,142.5
448,324,45622,1,0,0:0:0:0:
414,334,45708,1,0,0:0:0:0:
378,332,45794,1,0,0:0:0:0:
346,317,45879,1,0,0:0:0:0:
240,144,46050,1,0,0:0:0:0:
224,344,46222,1,0,0:0:0:0:
124,176,46393,2,0,P|124:140|140:184,1,142.500005435944
38,52,46736,6,0,P|109:46|179:29,1,142.5
179,29,47079,1,0,0:0:0:0:
345,95,47250,2,0,P|298:91|252:80,1,95
179,29,47593,1,0,0:0:0:0:
232,164,47765,1,0,0:0:0:0:
208,240,47936,1,0,0:0:0:0:
184,316,48108,5,0,0:0:0:0:
232,164,48279,5,0,0:0:0:0:
263,147,48364,1,0,0:0:0:0:
297,138,48450,1,0,0:0:0:0:
333,135,48536,1,0,0:0:0:0:
368,138,48621,1,0,0:0:0:0:
425,252,48793,6,0,L|429:308,1,47.5
336,304,49136,2,0,L|333:256,1,47.5
456,116,49479,6,0,B|450:169|450:169|431:201|431:201|424:269,1,142.500005435944
425,252,49822,1,0,0:0:0:0:
265,141,49993,2,0,P|312:135|360:136,1,95
216,216,50336,1,0,0:0:0:0:
168,136,50508,2,0,L|176:40,1,95
64,44,50850,6,0,L|76:196,1,142.5
75,186,51193,1,0,0:0:0:0:
132,272,51365,2,0,B|82:273|82:273|28:284,1,95
168,136,51708,1,0,0:0:0:0:
200,336,51879,1,0,0:0:0:0:
236,192,52050,1,0,0:0:0:0:
288,284,52222,6,0,B|392:272|344:320|456:320,1,142.5
422,318,52565,1,0,0:0:0:0:
424,228,52736,2,0,B|396:112|396:112|464:144,1,190
508,212,53250,1,0,0:0:0:0:
320,200,53422,1,0,0:0:0:0:
508,212,53593,1,0,0:0:0:0:
291,291,53765,5,0,0:0:0:0:
253,262,53850,1,0,0:0:0:0:
231,235,53936,1,0,0:0:0:0:
275,218,54022,1,0,0:0:0:0:
320,200,54107,1,0,0:0:0:0:
396,112,54279,6,0,B|464:60|464:60|352:16,1,190
312,92,54793,1,0,0:0:0:0:
177,237,54965,6,0,L|167:114,1,95,4|0,1:1|0:0,0:0:0:0:
92,13,55308,1,8,0:0:0:0:
138,131,55479,5,0,0:0:0:0:
140,158,55565,2,0,L|147:252,1,95,0|0,1:1|0:0,0:0:0:0:
78,357,55822,1,8,0:0:0:0:
177,237,55993,5,0,0:0:0:0:
174,208,56079,1,0,0:0:0:0:
172,180,56165,1,0,0:0:0:0:
212,112,56336,6,0,L|335:102,1,95,0|0,1:1|0:0,0:0:0:0:
436,27,56679,1,8,0:0:0:0:
315,82,56850,5,0,0:0:0:0:
290,83,56936,2,0,L|196:90,1,95,0|0,1:1|0:0,0:0:0:0:
92,13,57193,1,8,0:0:0:0:
212,112,57365,5,0,1:0:0:0:
240,109,57450,1,0,0:0:0:0:
268,107,57536,1,8,0:0:0:0:
337,147,57708,6,0,L|347:270,1,95,4|0,1:1|0:0,0:0:0:0:
422,371,58050,1,8,0:0:0:0:
371,257,58222,1,0,0:0:0:0:
369,228,58308,6,0,L|362:134,1,95,0|0,1:1|0:0,0:0:0:0:
436,27,58565,1,8,0:0:0:0:
337,147,58736,5,0,0:0:0:0:
340,176,58822,1,0,0:0:0:0:
342,204,58908,1,0,0:0:0:0:
302,272,59079,6,0,L|179:282,1,95,0|0,1:1|0:0,0:0:0:0:
78,357,59422,1,8,0:0:0:0:
196,303,59508,1,0,0:0:0:0:
222,301,59593,6,0,L|316:294,1,95,0|0,1:1|0:0,0:0:0:0:
422,371,59937,1,8,0:0:0:0:
302,272,60108,5,0,1:0:0:0:
273,274,60194,1,0,0:0:0:0:
245,276,60280,1,8,0:0:0:0:
170,222,60451,6,0,P|167:174|177:128,1,95,0|0,1:0|0:0,0:0:0:0:
206,40,60794,1,8,0:0:0:0:
178,129,60965,5,0,0:0:0:0:
178,129,61050,2,0,P|138:155|93:168,1,95,0|0,1:0|0:0,0:0:0:0:
2,188,61308,1,8,0:0:0:0:
93,169,61480,5,0,0:0:0:0:
121,181,61565,1,0,0:0:0:0:
147,199,61651,1,0,0:0:0:0:
204,256,61823,6,0,P|245:234|279:202,1,95,0|0,1:0|0:0,0:0:0:0:
342,133,62165,1,8,0:0:0:0:
279,202,62336,5,0,0:0:0:0:
279,202,62422,1,0,0:0:0:0:
279,202,62508,1,0,0:0:0:0:
317,384,62680,1,8,0:0:0:0:
288,295,62851,5,0,1:0:0:0:
262,277,62937,1,0,0:0:0:0:
233,263,63023,2,0,P|207:260|173:267,1,47.5,8|0,0:0|0:0,0:0:0:0:
99,296,63194,5,0,1:0:0:0:
256,192,63279,12,0,65593,0:0:0:0:
380,79,65937,6,2,B|333:44|274:68|274:68|245:113|179:100,1,213.750008153916,6|0,3:1|2:0,0:0:0:0:
152,95,66280,1,8,0:0:0:0:
331,247,66451,6,2,L|325:152,1,95,2|0,0:1|0:1,0:0:0:0:
205,25,66794,1,2,3:1:0:0:
82,176,66965,6,2,L|246:192,1,142.5,8|0,0:1|0:1,0:0:0:0:
223,189,67308,2,0,B|239:228|239:228|229:322,1,113.999996520996,0|2,3:0|0:1,0:0:0:0:
475,275,67651,5,8,0:0:0:0:
349,142,67823,1,2,0:3:0:0:
368,101,67908,1,0,0:0:0:0:
405,75,67994,1,2,0:0:0:0:
450,70,68080,1,0,0:0:0:0:
491,88,68165,1,0,3:0:0:0:
271,55,68337,1,8,0:0:0:0:
435,158,68508,5,0,0:0:0:0:
275,271,68680,2,0,B|283:222|283:222|261:160,1,95,0|2,3:1|0:1,0:0:0:0:
181,96,69023,1,8,0:0:0:0:
361,244,69194,5,2,0:0:0:0:
361,244,69280,1,0,0:0:0:0:
361,244,69365,2,0,L|437:236,1,47.5,2|0,0:3|0:0,0:0:0:0:
500,241,69537,1,0,3:1:0:0:
297,99,69708,6,2,B|301:127|301:127|301:146|301:146|310:193,1,71.2500027179719,8|0,0:0|2:0,0:0:0:0:
321,383,69880,2,2,B|317:355|317:355|317:336|317:336|308:289,1,71.2500027179719,2|0,0:3|2:0,0:0:0:0:
361,244,70051,5,2,2:1:0:0:
225,362,70223,1,0,3:2:0:0:
411,317,70394,1,8,0:2:0:0:
220,162,70565,2,0,B|243:166|243:166|273:184|273:184|292:188,1,71.2500027179719
445,238,70737,5,2,2:0:0:0:
142,350,70908,1,0,3:0:0:0:
493,304,71080,1,12,0:2:0:0:
290,128,71251,5,2,2:0:0:0:
290,128,71337,1,2,2:0:0:0:
290,128,71423,2,2,B|348:110|348:110|399:139|399:139|468:133,1,170.999994781494,0|0,3:2|2:0,0:0:0:0:
485,133,71765,1,8,0:0:0:0:
336,294,71937,6,2,L|344:200,1,95,2|0,0:3|0:0,0:0:0:0:
420,54,72280,1,0,3:3:0:0:
199,172,72451,6,2,L|29:184,1,142.5,8|0,0:0|2:0,0:0:0:0:
56,182,72794,2,0,B|74:216|74:216|63:314,1,113.999996520996,0|2,3:0|0:0,0:0:0:0:
333,251,73137,6,2,L|320:128,1,113.999996520996,0|2,0:0|0:3,0:0:0:0:
341,96,73394,1,0,0:0:0:0:
381,73,73480,1,2,0:0:0:0:
426,71,73565,1,0,0:0:0:0:
461,99,73651,1,0,3:0:0:0:
298,325,73823,1,8,0:0:0:0:
93,109,73994,5,0,0:0:0:0:
93,109,74080,1,0,0:0:0:0:
93,109,74165,1,0,0:0:0:0:
276,182,74336,1,2,0:0:0:0:
163,318,74507,2,2,L|150:206,1,95,0|0,0:0|0:0,0:0:0:0:
149,176,74764,1,0,0:0:0:0:
188,202,74850,1,2,0:3:0:0:
234,204,74936,1,0,0:0:0:0:
276,182,75021,1,0,3:0:0:0:
86,275,75193,6,2,P|74:312|88:382,1,71.2500027179719,8|0,0:0|2:0,2:0:0:0:
217,121,75364,2,2,P|205:84|219:14,1,71.2500027179719,2|0,0:3|2:0,2:0:0:0:
375,281,75536,5,2,0:0:0:0:
465,27,75707,1,0,3:0:0:0:
465,27,75793,1,0,3:0:0:0:
465,27,75878,1,8,0:0:0:0:
491,332,76050,2,0,B|482:308|482:308|475:276|475:276|462:249,1,71.2500027179719
290,77,76221,5,2,2:1:0:0:
186,350,76393,1,8,0:0:0:0:
134,48,76564,1,0,3:0:0:0:
134,48,76650,1,0,3:0:0:0:
134,48,76736,1,2,0:3:0:0:
389,195,76908,6,2,B|280:173|286:247|181:221,1,213.750008153916,4|0,3:1|2:0,0:0:0:0:
147,216,77251,1,8,0:0:0:0:
220,19,77422,6,2,B|238:60|238:60|226:159,1,123.499994346619,2|0,0:1|0:0,0:0:0:0:
347,284,77765,1,0,0:0:0:0:
509,76,77937,6,2,P|433:51|347:119,1,185.249991519928,8|0,0:0|0:0,0:0:0:0:
351,107,78279,2,0,L|368:261,1,113.999996520996,0|2,0:0|0:0,0:0:0:0:
122,370,78622,6,0,B|109:330|109:330|122:234,1,113.999996520996,8|0,0:0|0:0,0:0:0:0:
139,179,78879,1,0,0:0:0:0:
139,179,78965,2,0,L|51:186,1,56.9999982604981,2|0,0:0|0:0,0:0:0:0:
1,193,79137,1,0,3:0:0:0:
209,318,79308,1,8,0:0:0:0:
184,107,79479,6,0,P|150:96|115:100,1,71.2500027179719,0|0,0:0|0:0,0:0:0:0:
66,299,79651,1,0,3:0:0:0:
34,43,79822,5,2,0:0:0:0:
225,185,79994,2,2,L|354:175,1,113.999996520996,8|2,0:0|0:0,0:0:0:0:
420,169,80251,1,0,0:0:0:0:
420,169,80337,2,0,L|403:261,1,56.9999982604981,0|0,0:0|0:0,0:0:0:0:
380,318,80508,1,0,3:0:0:0:
283,86,80679,1,8,0:0:0:0:
168,260,80851,5,2,2:0:0:0:
168,260,80937,1,2,2:0:0:0:
168,260,81022,1,2,1:0:0:0:
470,239,81194,1,0,3:0:0:0:
312,384,81365,1,8,0:0:0:0:
283,86,81536,5,0,0:0:0:0:
283,86,81622,1,0,0:0:0:0:
283,86,81708,1,0,2:2:0:0:
380,318,81879,1,0,0:0:0:0:
94,196,82050,1,0,3:0:0:0:
359,133,82222,1,12,0:2:0:0:
226,338,82394,6,2,L|219:151,1,170.999994781494,0|0,3:0|2:0,0:0:0:0:
218,132,82737,1,8,0:0:0:0:
35,283,82908,6,2,L|165:297,1,71.2500027179719,2|0,0:3|0:0,0:0:0:0:
120,292,83079,1,0,0:0:0:0:
320,293,83251,1,0,3:0:0:0:
168,57,83422,6,2,P|130:115|143:183,1,142.5,8|0,0:0|0:0,0:0:0:0:
188,247,83765,2,0,L|175:359,1,95,0|2,3:0|0:0,0:0:0:0:
306,57,84108,5,8,0:0:0:0:
415,195,84279,1,2,0:3:0:0:
415,195,84365,1,0,0:0:0:0:
415,195,84451,2,0,L|339:186,1,47.5,2|0,0:0|0:0,0:0:0:0:
267,179,84622,1,0,3:0:0:0:
430,73,84794,1,8,0:0:0:0:
337,331,84965,6,0,B|332:307|332:307|333:290|333:290|328:256,1,71.2500027179719,0|0,0:0|0:0,0:0:0:0:
308,80,85136,5,0,0:0:0:0:
340,356,85308,1,0,0:0:0:0:
204,80,85479,5,0,0:0:0:0:
172,356,85651,1,0,0:0:0:0:
436,88,85822,5,0,0:0:0:0:
192,216,85993,1,0,0:0:0:0:
320,216,86165,5,0,0:0:0:0:
76,88,86336,1,0,0:0:0:0:
256,60,86508,6,0,L|200:104,1,47.5
80,208,86679,2,0,L|136:160,1,47.5
256,60,86850,6,0,L|312:104,1,47.5
432,208,87021,2,0,L|376:160,1,47.5
256,60,87193,2,0,L|256:108,1,47.5
256,328,87365,5,0,0:0:0:0:
256,328,87451,1,0,0:0:0:0:
256,328,87537,1,8,0:0:0:0:
428,103,87708,1,2,0:3:0:0:
346,239,87879,6,0,L|342:333,1,95,2|0,3:1|0:0,0:0:0:0:
440,295,88222,1,8,0:0:0:0:
320,144,88393,1,0,0:0:0:0:
287,150,88479,2,2,B|226:160|226:160|190:199|190:199|104:214,1,142.500005435944,0|0,0:0|3:0,0:0:0:0:
84,220,88736,1,0,0:0:0:0:
226,61,88908,1,8,0:0:0:0:
226,61,88993,2,0,L|244:208,1,142.500005435944
137,122,89251,6,0,L|129:51,1,71.2500027179719,2|0,3:1|0:0,0:0:0:0:
80,188,89422,2,0,L|87:258,1,71.2500027179719,0|0,3:1|0:0,0:0:0:0:
335,75,89593,1,8,0:0:0:0:
212,185,89765,1,2,0:0:0:0:
198,210,89851,1,0,0:0:0:0:
193,238,89936,1,0,0:0:0:0:
198,265,90022,1,0,0:0:0:0:
211,291,90108,1,0,3:0:0:0:
308,154,90279,2,0,L|224:184,1,71.2500027179719
97,238,90451,1,2,0:0:0:0:
299,337,90622,6,0,B|350:293|350:293|408:328|408:328|504:316,1,213.750008153916,2|0,3:1|0:0,0:0:0:0:
487,318,90965,1,8,0:0:0:0:
452,197,91136,1,0,0:0:0:0:
422,194,91222,2,2,L|216:173,1,142.500005435944,0|0,0:0|3:0,0:0:0:0:
200,169,91479,1,0,0:0:0:0:
200,169,91651,6,0,L|213:258,1,61.7499971733095,8|0,0:0|2:0,0:0:0:0:
308,328,91822,2,0,L|299:266,1,61.7499971733095,2|0,0:3|2:0,0:0:0:0:
270,86,91993,5,2,0:0:0:0:
122,231,92165,1,0,3:0:0:0:
365,165,92336,1,8,0:0:0:0:
161,68,92508,6,2,L|37:63,1,71.2500027179719,2|0,0:0|2:0,0:0:0:0:
76,64,92679,1,0,0:0:0:0:
275,244,92851,1,0,3:1:0:0:
371,69,93022,2,0,B|379:85|379:85|386:117|386:117|394:137,1,71.2500027179719
445,241,93193,1,2,0:0:0:0:
258,142,93365,6,0,P|205:163|170:248,1,142.500005435944,2|0,0:0|0:0,0:0:0:0:
236,346,93707,1,8,0:0:0:0:
358,286,93879,5,0,0:0:0:0:
360,258,93965,2,2,L|371:69,1,142.500005435944,0|0,0:0|0:0,0:0:0:0:
372,40,94222,1,0,0:0:0:0:
220,44,94393,2,0,P|247:68|279:82,1,71.2500027179719
461,127,94564,1,0,0:0:0:0:
258,170,94736,5,0,0:0:0:0:
222,174,94821,1,0,0:0:0:0:
187,179,94907,1,0,0:0:0:0:
152,183,94993,1,0,0:0:0:0:
116,188,95078,1,0,0:0:0:0:
40,76,95251,1,2,0:0:0:0:
40,76,95336,1,0,0:0:0:0:
40,76,95422,2,0,L|48:152,1,47.5
216,384,95593,1,0,3:0:0:0:
168,192,95765,6,0,L|231:223,1,71.2500027179719
356,284,95936,1,2,0:0:0:0:
137,292,96108,6,0,L|15:300,1,95,2|0,3:1|0:0,0:0:0:0:
309,364,96451,1,8,0:0:0:0:
168,192,96622,1,0,0:0:0:0:
144,160,96708,2,2,B|111:116|146:63|146:63|182:91,1,142.500005435944,0|0,0:0|3:0,0:0:0:0:
260,96,96965,1,0,0:0:0:0:
260,96,97136,6,0,P|228:104|145:91,1,61.7499971733095,8|0,0:0|2:0,0:0:0:0:
9,50,97308,2,0,P|41:42|124:55,1,61.7499971733095,2|0,0:3|2:0,0:0:0:0:
174,23,97479,5,2,0:0:0:0:
67,196,97651,1,0,0:0:0:0:
67,196,97736,1,0,0:0:0:0:
67,196,97822,1,8,0:0:0:0:
270,241,97993,6,2,L|397:232,1,71.2500027179719,2|0,0:0|2:0,0:0:0:0:
356,236,98165,1,0,0:0:0:0:
178,366,98336,1,0,0:0:0:0:
396,304,98508,2,0,L|317:279,1,71.2500027179719
166,223,98679,1,0,0:0:0:0:
184,52,98850,6,0,L|177:147,1,95,2|0,3:1|2:0,0:0:0:0:
293,337,99193,1,8,0:0:0:0:
55,230,99365,1,2,0:0:0:0:
272,159,99536,1,0,0:0:0:0:
63,112,99708,1,0,3:0:0:0:
269,250,99879,1,8,0:0:0:0:
71,347,100051,1,2,0:0:0:0:
168,268,100222,6,0,L|172:143,1,95,2|0,3:1|0:0,0:0:0:0:
398,71,100565,2,0,L|402:196,1,95,8|0,0:0|0:0,0:0:0:0:
402,250,100822,1,0,0:0:0:0:
402,250,100908,2,0,L|347:237,1,47.5,0|0,0:0|0:0,0:0:0:0:
267,214,101079,1,2,3:1:0:0:
497,122,101251,1,10,0:0:0:0:
447,333,101422,1,0,0:0:0:0:
447,333,101508,1,0,0:0:0:0:
447,333,101593,6,0,B|393:340|393:340|372:354|372:354|293:364,1,142.500005435944,2|0,0:0|2:0,0:0:0:0:
328,16,101936,5,0,0:0:0:0:
328,16,102022,1,0,0:0:0:0:
328,16,102108,2,2,B|358:57|358:57|341:164,1,142.500005435944,10|0,0:0|2:0,0:0:0:0:
18,196,102451,5,0,0:0:0:0:
18,196,102536,1,0,0:0:0:0:
18,196,102622,2,2,B|62:187|62:187|93:201|93:201|128:190|128:190|197:208,1,142.500005435944,10|0,0:0|2:0,0:0:0:0:
470,207,102965,6,2,L|261:218,1,190,0|8,3:0|0:0,0:0:0:0:
139,300,103479,1,2,0:0:0:0:
232,95,103651,1,0,2:0:0:0:
316,308,103822,1,0,3:0:0:0:
232,95,103993,1,8,0:0:0:0:
59,212,104164,1,2,0:0:0:0:
328,148,104336,6,2,B|386:93|334:14|334:14|304:52,1,190,0|8,3:0|0:0,0:0:0:0:
178,170,104850,1,0,0:0:0:0:
182,198,104936,1,0,0:0:0:0:
186,226,105022,1,0,0:0:0:0:
191,253,105107,1,0,0:0:0:0:
195,280,105193,1,0,3:0:0:0:
107,99,105365,1,8,0:0:0:0:
285,227,105536,1,0,0:0:0:0:
131,347,105707,6,0,L|28:339,1,95,2|0,3:1|0:0,0:0:0:0:
86,241,106050,1,8,0:0:0:0:
281,349,106222,2,2,P|279:292|294:237,1,95,2|0,0:0|0:0,0:0:0:0:
355,107,106565,1,0,3:0:0:0:
76,146,106736,2,0,L|86:241,1,95,10|0,0:0|0:0,0:0:0:0:
86,241,106993,1,0,0:0:0:0:
86,241,107079,6,0,L|194:236,1,95,2|0,3:1|0:0,0:0:0:0:
391,233,107422,1,8,0:0:0:0:
406,32,107593,6,2,P|329:27|270:99,1,142.5,2|0,3:1|2:0,0:0:0:0:
226,171,107936,2,0,L|217:117,1,47.5,0|0,0:0|0:0,0:0:0:0:
205,33,108107,1,10,0:0:0:0:
355,107,108279,1,0,0:0:0:0:
145,150,108450,6,0,L|141:268,1,95,2|0,0:0|2:0,0:0:0:0:
222,265,108707,2,0,L|225:170,1,95,2|0,0:0|2:0,0:0:0:0:
309,151,108965,6,2,L|302:343,1,190,2|0,0:0|0:0,0:0:0:0:
302,340,109393,1,0,0:0:0:0:
302,340,109479,1,8,0:0:0:0:
393,236,109650,1,2,0:3:0:0:
208,364,109822,5,4,0:0:0:0:
