osu file format v14

[General]
AudioFilename: audio.mp3
AudioLeadIn: 0
PreviewTime: 64470
Countdown: 0
SampleSet: Normal
StackLeniency: 0.7
Mode: 1
LetterboxInBreaks: 0
WidescreenStoryboard: 0

[Editor]
DistanceSpacing: 1
BeatDivisor: 2
GridSize: 32
TimelineZoom: 0.4999999

[Metadata]
Title:Outbreak (feat. MYLK)
TitleUnicode:Outbreak (feat. MYLK)
Artist:Feint
ArtistUnicode:Feint
Creator:Jaltzu
Version:Kantan
Source:Rocket League
Tags:monstercat electronic dance music edm english dnb drum and bass upbeat video game
BeatmapID:1616917
BeatmapSetID:768890

[Difficulty]
HPDrainRate:8
CircleSize:2
OverallDifficulty:3
ApproachRate:0
SliderMultiplier:1.4
SliderTickRate:1

[Events]
//Background and Video events
0,0,"art.jpg",0,0
//Break Periods
//Storyboard Layer 0 (Background)
//Storyboard Layer 1 (Fail)
//Storyboard Layer 2 (Pass)
//Storyboard Layer 3 (Foreground)
//Storyboard Layer 4 (Overlay)
//Storyboard Sound Samples

[TimingPoints]
11038,342.857142857143,4,1,0,40,1,0
33323,-100,4,1,0,20,0,0
34350,-100,4,1,0,30,0,0
35036,-100,4,1,0,35,0,0
35722,-100,4,1,0,40,0,0
37093,-100,4,1,0,55,0,0
37779,-100,4,1,0,60,0,0
38465,-100,4,1,0,70,0,0
43950,-100,4,1,0,60,0,0
54922,-100,4,1,0,70,0,0
63150,-100,4,1,0,60,0,0
64522,-100,4,1,0,50,0,0
65893,-100,4,1,0,80,0,0
87838,-100,4,1,0,80,0,1
109780,-100,4,1,0,50,0,0

[HitObjects]
256,192,11037,5,0,0:0:0:0:
256,192,12066,1,8,0:0:0:0:
256,192,13095,1,0,0:0:0:0:
256,192,13780,1,0,0:0:0:0:
256,192,14809,1,8,0:0:0:0:
256,192,15838,1,0,0:0:0:0:
256,192,16523,1,8,0:0:0:0:
256,192,17552,1,8,0:0:0:0:
256,192,18580,1,0,0:0:0:0:
256,192,19266,1,8,0:0:0:0:
256,192,20295,1,8,0:0:0:0:
256,192,21323,1,0,0:0:0:0:
256,192,22009,1,0,0:0:0:0:
256,192,23380,1,0,0:0:0:0:
256,192,24066,1,8,0:0:0:0:
256,192,24752,1,8,0:0:0:0:
256,192,26123,1,8,0:0:0:0:
256,192,27495,1,0,0:0:0:0:
256,192,28866,1,0,0:0:0:0:
256,192,29552,1,0,0:0:0:0:
256,192,30238,1,8,0:0:0:0:
256,192,31609,1,0,0:0:0:0:
256,192,32980,1,8,0:0:0:0:
256,192,34352,1,0,0:0:0:0:
256,192,35038,1,0,0:0:0:0:
256,192,35723,1,8,0:0:0:0:
256,192,37095,1,0,0:0:0:0:
256,192,37780,1,0,0:0:0:0:
256,192,38466,1,8,0:0:0:0:
256,192,39838,1,0,0:0:0:0:
256,192,40523,1,0,0:0:0:0:
256,192,41209,1,0,0:0:0:0:
256,192,41895,1,8,0:0:0:0:
256,192,42580,1,0,0:0:0:0:
256,192,43952,1,4,0:0:0:0:
256,192,45323,1,0,0:0:0:0:
256,192,46009,1,8,0:0:0:0:
256,192,46695,1,0,0:0:0:0:
256,192,48066,1,0,0:0:0:0:
256,192,48752,1,0,0:0:0:0:
256,192,49095,1,8,0:0:0:0:
256,192,49438,1,0,0:0:0:0:
256,192,50809,1,0,0:0:0:0:
256,192,52180,1,0,0:0:0:0:
256,192,52866,1,8,0:0:0:0:
256,192,53552,1,0,0:0:0:0:
256,192,54238,1,0,0:0:0:0:
256,192,54580,1,8,0:0:0:0:
256,192,54923,1,4,0:0:0:0:
256,192,56295,1,0,0:0:0:0:
256,192,56980,1,8,0:0:0:0:
256,192,57323,1,0,0:0:0:0:
256,192,57666,1,0,0:0:0:0:
256,192,58352,1,8,0:0:0:0:
256,192,59038,1,0,0:0:0:0:
256,192,59723,1,8,0:0:0:0:
256,192,60066,1,8,0:0:0:0:
256,192,60409,1,4,0:0:0:0:
256,192,61780,1,0,0:0:0:0:
256,192,62466,1,8,0:0:0:0:
256,192,63152,12,0,64180,0:0:0:0:
256,192,64523,5,0,0:0:0:0:
256,192,65895,1,4,0:0:0:0:
256,192,67266,1,0,0:0:0:0:
256,192,67952,1,8,0:0:0:0:
256,192,68295,1,8,0:0:0:0:
256,192,68638,1,0,0:0:0:0:
256,192,69323,1,0,0:0:0:0:
256,192,70009,1,0,0:0:0:0:
256,192,70352,1,8,0:0:0:0:
256,192,70695,1,0,0:0:0:0:
256,192,71380,1,8,0:0:0:0:
256,192,72752,1,0,0:0:0:0:
256,192,73438,1,8,0:0:0:0:
256,192,73780,1,8,0:0:0:0:
256,192,74123,1,0,0:0:0:0:
256,192,74809,1,0,0:0:0:0:
256,192,75495,1,0,0:0:0:0:
256,192,75838,1,8,0:0:0:0:
256,192,76180,1,0,0:0:0:0:
256,192,76523,1,8,0:0:0:0:
256,192,76866,1,12,0:0:0:0:
256,192,78238,1,0,0:0:0:0:
256,192,78923,1,8,0:0:0:0:
256,192,79266,1,8,0:0:0:0:
256,192,79609,1,0,0:0:0:0:
256,192,80295,1,8,0:0:0:0:
256,192,80980,1,0,0:0:0:0:
256,192,81323,1,8,0:0:0:0:
256,192,81666,1,0,0:0:0:0:
256,192,82009,1,8,0:0:0:0:
256,192,82352,1,0,0:0:0:0:
256,192,83038,1,8,0:0:0:0:
256,192,83380,1,8,0:0:0:0:
256,192,83723,1,0,0:0:0:0:
256,192,84409,1,8,0:0:0:0:
256,192,85095,1,0,0:0:0:0:
256,192,85438,1,0,0:0:0:0:
256,192,85780,1,0,0:0:0:0:
256,192,86123,1,0,0:0:0:0:
256,192,86466,2,0,L|256:128,12,35
256,192,87838,1,12,0:0:0:0:
256,192,89209,1,8,0:0:0:0:
256,192,89895,1,0,0:0:0:0:
256,192,90238,1,8,0:0:0:0:
256,192,90580,1,0,0:0:0:0:
256,192,91266,1,8,0:0:0:0:
256,192,91609,1,8,0:0:0:0:
256,192,91952,1,0,0:0:0:0:
256,192,92638,1,8,0:0:0:0:
256,192,92980,1,0,0:0:0:0:
256,192,93323,1,0,0:0:0:0:
256,192,94009,1,0,0:0:0:0:
256,192,94695,1,8,0:0:0:0:
256,192,95380,1,0,0:0:0:0:
256,192,95723,1,8,0:0:0:0:
256,192,96066,1,0,0:0:0:0:
256,192,96752,1,8,0:0:0:0:
256,192,97095,1,8,0:0:0:0:
256,192,97438,1,0,0:0:0:0:
256,192,98123,1,0,0:0:0:0:
256,192,98466,1,8,0:0:0:0:
256,192,98809,1,12,0:0:0:0:
256,192,100180,1,0,0:0:0:0:
256,192,100866,1,0,0:0:0:0:
256,192,101209,1,8,0:0:0:0:
256,192,101552,1,0,0:0:0:0:
256,192,102238,1,8,0:0:0:0:
256,192,102923,1,0,0:0:0:0:
256,192,103266,1,8,0:0:0:0:
256,192,103609,1,8,0:0:0:0:
256,192,103952,1,0,0:0:0:0:
256,192,104295,1,0,0:0:0:0:
256,192,104980,1,8,0:0:0:0:
256,192,105666,1,8,0:0:0:0:
256,192,106352,1,0,0:0:0:0:
256,192,106695,1,8,0:0:0:0:
256,192,107038,1,0,0:0:0:0:
256,192,107723,1,8,0:0:0:0:
256,192,108409,1,0,0:0:0:0:
256,192,108752,1,8,0:0:0:0:
256,192,109095,1,8,0:0:0:0:
256,192,109438,1,8,0:0:0:0:
256,192,109780,1,0,0:0:0:0:
