osu file format v14

[General]
AudioFilename: audio.mp3
AudioLeadIn: 0
PreviewTime: 64470
Countdown: 0
SampleSet: Normal
StackLeniency: 0.7
Mode: 1
LetterboxInBreaks: 0
WidescreenStoryboard: 0

[Editor]
DistanceSpacing: 1
BeatDivisor: 4
GridSize: 32
TimelineZoom: 1.5

[Metadata]
Title:Outbreak (feat. MYLK)
TitleUnicode:Outbreak (feat. MYLK)
Artist:Feint
ArtistUnicode:Feint
Creator:Jaltzu
Version:Inner Oni
Source:Rocket League
Tags:monstercat electronic dance music edm english dnb drum and bass upbeat video game
BeatmapID:1616916
BeatmapSetID:768890

[Difficulty]
HPDrainRate:5.5
CircleSize:2
OverallDifficulty:6
ApproachRate:0
SliderMultiplier:1.4
SliderTickRate:1

[Events]
//Background and Video events
0,0,"art.jpg",0,0
//Break Periods
//Storyboard Layer 0 (Background)
//Storyboard Layer 1 (Fail)
//Storyboard Layer 2 (Pass)
//Storyboard Layer 3 (Foreground)
//Storyboard Layer 4 (Overlay)
//Storyboard Sound Samples

[TimingPoints]
11038,342.857142857143,4,1,0,40,1,0
33323,-100,4,1,0,20,0,0
34352,-100,4,1,0,30,0,0
35038,-100,4,1,0,35,0,0
35381,-100,4,1,0,37,0,0
35724,-100,4,1,0,40,0,0
36409,-100,4,1,0,45,0,0
36752,-100,4,1,0,50,0,0
37095,-100,4,1,0,55,0,0
37781,-100,4,1,0,60,0,0
38124,-100,4,1,0,65,0,0
38467,-100,4,1,0,70,0,0
43952,-100,4,1,0,60,0,0
54924,-100,4,1,0,70,0,0
63152,-100,4,1,0,60,0,0
64524,-100,4,1,0,50,0,0
65552,-100,4,1,0,70,0,0
65895,-100,4,1,0,80,0,0
87838,-100,4,1,0,80,0,1
109780,-100,4,1,0,50,0,0

[HitObjects]
256,192,11037,5,0,0:0:0:0:
256,192,11380,1,0,0:0:0:0:
256,192,11723,1,0,0:0:0:0:
256,192,12066,1,8,0:0:0:0:
256,192,12752,1,8,0:0:0:0:
256,192,13095,1,0,0:0:0:0:
256,192,13438,1,8,0:0:0:0:
256,192,13780,1,0,0:0:0:0:
256,192,14123,1,0,0:0:0:0:
256,192,14466,1,0,0:0:0:0:
256,192,14809,1,8,0:0:0:0:
256,192,15495,1,8,0:0:0:0:
256,192,15838,1,0,0:0:0:0:
256,192,16180,1,8,0:0:0:0:
256,192,16523,1,0,0:0:0:0:
256,192,16866,1,0,0:0:0:0:
256,192,17209,1,0,0:0:0:0:
256,192,17552,1,8,0:0:0:0:
256,192,18238,1,8,0:0:0:0:
256,192,18580,1,0,0:0:0:0:
256,192,18923,1,8,0:0:0:0:
256,192,19266,1,8,0:0:0:0:
256,192,19609,1,8,0:0:0:0:
256,192,19952,1,0,0:0:0:0:
256,192,20295,1,8,0:0:0:0:
256,192,20980,1,8,0:0:0:0:
256,192,21323,1,0,0:0:0:0:
256,192,21666,1,8,0:0:0:0:
256,192,22009,1,0,0:0:0:0:
256,192,22180,1,0,0:0:0:0:
256,192,22352,1,8,0:0:0:0:
256,192,22695,1,0,0:0:0:0:
256,192,22952,1,0,0:0:0:0:
256,192,23038,1,8,0:0:0:0:
256,192,23209,1,0,0:0:0:0:
256,192,23380,1,0,0:0:0:0:
256,192,23552,1,0,0:0:0:0:
256,192,23895,1,0,0:0:0:0:
256,192,24238,1,0,0:0:0:0:
256,192,24409,1,8,0:0:0:0:
256,192,24580,1,0,0:0:0:0:
256,192,24752,1,0,0:0:0:0:
256,192,25095,1,8,0:0:0:0:
256,192,25438,1,0,0:0:0:0:
256,192,25609,1,0,0:0:0:0:
256,192,25695,1,0,0:0:0:0:
256,192,25780,1,8,0:0:0:0:
256,192,25952,1,0,0:0:0:0:
256,192,26123,1,0,0:0:0:0:
256,192,26466,1,8,0:0:0:0:
256,192,26809,1,0,0:0:0:0:
256,192,26980,1,0,0:0:0:0:
256,192,27066,1,0,0:0:0:0:
256,192,27152,1,8,0:0:0:0:
256,192,27323,1,0,0:0:0:0:
256,192,27495,1,0,0:0:0:0:
256,192,27666,1,0,0:0:0:0:
256,192,27838,1,8,0:0:0:0:
256,192,28180,1,0,0:0:0:0:
256,192,28438,1,0,0:0:0:0:
256,192,28523,1,8,0:0:0:0:
256,192,28695,1,0,0:0:0:0:
256,192,28866,1,0,0:0:0:0:
256,192,29038,1,0,0:0:0:0:
256,192,29380,1,0,0:0:0:0:
256,192,29723,1,0,0:0:0:0:
256,192,29895,1,8,0:0:0:0:
256,192,30066,1,8,0:0:0:0:
256,192,30238,1,0,0:0:0:0:
256,192,30323,1,0,0:0:0:0:
256,192,30409,1,0,0:0:0:0:
256,192,30580,1,8,0:0:0:0:
256,192,30923,1,0,0:0:0:0:
256,192,31180,1,0,0:0:0:0:
256,192,31266,1,8,0:0:0:0:
256,192,31438,1,0,0:0:0:0:
256,192,31609,1,0,0:0:0:0:
256,192,31695,1,0,0:0:0:0:
256,192,31780,1,0,0:0:0:0:
256,192,31952,1,8,0:0:0:0:
256,192,32123,1,0,0:0:0:0:
256,192,32295,1,0,0:0:0:0:
256,192,32552,1,0,0:0:0:0:
256,192,32638,1,8,0:0:0:0:
256,192,32809,1,0,0:0:0:0:
256,192,32980,1,8,0:0:0:0:
256,192,33323,1,8,0:0:0:0:
256,192,33666,1,0,0:0:0:0:
256,192,33838,1,0,0:0:0:0:
256,192,34009,1,0,0:0:0:0:
256,192,34095,1,0,0:0:0:0:
256,192,34352,1,0,0:0:0:0:
256,192,34695,1,8,0:0:0:0:
256,192,34952,1,0,0:0:0:0:
256,192,35038,1,0,0:0:0:0:
256,192,35209,1,0,0:0:0:0:
256,192,35380,1,8,0:0:0:0:
256,192,35466,1,0,0:0:0:0:
256,192,35723,1,0,0:0:0:0:
256,192,36066,1,8,0:0:0:0:
256,192,36323,1,0,0:0:0:0:
256,192,36409,1,0,0:0:0:0:
256,192,36580,1,0,0:0:0:0:
256,192,36752,1,8,0:0:0:0:
256,192,36838,1,0,0:0:0:0:
256,192,37095,1,0,0:0:0:0:
256,192,37438,1,8,0:0:0:0:
256,192,37695,1,0,0:0:0:0:
256,192,37780,1,0,0:0:0:0:
256,192,37952,1,0,0:0:0:0:
256,192,38123,1,8,0:0:0:0:
256,192,38209,1,0,0:0:0:0:
256,192,38466,1,0,0:0:0:0:
256,192,38809,1,8,0:0:0:0:
256,192,39066,1,0,0:0:0:0:
256,192,39152,1,8,0:0:0:0:
256,192,39323,1,0,0:0:0:0:
256,192,39495,1,8,0:0:0:0:
256,192,39580,1,0,0:0:0:0:
256,192,39838,1,0,0:0:0:0:
256,192,40180,1,8,0:0:0:0:
256,192,40438,1,0,0:0:0:0:
256,192,40523,1,8,0:0:0:0:
256,192,40695,1,0,0:0:0:0:
256,192,40866,1,8,0:0:0:0:
256,192,40952,1,0,0:0:0:0:
256,192,41209,1,0,0:0:0:0:
256,192,41552,1,8,0:0:0:0:
256,192,41809,1,0,0:0:0:0:
256,192,41895,1,8,0:0:0:0:
256,192,42066,1,0,0:0:0:0:
256,192,42238,1,8,0:0:0:0:
256,192,42323,1,0,0:0:0:0:
256,192,42580,1,0,0:0:0:0:
256,192,43952,1,4,0:0:0:0:
256,192,44295,1,8,0:0:0:0:
256,192,44466,1,0,0:0:0:0:
256,192,44638,1,0,0:0:0:0:
256,192,44809,1,0,0:0:0:0:
256,192,44980,1,8,0:0:0:0:
256,192,45323,1,0,0:0:0:0:
256,192,45666,1,8,0:0:0:0:
256,192,45838,1,0,0:0:0:0:
256,192,46009,1,8,0:0:0:0:
256,192,46180,1,8,0:0:0:0:
256,192,46352,1,0,0:0:0:0:
256,192,46523,1,8,0:0:0:0:
256,192,46695,1,0,0:0:0:0:
256,192,47038,1,8,0:0:0:0:
256,192,47209,1,0,0:0:0:0:
256,192,47380,1,0,0:0:0:0:
256,192,47552,1,0,0:0:0:0:
256,192,47723,1,8,0:0:0:0:
256,192,47895,1,0,0:0:0:0:
256,192,48066,1,0,0:0:0:0:
256,192,48238,1,0,0:0:0:0:
256,192,48323,1,0,0:0:0:0:
256,192,48409,1,8,0:0:0:0:
256,192,48580,1,0,0:0:0:0:
256,192,48752,1,0,0:0:0:0:
256,192,49095,1,0,0:0:0:0:
256,192,49266,1,8,0:0:0:0:
256,192,49438,1,0,0:0:0:0:
256,192,49695,1,0,0:0:0:0:
256,192,49780,1,8,0:0:0:0:
256,192,49952,1,0,0:0:0:0:
256,192,50123,1,8,0:0:0:0:
256,192,50295,1,0,0:0:0:0:
256,192,50466,1,8,0:0:0:0:
256,192,50809,1,0,0:0:0:0:
256,192,51066,1,0,0:0:0:0:
256,192,51152,1,8,0:0:0:0:
256,192,51323,1,0,0:0:0:0:
256,192,51495,1,0,0:0:0:0:
256,192,51666,1,8,0:0:0:0:
256,192,51838,1,8,0:0:0:0:
256,192,52009,1,0,0:0:0:0:
256,192,52180,1,0,0:0:0:0:
256,192,52438,1,0,0:0:0:0:
256,192,52523,1,8,0:0:0:0:
256,192,52695,1,0,0:0:0:0:
256,192,52866,1,0,0:0:0:0:
256,192,53038,1,0,0:0:0:0:
256,192,53209,1,8,0:0:0:0:
256,192,53380,1,0,0:0:0:0:
256,192,53552,1,0,0:0:0:0:
256,192,53723,1,0,0:0:0:0:
256,192,53809,1,8,0:0:0:0:
256,192,53895,1,8,0:0:0:0:
256,192,54238,1,0,0:0:0:0:
256,192,54580,1,0,0:0:0:0:
256,192,54752,1,8,0:0:0:0:
256,192,54923,1,4,0:0:0:0:
256,192,55095,1,0,0:0:0:0:
256,192,55266,1,8,0:0:0:0:
256,192,55523,1,0,0:0:0:0:
256,192,55609,1,8,0:0:0:0:
256,192,55780,1,0,0:0:0:0:
256,192,55952,1,8,0:0:0:0:
256,192,56038,1,0,0:0:0:0:
256,192,56295,1,0,0:0:0:0:
256,192,56466,1,0,0:0:0:0:
256,192,56638,1,8,0:0:0:0:
256,192,56809,1,8,0:0:0:0:
256,192,56895,1,0,0:0:0:0:
256,192,56980,1,8,0:0:0:0:
256,192,57066,1,8,0:0:0:0:
256,192,57152,1,0,0:0:0:0:
256,192,57323,1,8,0:0:0:0:
256,192,57409,1,0,0:0:0:0:
256,192,57495,1,0,0:0:0:0:
256,192,57666,1,0,0:0:0:0:
256,192,57838,1,0,0:0:0:0:
256,192,58009,1,8,0:0:0:0:
256,192,58266,1,0,0:0:0:0:
256,192,58352,1,8,0:0:0:0:
256,192,58523,1,0,0:0:0:0:
256,192,58695,1,8,0:0:0:0:
256,192,58780,1,0,0:0:0:0:
256,192,58866,1,0,0:0:0:0:
256,192,59038,1,0,0:0:0:0:
256,192,59209,1,0,0:0:0:0:
256,192,59295,1,8,0:0:0:0:
256,192,59380,1,8,0:0:0:0:
256,192,59552,1,0,0:0:0:0:
256,192,59638,1,8,0:0:0:0:
256,192,59723,1,0,0:0:0:0:
256,192,59809,1,8,0:0:0:0:
256,192,59895,1,0,0:0:0:0:
256,192,60066,1,8,0:0:0:0:
256,192,60152,1,0,0:0:0:0:
256,192,60238,1,8,0:0:0:0:
256,192,60409,1,4,0:0:0:0:
256,192,60752,1,8,0:0:0:0:
256,192,61009,1,0,0:0:0:0:
256,192,61095,1,8,0:0:0:0:
256,192,61266,1,0,0:0:0:0:
256,192,61438,1,8,0:0:0:0:
256,192,61523,1,0,0:0:0:0:
256,192,61780,1,0,0:0:0:0:
256,192,61952,1,0,0:0:0:0:
256,192,62123,1,8,0:0:0:0:
256,192,62295,1,8,0:0:0:0:
256,192,62380,1,0,0:0:0:0:
256,192,62466,1,8,0:0:0:0:
256,192,62552,1,8,0:0:0:0:
256,192,62638,1,0,0:0:0:0:
256,192,62809,1,8,0:0:0:0:
256,192,62895,1,0,0:0:0:0:
256,192,62980,1,0,0:0:0:0:
256,192,63152,1,0,0:0:0:0:
256,192,63238,1,0,0:0:0:0:
256,192,63323,1,0,0:0:0:0:
256,192,63409,1,0,0:0:0:0:
256,192,63495,1,8,0:0:0:0:
256,192,63580,1,8,0:0:0:0:
256,192,63666,1,8,0:0:0:0:
256,192,63752,1,0,0:0:0:0:
256,192,63838,1,8,0:0:0:0:
256,192,63923,1,8,0:0:0:0:
256,192,64009,1,0,0:0:0:0:
256,192,64095,1,8,0:0:0:0:
256,192,64180,1,8,0:0:0:0:
256,192,64266,1,0,0:0:0:0:
256,192,64352,1,8,0:0:0:0:
256,192,64438,1,8,0:0:0:0:
256,192,64523,1,0,0:0:0:0:
256,192,64609,1,0,0:0:0:0:
256,192,64695,1,0,0:0:0:0:
256,192,64780,1,0,0:0:0:0:
256,192,64866,1,8,0:0:0:0:
256,192,64952,1,8,0:0:0:0:
256,192,65038,1,8,0:0:0:0:
256,192,65123,1,8,0:0:0:0:
256,192,65209,1,0,0:0:0:0:
256,192,65295,1,0,0:0:0:0:
256,192,65380,1,0,0:0:0:0:
256,192,65466,1,0,0:0:0:0:
256,192,65552,1,8,0:0:0:0:
256,192,65895,1,4,0:0:0:0:
256,192,66238,1,8,0:0:0:0:
256,192,66409,1,0,0:0:0:0:
256,192,66580,1,8,0:0:0:0:
256,192,66666,1,8,0:0:0:0:
256,192,66752,1,0,0:0:0:0:
256,192,66923,1,8,0:0:0:0:
256,192,67266,1,8,0:0:0:0:
256,192,67609,1,8,0:0:0:0:
256,192,67780,1,0,0:0:0:0:
256,192,67952,1,0,0:0:0:0:
256,192,68038,1,8,0:0:0:0:
256,192,68123,1,0,0:0:0:0:
256,192,68295,1,8,0:0:0:0:
256,192,68466,1,0,0:0:0:0:
256,192,68638,1,0,0:0:0:0:
256,192,68980,1,8,0:0:0:0:
256,192,69152,1,0,0:0:0:0:
256,192,69323,1,8,0:0:0:0:
256,192,69409,1,8,0:0:0:0:
256,192,69495,1,0,0:0:0:0:
256,192,69666,1,8,0:0:0:0:
256,192,69838,1,0,0:0:0:0:
256,192,70009,1,0,0:0:0:0:
256,192,70180,1,0,0:0:0:0:
256,192,70266,1,8,0:0:0:0:
256,192,70352,1,8,0:0:0:0:
256,192,70609,1,8,0:0:0:0:
256,192,70695,1,0,0:0:0:0:
256,192,70866,1,0,0:0:0:0:
256,192,71038,1,8,0:0:0:0:
256,192,71123,1,8,0:0:0:0:
256,192,71209,1,0,0:0:0:0:
256,192,71380,1,0,0:0:0:0:
256,192,71723,1,8,0:0:0:0:
256,192,71895,1,0,0:0:0:0:
256,192,72066,1,8,0:0:0:0:
256,192,72152,1,8,0:0:0:0:
256,192,72238,1,0,0:0:0:0:
256,192,72409,1,8,0:0:0:0:
256,192,72752,1,8,0:0:0:0:
256,192,73095,1,8,0:0:0:0:
256,192,73266,1,0,0:0:0:0:
256,192,73438,1,0,0:0:0:0:
256,192,73523,1,8,0:0:0:0:
256,192,73609,1,0,0:0:0:0:
256,192,73780,1,8,0:0:0:0:
256,192,73952,1,0,0:0:0:0:
256,192,74123,1,0,0:0:0:0:
256,192,74466,1,8,0:0:0:0:
256,192,74638,1,0,0:0:0:0:
256,192,74809,1,8,0:0:0:0:
256,192,74895,1,8,0:0:0:0:
256,192,74980,1,0,0:0:0:0:
256,192,75152,1,8,0:0:0:0:
256,192,75323,1,0,0:0:0:0:
256,192,75495,1,0,0:0:0:0:
256,192,75666,1,0,0:0:0:0:
256,192,75752,1,8,0:0:0:0:
256,192,75838,1,8,0:0:0:0:
256,192,76095,1,8,0:0:0:0:
256,192,76180,1,0,0:0:0:0:
256,192,76352,1,0,0:0:0:0:
256,192,76523,1,8,0:0:0:0:
256,192,76609,1,8,0:0:0:0:
256,192,76695,1,0,0:0:0:0:
256,192,76866,1,12,0:0:0:0:
256,192,77209,1,8,0:0:0:0:
256,192,77380,1,0,0:0:0:0:
256,192,77552,1,8,0:0:0:0:
256,192,77638,1,8,0:0:0:0:
256,192,77723,1,0,0:0:0:0:
256,192,77809,1,0,0:0:0:0:
256,192,77895,1,8,0:0:0:0:
256,192,78238,1,0,0:0:0:0:
256,192,78495,1,0,0:0:0:0:
256,192,78580,1,8,0:0:0:0:
256,192,78752,1,0,0:0:0:0:
256,192,78923,1,0,0:0:0:0:
256,192,79009,1,8,0:0:0:0:
256,192,79095,1,0,0:0:0:0:
256,192,79180,1,0,0:0:0:0:
256,192,79266,1,8,0:0:0:0:
256,192,79438,1,0,0:0:0:0:
256,192,79609,1,0,0:0:0:0:
256,192,79952,1,8,0:0:0:0:
256,192,80123,1,0,0:0:0:0:
256,192,80295,1,8,0:0:0:0:
256,192,80380,1,8,0:0:0:0:
256,192,80466,1,0,0:0:0:0:
256,192,80552,1,0,0:0:0:0:
256,192,80638,1,8,0:0:0:0:
256,192,80809,1,0,0:0:0:0:
256,192,80980,1,0,0:0:0:0:
256,192,81152,1,0,0:0:0:0:
256,192,81238,1,8,0:0:0:0:
256,192,81323,1,8,0:0:0:0:
256,192,81580,1,8,0:0:0:0:
256,192,81666,1,0,0:0:0:0:
256,192,81838,1,0,0:0:0:0:
256,192,82009,1,8,0:0:0:0:
256,192,82095,1,8,0:0:0:0:
256,192,82180,1,0,0:0:0:0:
256,192,82352,1,0,0:0:0:0:
256,192,82695,1,8,0:0:0:0:
256,192,82866,1,0,0:0:0:0:
256,192,82952,1,0,0:0:0:0:
256,192,83038,1,8,0:0:0:0:
256,192,83123,1,8,0:0:0:0:
256,192,83209,1,0,0:0:0:0:
256,192,83380,1,8,0:0:0:0:
256,192,83723,1,0,0:0:0:0:
256,192,84066,1,8,0:0:0:0:
256,192,84152,1,8,0:0:0:0:
256,192,84238,1,0,0:0:0:0:
256,192,84323,1,8,0:0:0:0:
256,192,84409,1,8,0:0:0:0:
256,192,84580,1,8,0:0:0:0:
256,192,84752,1,0,0:0:0:0:
256,192,84923,1,8,0:0:0:0:
256,192,85095,1,0,0:0:0:0:
256,192,85266,1,0,0:0:0:0:
256,192,85438,1,0,0:0:0:0:
256,192,85609,1,0,0:0:0:0:
256,192,85780,1,0,0:0:0:0:
256,192,85952,1,0,0:0:0:0:
256,192,86123,1,0,0:0:0:0:
256,192,86295,1,0,0:0:0:0:
256,192,86466,1,0,0:0:0:0:
256,192,86552,1,0,0:0:0:0:
256,192,86638,1,0,0:0:0:0:
256,192,86723,1,0,0:0:0:0:
256,192,86809,1,0,0:0:0:0:
256,192,86895,1,0,0:0:0:0:
256,192,86980,1,0,0:0:0:0:
256,192,87066,1,0,0:0:0:0:
256,192,87152,1,0,0:0:0:0:
256,192,87238,1,0,0:0:0:0:
256,192,87323,1,0,0:0:0:0:
256,192,87409,1,0,0:0:0:0:
256,192,87495,1,8,0:0:0:0:
256,192,87666,1,0,0:0:0:0:
256,192,87838,1,12,0:0:0:0:
256,192,88009,1,0,0:0:0:0:
256,192,88180,1,8,0:0:0:0:
256,192,88438,1,0,0:0:0:0:
256,192,88523,1,0,0:0:0:0:
256,192,88695,1,0,0:0:0:0:
256,192,88780,1,0,0:0:0:0:
256,192,88866,1,8,0:0:0:0:
256,192,88952,1,0,0:0:0:0:
256,192,89209,1,0,0:0:0:0:
256,192,89380,1,8,0:0:0:0:
256,192,89466,1,0,0:0:0:0:
256,192,89552,1,8,0:0:0:0:
256,192,89809,1,0,0:0:0:0:
256,192,89895,1,0,0:0:0:0:
256,192,90066,1,8,0:0:0:0:
256,192,90152,1,0,0:0:0:0:
256,192,90238,1,8,0:0:0:0:
256,192,90323,1,0,0:0:0:0:
256,192,90580,1,0,0:0:0:0:
256,192,90752,1,0,0:0:0:0:
256,192,90923,1,8,0:0:0:0:
256,192,91180,1,0,0:0:0:0:
256,192,91266,1,8,0:0:0:0:
256,192,91352,1,8,0:0:0:0:
256,192,91438,1,0,0:0:0:0:
256,192,91609,1,8,0:0:0:0:
256,192,91695,1,0,0:0:0:0:
256,192,91952,1,0,0:0:0:0:
256,192,92038,1,0,0:0:0:0:
256,192,92123,1,8,0:0:0:0:
256,192,92209,1,0,0:0:0:0:
256,192,92295,1,8,0:0:0:0:
256,192,92552,1,8,0:0:0:0:
256,192,92638,1,0,0:0:0:0:
256,192,92723,1,8,0:0:0:0:
256,192,92809,1,0,0:0:0:0:
256,192,92895,1,0,0:0:0:0:
256,192,92980,1,8,0:0:0:0:
256,192,93066,1,0,0:0:0:0:
256,192,93323,1,0,0:0:0:0:
256,192,93495,1,0,0:0:0:0:
256,192,93666,1,8,0:0:0:0:
256,192,93923,1,0,0:0:0:0:
256,192,94009,1,0,0:0:0:0:
256,192,94180,1,0,0:0:0:0:
256,192,94266,1,0,0:0:0:0:
256,192,94352,1,8,0:0:0:0:
256,192,94438,1,0,0:0:0:0:
256,192,94695,1,0,0:0:0:0:
256,192,94866,1,8,0:0:0:0:
256,192,94952,1,0,0:0:0:0:
256,192,95038,1,8,0:0:0:0:
256,192,95295,1,0,0:0:0:0:
256,192,95380,1,0,0:0:0:0:
256,192,95552,1,8,0:0:0:0:
256,192,95638,1,0,0:0:0:0:
256,192,95723,1,8,0:0:0:0:
256,192,95809,1,0,0:0:0:0:
256,192,96066,1,0,0:0:0:0:
256,192,96238,1,0,0:0:0:0:
256,192,96409,1,8,0:0:0:0:
256,192,96666,1,0,0:0:0:0:
256,192,96752,1,8,0:0:0:0:
256,192,96838,1,8,0:0:0:0:
256,192,96923,1,0,0:0:0:0:
256,192,97095,1,8,0:0:0:0:
256,192,97180,1,0,0:0:0:0:
256,192,97438,1,0,0:0:0:0:
256,192,97609,1,0,0:0:0:0:
256,192,97695,1,8,0:0:0:0:
256,192,97780,1,8,0:0:0:0:
256,192,97952,1,0,0:0:0:0:
256,192,98038,1,8,0:0:0:0:
256,192,98209,1,8,0:0:0:0:
256,192,98295,1,0,0:0:0:0:
256,192,98380,1,0,0:0:0:0:
256,192,98466,1,8,0:0:0:0:
256,192,98552,1,0,0:0:0:0:
256,192,98638,1,0,0:0:0:0:
256,192,98809,1,12,0:0:0:0:
256,192,99152,1,8,0:0:0:0:
256,192,99409,1,0,0:0:0:0:
256,192,99495,1,0,0:0:0:0:
256,192,99580,1,8,0:0:0:0:
256,192,99666,1,0,0:0:0:0:
256,192,99752,1,0,0:0:0:0:
256,192,99838,1,8,0:0:0:0:
256,192,99923,1,0,0:0:0:0:
256,192,100180,1,0,0:0:0:0:
256,192,100352,1,8,0:0:0:0:
256,192,100438,1,0,0:0:0:0:
256,192,100523,1,8,0:0:0:0:
256,192,100780,1,8,0:0:0:0:
256,192,100866,1,0,0:0:0:0:
256,192,100952,1,8,0:0:0:0:
256,192,101038,1,0,0:0:0:0:
256,192,101209,1,8,0:0:0:0:
256,192,101295,1,0,0:0:0:0:
256,192,101552,1,0,0:0:0:0:
256,192,101723,1,0,0:0:0:0:
256,192,101895,1,8,0:0:0:0:
256,192,102152,1,0,0:0:0:0:
256,192,102238,1,0,0:0:0:0:
256,192,102323,1,8,0:0:0:0:
256,192,102409,1,0,0:0:0:0:
256,192,102495,1,0,0:0:0:0:
256,192,102580,1,8,0:0:0:0:
256,192,102666,1,0,0:0:0:0:
256,192,102923,1,0,0:0:0:0:
256,192,103009,1,0,0:0:0:0:
256,192,103095,1,8,0:0:0:0:
256,192,103180,1,0,0:0:0:0:
256,192,103266,1,8,0:0:0:0:
256,192,103523,1,8,0:0:0:0:
256,192,103609,1,0,0:0:0:0:
256,192,103695,1,8,0:0:0:0:
256,192,103780,1,0,0:0:0:0:
256,192,103866,1,0,0:0:0:0:
256,192,103952,1,8,0:0:0:0:
256,192,104038,1,0,0:0:0:0:
256,192,104295,1,0,0:0:0:0:
256,192,104466,1,0,0:0:0:0:
256,192,104638,1,8,0:0:0:0:
256,192,104895,1,0,0:0:0:0:
256,192,104980,1,0,0:0:0:0:
256,192,105066,1,8,0:0:0:0:
256,192,105152,1,0,0:0:0:0:
256,192,105238,1,0,0:0:0:0:
256,192,105323,1,8,0:0:0:0:
256,192,105409,1,0,0:0:0:0:
256,192,105666,1,0,0:0:0:0:
256,192,105838,1,0,0:0:0:0:
256,192,105923,1,0,0:0:0:0:
256,192,106009,1,8,0:0:0:0:
256,192,106266,1,8,0:0:0:0:
256,192,106352,1,0,0:0:0:0:
256,192,106438,1,8,0:0:0:0:
256,192,106523,1,0,0:0:0:0:
256,192,106695,1,8,0:0:0:0:
256,192,106780,1,0,0:0:0:0:
256,192,107038,1,0,0:0:0:0:
256,192,107209,1,0,0:0:0:0:
256,192,107380,1,8,0:0:0:0:
256,192,107638,1,8,0:0:0:0:
256,192,107723,1,0,0:0:0:0:
256,192,107809,1,0,0:0:0:0:
256,192,107895,1,8,0:0:0:0:
256,192,108066,1,8,0:0:0:0:
256,192,108152,1,0,0:0:0:0:
256,192,108409,1,0,0:0:0:0:
256,192,108580,1,0,0:0:0:0:
256,192,108666,1,0,0:0:0:0:
256,192,108752,1,8,0:0:0:0:
256,192,109009,1,8,0:0:0:0:
256,192,109266,1,0,0:0:0:0:
256,192,109438,1,8,0:0:0:0:
256,192,109523,1,0,0:0:0:0:
256,192,109609,1,8,0:0:0:0:
256,192,109695,1,8,0:0:0:0:
256,192,109780,1,0,0:0:0:0:
