osu file format v14

[General]
AudioFilename: audio.mp3
AudioLeadIn: 0
PreviewTime: 67786
Countdown: 0
SampleSet: Normal
StackLeniency: 0.7
Mode: 2
LetterboxInBreaks: 0
WidescreenStoryboard: 1

[Editor]
DistanceSpacing: 1.3
BeatDivisor: 4
GridSize: 32
TimelineZoom: 1.8

[Metadata]
Title:Outbreak (feat. MYLK) (Cut Ver.)
TitleUnicode:Outbreak (feat. MYLK) (Cut Ver.)
Artist:Feint
ArtistUnicode:Feint
Creator:Nelly
Version:Overdrive
Source:Rocket League
Tags:rew0825 phob video game instrumental monstercat monster cat drum and n bass dnb electro dubstep
BeatmapID:2781464
BeatmapSetID:1337319

[Difficulty]
HPDrainRate:6
CircleSize:4
OverallDifficulty:9.3
ApproachRate:9.3
SliderMultiplier:2.2
SliderTickRate:2

[Events]
//Background and Video events
0,0,"BG.jpg",0,0
//Break Periods
2,46172,56389
//Storyboard Layer 0 (Background)
//Storyboard Layer 1 (Fail)
//Storyboard Layer 2 (Pass)
//Storyboard Layer 3 (Foreground)
//Storyboard Layer 4 (Overlay)
//Storyboard Sound Samples

[TimingPoints]
715,342.857142857143,4,2,1,30,1,0
13057,-125,4,2,1,30,0,0
24029,-125,4,2,1,40,0,0
35000,-125,4,2,1,25,0,0
37743,-125,4,2,1,30,0,0
40486,-125,4,2,1,35,0,0
43229,-125,4,2,1,45,0,0
44600,-100,4,2,1,45,0,0
45972,-100,4,2,1,60,0,0
56943,-100,4,2,1,75,0,0
67915,-100,4,1,1,85,0,1
87115,-100,4,1,1,85,0,0
89857,-100,4,1,1,85,0,1
111800,-100,4,1,1,85,0,0

[Colours]
Combo1 : 81,106,111
Combo2 : 108,210,180
Combo3 : 36,169,213
Combo4 : 205,54,54

[HitObjects]
140,347,13057,6,0,L|137:166,1,176,2|0,0:0|0:0,0:0:0:0:
420,105,13743,1,0,0:0:0:0:
138,53,14086,2,0,L|313:53,2,176,2|0|0,0:0|0:0|0:0,0:0:0:0:
421,206,15115,2,0,L|245:206,1,176,0|2,0:0|0:0,0:0:0:0:
69,317,15800,6,0,L|66:136,1,176,0|0,0:0|0:0,0:0:0:0:
348,50,16486,2,0,L|172:50,1,176,0|2,0:0|0:0,0:0:0:0:
454,159,17172,2,0,L|278:159,2,176,0|0|0,0:0|0:0|0:0,0:0:0:0:
173,256,18200,1,2,0:0:0:0:
455,339,18543,6,0,L|458:158,1,176
282,301,19229,2,0,L|285:120,1,176,0|2,0:0|0:0,0:0:0:0:
3,55,19915,2,0,L|178:53,1,176
355,345,20600,2,0,L|358:164,1,176,0|2,0:0|0:0,0:0:0:0:
75,199,21286,6,0,L|250:197,2,176,0|0|0,0:0|0:0|0:0,0:0:0:0:
357,114,22315,1,2,0:0:0:0:
76,350,22657,2,0,L|73:169,1,176,0|0,0:0|0:0,0:0:0:0:
355,105,23343,1,0,0:0:0:0:
74,101,23686,1,0,0:0:0:0:
355,199,24029,6,0,L|445:197,2,88,2|0|0,0:0|0:0|0:0,0:0:0:0:
72,325,24715,2,0,P|39:296|76:179,1,176,0|0,0:0|0:0,0:0:0:0:
244,66,25400,2,0,L|67:61,1,176,2|0,0:0|0:0,0:0:0:0:
351,332,26086,2,0,L|355:153,1,176,2|0,0:0|0:0,0:0:0:0:
72,172,26772,6,0,L|249:167,1,176,2|0,0:0|0:0,0:0:0:0:
424,344,27457,2,0,L|428:165,1,176,2|0,0:0|0:0,0:0:0:0:
146,274,28143,2,0,L|142:95,1,176,2|0,0:0|0:0,0:0:0:0:
319,55,28829,2,0,L|376:124,2,88,2|0|0,0:0|0:0|0:0,0:0:0:0:
230,48,29343,1,0,0:0:0:0:
62,324,29515,6,0,L|58:145,1,176,2|0,0:0|0:0,0:0:0:0:
234,71,30200,2,0,L|54:68,2,176,2|0|2,0:0|0:0|0:0,0:0:0:0:
410,131,31229,1,0,0:0:0:0:
129,363,31572,2,0,L|125:184,1,176,0|0,0:0|0:0,0:0:0:0:
406,327,32257,6,0,L|410:148,1,176,2|0,0:0|0:0,0:0:0:0:
234,74,32943,2,0,L|414:71,1,176,2|0,0:0|0:0,0:0:0:0:
127,363,33629,2,0,L|123:184,1,176,2|0,0:0|0:0,0:0:0:0:
299,231,34315,2,0,L|303:52,1,176,2|0,0:0|0:0,0:0:0:0:
16,284,35000,6,0,L|14:108,1,176,2|8,3:2|0:0,0:0:0:0:
180,210,35600,1,0,3:0:0:0:
235,201,35686,2,0,L|236:91,1,88,0|0,0:0|3:0,0:0:0:0:
93,296,36029,2,0,L|92:186,1,88,8|0,0:0|0:0,0:0:0:0:
335,61,36372,6,0,P|373:66|393:179,1,176,2|8,3:2|0:0,0:0:0:0:
248,336,36972,1,0,3:0:0:0:
193,327,37058,2,0,L|192:217,1,88,0|0,0:0|3:0,0:0:0:0:
335,183,37400,2,0,L|340:128,1,44,8|0,0:0|3:0,0:0:0:0:
125,319,37743,6,0,P|89:308|89:190,1,176,2|8,3:2|0:0,0:0:0:0:
243,144,38343,1,0,3:0:0:0:
299,141,38429,2,0,L|303:30,1,88,0|0,0:0|3:0,0:0:0:0:
160,237,38772,2,0,L|214:234,1,44,8|0,0:0|3:0,0:0:0:0:
430,315,39115,6,0,P|453:283|394:182,1,176,2|8,3:2|0:0,0:0:0:0:
220,151,39715,1,0,3:0:0:0:
164,148,39801,2,0,L|160:37,1,88,0|0,0:0|3:0,0:0:0:0:
304,56,40144,2,0,L|358:53,1,44,8|0,0:0|3:0,0:0:0:0:
29,331,40486,6,0,P|17:297|101:203,1,176,2|8,3:2|0:0,0:0:0:0:
283,275,41086,1,0,3:0:0:0:
217,267,41172,2,0,L|215:155,1,88,0|0,0:0|3:0,0:0:0:0:
358,124,41515,2,0,L|412:121,1,44,8|0,0:0|3:0,0:0:0:0:
83,340,41857,6,0,P|45:304|103:217,1,176,2|8,3:2|0:0,0:0:0:0:
274,243,42457,1,0,3:0:0:0:
208,202,42543,2,0,L|321:198,1,88,0|0,0:0|3:0,0:0:0:0:
174,120,42886,2,0,L|120:117,1,44,8|0,0:0|3:0,0:0:0:0:
450,336,43229,6,0,P|462:306|380:207,1,176,2|8,3:2|0:0,0:0:0:0:
200,170,43829,1,0,3:0:0:0:
266,129,43915,2,0,L|153:125,1,88,0|0,0:0|3:0,0:0:0:0:
300,47,44258,2,0,L|354:44,1,44,8|0,0:0|3:0,0:0:0:0:
25,296,44600,5,2,3:2:0:0:
245,270,44943,2,0,L|249:161,1,110,0|0,0:0|0:0,0:0:0:0:
106,132,45286,1,0,0:0:0:0:
249,70,45457,2,0,L|138:68,2,110,0|0|0,0:0|0:0|0:0,0:0:0:0:
16,296,45972,5,4,0:0:0:0:
399,341,56943,6,0,L|401:231,1,110,6|0,3:2|0:0,0:0:0:0:
158,112,57286,2,0,L|268:110,1,110,10|0,0:0|0:0,0:0:0:0:
340,108,57543,1,0,3:0:0:0:
152,230,57629,2,0,L|42:228,1,110,2|0,0:0|3:0,0:0:0:0:
296,335,57972,2,0,L|351:334,2,55,10|0|0,0:0|3:0|0:0,0:0:0:0:
42,33,58315,6,0,L|152:31,1,110,2|0,3:2|0:0,0:0:0:0:
382,284,58657,2,0,L|384:174,1,110,10|0,0:0|0:0,0:0:0:0:
311,164,58915,1,0,3:0:0:0:
135,348,59000,2,0,L|133:238,1,110,2|0,0:0|3:0,0:0:0:0:
365,80,59343,2,0,L|306:78,1,55,10|0,0:0|3:0,0:0:0:0:
237,74,59515,1,0,0:0:0:0:
489,232,59686,6,0,L|379:230,1,110,2|0,3:2|0:0,0:0:0:0:
147,160,60029,2,0,L|257:158,1,110,10|0,0:0|0:0,0:0:0:0:
329,156,60286,1,0,3:0:0:0:
118,259,60372,2,0,L|228:257,1,110,2|0,0:0|3:0,0:0:0:0:
482,232,60715,1,10,0:0:0:0:
484,177,60800,1,0,3:0:0:0:
486,122,60886,1,0,0:0:0:0:
234,153,61057,5,2,3:2:0:0:
377,80,61229,2,0,L|322:79,1,55,0|0,0:0|0:0,0:0:0:0:
145,257,61400,2,0,L|255:255,1,110,10|0,0:0|0:0,0:0:0:0:
23,212,61743,2,0,L|21:102,1,110,2|0,0:0|3:0,0:0:0:0:
275,49,62086,2,0,L|216:47,1,55,10|0,0:0|3:0,0:0:0:0:
147,43,62258,1,0,0:0:0:0:
399,182,62429,6,0,L|509:180,1,110,6|0,3:2|0:0,0:0:0:0:
255,308,62772,1,10,0:0:0:0:
398,231,62943,2,0,L|344:230,1,55,0|0,0:0|3:0,0:0:0:0:
163,222,63115,2,0,L|53:220,1,110,2|0,0:0|3:0,0:0:0:0:
306,109,63457,2,0,L|247:107,1,55,10|0,0:0|3:0,0:0:0:0:
178,103,63629,1,0,0:0:0:0:
430,311,63800,6,0,L|434:202,1,110,2|0,3:2|0:0,0:0:0:0:
180,336,64143,2,0,L|176:227,1,110,10|0,0:0|0:0,0:0:0:0:
248,216,64400,1,0,3:0:0:0:
425,99,64486,2,0,L|315:97,1,110,2|0,0:0|3:0,0:0:0:0:
61,90,64829,2,0,L|18:124,2,55,10|0|0,0:0|3:0|0:0,0:0:0:0:
304,231,65172,6,0,L|194:229,1,110,2|2,1:2|1:2,0:0:0:0:
448,159,65515,2,0,L|450:49,1,110,2|2,1:2|1:2,0:0:0:0:
377,39,65773,1,0,1:2:0:0:
201,223,65858,2,0,L|199:113,1,110,2|2,1:2|1:2,0:0:0:0:
451,260,66200,2,0,L|392:258,1,55,2|0,1:2|1:2,0:0:0:0:
323,254,66372,1,2,1:2:0:0:
38,222,66543,6,0,L|36:112,1,110,2|0,3:0|0:0,0:0:0:0:
109,102,66801,1,0,0:0:0:0:
316,308,66886,1,0,3:0:0:0:
363,258,66971,1,0,3:0:0:0:
354,189,67057,1,0,3:0:0:0:
294,154,67143,1,0,3:0:0:0:
116,216,67229,1,0,3:0:0:0:
109,146,67314,1,0,3:0:0:0:
146,86,67400,1,0,3:0:0:0:
212,62,67486,1,0,3:0:0:0:
382,59,67572,6,0,L|492:62,1,110,10|0,0:0|0:0,0:0:0:0:
99,338,67915,6,0,P|67:318|100:216,1,165,6|0,3:2|0:0,0:0:0:0:
306,172,68257,1,8,0:0:0:0:
174,160,68429,2,0,L|171:48,1,110,0|0,0:0|0:0,0:0:0:0:
425,48,68772,1,0,3:0:0:0:
173,292,68943,2,0,L|337:286,1,165,8|0,0:0|0:0,0:0:0:0:
108,344,69286,6,0,P|63:323|87:179,1,220,2|8,3:2|0:0,0:0:0:0:
337,143,69800,1,0,0:0:0:0:
205,235,69972,2,0,L|315:234,1,110,0|0,0:0|3:0,0:0:0:0:
61,285,70315,2,0,L|58:173,1,110,8|0,0:0|0:0,0:0:0:0:
343,50,70657,6,0,P|389:111|342:171,1,165,2|0,3:2|0:0,0:0:0:0:
133,280,71000,2,0,L|243:277,1,110,8|0,0:0|0:0,0:0:0:0:
375,179,71343,1,0,0:0:0:0:
243,178,71515,1,0,3:0:0:0:
495,79,71686,2,0,L|385:76,1,110,8|0,0:0|0:0,0:0:0:0:
131,318,72029,5,2,3:2:0:0:
372,234,72200,2,0,L|313:232,1,55,0|0,0:0|0:0,0:0:0:0:
133,95,72372,2,0,L|299:92,1,165,8|8,0:0|0:0,0:0:0:0:
88,301,72715,2,0,L|85:191,1,110,0|0,3:0|3:0,0:0:0:0:
337,183,73057,1,8,0:0:0:0:
183,181,73229,1,0,3:0:0:0:
446,345,73400,6,0,P|478:325|445:223,1,165,2|0,3:2|0:0,0:0:0:0:
239,179,73742,1,8,0:0:0:0:
371,167,73914,2,0,L|374:55,1,110,0|0,0:0|0:0,0:0:0:0:
120,55,74257,1,0,3:0:0:0:
407,346,74429,2,0,P|439:326|406:224,1,165,8|0,0:0|0:0,0:0:0:0:
175,135,74772,6,0,L|401:129,1,220,2|8,3:2|0:0,0:0:0:0:
141,312,75286,1,0,0:0:0:0:
273,285,75457,2,0,L|274:166,1,110,0|0,0:0|3:0,0:0:0:0:
31,201,75800,2,0,L|32:82,1,110,8|0,0:0|0:0,0:0:0:0:
319,341,76143,6,0,P|364:332|375:187,1,220,2|8,3:2|0:0,0:0:0:0:
122,128,76657,2,0,L|231:125,1,110
364,118,77000,1,0,3:0:0:0:
121,276,77172,2,0,L|11:273,1,110,8|0,0:0|0:0,0:0:0:0:
258,322,77515,5,2,3:2:0:0:
15,134,77686,2,0,L|69:132,1,55,0|0,0:0|0:0,0:0:0:0:
252,254,77857,2,0,L|87:250,1,165,8|8,0:0|0:0,0:0:0:0:
319,141,78200,2,0,L|431:138,1,110,0|0,3:0|3:0,0:0:0:0:
175,35,78543,1,8,0:0:0:0:
329,35,78715,1,0,3:0:0:0:
55,345,78886,6,0,P|23:325|56:223,1,165,6|0,3:2|0:0,0:0:0:0:
264,214,79229,2,0,L|265:103,1,110,8|0,0:0|0:0,0:0:0:0:
132,86,79572,1,0,0:0:0:0:
384,69,79743,1,0,3:0:0:0:
97,330,79915,2,0,P|65:310|98:208,1,165,8|0,0:0|0:0,0:0:0:0:
304,205,80257,6,0,P|309:154|191:58,1,220,2|8,3:2|0:0,0:0:0:0:
445,296,80772,1,0,0:0:0:0:
313,198,80943,2,0,L|424:197,1,110,0|0,0:0|3:0,0:0:0:0:
180,103,81286,2,0,L|69:102,1,110,8|0,0:0|0:0,0:0:0:0:
357,335,81629,6,0,P|412:322|415:183,1,220,2|8,3:2|0:0,0:0:0:0:
162,137,82143,2,0,L|272:135,2,110,0|0|0,0:0|0:0|3:0,0:0:0:0:
405,305,82657,2,0,L|406:195,1,110,8|0,0:0|0:0,0:0:0:0:
152,134,83000,5,2,3:2:0:0:
406,103,83172,2,0,L|348:101,1,55,0|0,0:0|0:0,0:0:0:0:
169,231,83343,2,0,L|333:229,1,165,8|8,0:0|0:0,0:0:0:0:
102,342,83686,2,0,L|100:232,1,110,0|0,3:0|3:0,0:0:0:0:
354,127,84029,1,8,0:0:0:0:
200,123,84200,1,0,3:0:0:0:
477,275,84372,5,0,3:0:0:0:
256,215,84715,2,0,L|367:213,1,110,8|0,0:0|0:0,0:0:0:0:
223,125,85057,2,0,L|112:123,1,110,0|0,0:0|3:0,0:0:0:0:
257,43,85400,1,8,0:0:0:0:
36,254,85743,5,0,3:0:0:0:
257,321,86086,2,0,L|259:211,1,110,8|0,0:0|0:0,0:0:0:0:
116,117,86429,2,0,L|227:115,1,110,0|0,0:0|3:0,0:0:0:0:
82,27,86772,2,0,L|193:25,1,110,8|0,0:0|0:0,0:0:0:0:
435,44,87115,5,0,3:0:0:0:
194,162,87286,1,0,3:0:0:0:
337,158,87457,1,0,3:0:0:0:
194,162,87629,1,0,3:0:0:0:
435,44,87800,1,0,3:0:0:0:
194,162,87972,1,0,3:0:0:0:
337,158,88143,1,0,3:0:0:0:
83,68,88315,1,0,3:0:0:0:
335,277,88486,6,0,L|390:276,1,55,0|0,3:0|3:0,0:0:0:0:
158,241,88657,2,0,L|153:186,1,55,0|0,3:0|3:0,0:0:0:0:
220,145,88829,2,0,L|256:102,1,55,0|0,3:0|3:0,0:0:0:0:
322,77,89000,2,0,L|378:72,1,55,0|0,3:0|3:0,0:0:0:0:
189,303,89172,6,0,L|135:300,1,55,0|0,3:0|3:0,0:0:0:0:
189,230,89343,2,0,L|245:225,1,55,0|0,3:0|3:0,0:0:0:0:
57,107,89515,2,0,L|168:104,1,110,8|0,0:0|3:0,0:0:0:0:
419,316,89857,6,0,P|462:291|420:207,1,165,6|0,3:2|0:0,0:0:0:0:
208,198,90200,1,8,0:0:0:0:
373,288,90457,2,0,L|375:178,1,110,0|0,3:0|0:0,0:0:0:0:
196,113,90715,1,0,3:0:0:0:
328,52,90886,1,8,0:0:0:0:
178,44,90972,1,0,3:0:0:0:
376,314,91229,5,2,3:2:0:0:
420,267,91314,1,0,0:0:0:0:
412,203,91400,1,0,0:0:0:0:
358,169,91486,1,0,0:0:0:0:
159,139,91572,2,0,L|271:136,1,110,8|0,0:0|0:0,0:0:0:0:
114,226,91829,1,0,3:0:0:0:
279,343,92086,2,0,L|282:231,1,110,0|8,3:0|0:0,0:0:0:0:
112,183,92343,1,0,3:0:0:0:
310,106,92600,6,0,L|143:104,1,165,2|0,3:2|0:0,0:0:0:0:
355,32,92943,1,8,0:0:0:0:
190,339,93200,2,0,L|186:228,1,110,0|0,3:0|0:0,0:0:0:0:
362,196,93457,1,0,3:0:0:0:
228,110,93629,1,8,0:0:0:0:
383,101,93715,1,0,3:0:0:0:
185,316,93972,5,2,3:2:0:0:
126,291,94057,1,0,0:0:0:0:
101,232,94143,1,0,0:0:0:0:
125,173,94229,1,0,0:0:0:0:
302,148,94315,2,0,L|411:144,1,110,8|0,0:0|0:0,0:0:0:0:
233,57,94572,2,0,L|124:53,1,110,8|0,0:0|0:0,0:0:0:0:
310,246,94829,1,0,3:0:0:0:
178,327,95000,2,0,L|240:326,1,55,8|0,0:0|3:0,0:0:0:0:
300,325,95172,1,0,0:0:0:0:
59,254,95343,6,0,P|27:236|58:135,1,165,2|0,3:2|0:0,0:0:0:0:
236,126,95686,1,8,0:0:0:0:
401,283,95943,2,0,L|403:174,1,110,0|0,3:0|0:0,0:0:0:0:
242,137,96201,1,0,3:0:0:0:
374,73,96372,1,8,0:0:0:0:
219,61,96458,1,0,3:0:0:0:
417,332,96715,5,2,3:2:0:0:
442,273,96801,1,0,0:0:0:0:
417,214,96887,1,0,0:0:0:0:
358,189,96972,1,0,0:0:0:0:
184,180,97057,2,0,L|69:176,1,110,8|0,0:0|0:0,0:0:0:0:
232,103,97315,1,0,3:0:0:0:
397,346,97572,2,0,L|401:236,1,110,0|8,3:0|0:0,0:0:0:0:
246,190,97829,1,0,3:0:0:0:
81,103,98086,6,0,L|245:98,1,165,2|0,3:2|0:0,0:0:0:0:
69,200,98429,1,8,0:0:0:0:
234,300,98686,2,0,L|124:298,1,110,0|0,3:0|0:0,0:0:0:0:
276,220,98943,1,0,3:0:0:0:
144,141,99115,1,8,0:0:0:0:
297,137,99200,1,0,3:0:0:0:
99,341,99457,5,2,3:2:0:0:
49,303,99542,1,0,0:0:0:0:
49,240,99628,1,0,0:0:0:0:
103,205,99714,1,0,0:0:0:0:
279,195,99800,2,0,L|390:194,1,110,8|0,0:0|0:0,0:0:0:0:
213,91,100057,2,0,L|324:90,1,110,8|0,0:0|0:0,0:0:0:0:
144,17,100315,1,0,3:0:0:0:
276,264,100486,2,0,L|221:262,1,55,8|0,0:0|3:0,0:0:0:0:
155,258,100657,1,0,0:0:0:0:
419,316,100829,6,0,P|462:291|420:207,1,165,6|0,3:2|0:0,0:0:0:0:
208,198,101172,1,8,0:0:0:0:
373,288,101429,2,0,L|375:178,1,110,0|0,3:0|0:0,0:0:0:0:
196,113,101687,1,0,3:0:0:0:
328,52,101858,1,8,0:0:0:0:
178,44,101944,1,0,3:0:0:0:
376,314,102201,5,2,3:2:0:0:
420,267,102286,1,0,0:0:0:0:
412,203,102372,1,0,0:0:0:0:
358,169,102458,1,0,0:0:0:0:
159,139,102544,2,0,L|271:136,1,110,8|0,0:0|0:0,0:0:0:0:
114,226,102801,1,0,3:0:0:0:
279,343,103058,2,0,L|282:231,1,110,0|8,3:0|0:0,0:0:0:0:
112,183,103315,1,0,3:0:0:0:
310,106,103572,6,0,L|143:104,1,165,2|0,3:2|0:0,0:0:0:0:
355,32,103915,1,8,0:0:0:0:
190,339,104172,2,0,L|186:228,1,110,0|0,3:0|0:0,0:0:0:0:
362,196,104429,1,0,3:0:0:0:
228,110,104601,1,8,0:0:0:0:
383,101,104687,1,0,3:0:0:0:
185,316,104944,5,2,3:2:0:0:
126,291,105029,1,0,0:0:0:0:
101,232,105115,1,0,0:0:0:0:
125,173,105201,1,0,0:0:0:0:
302,148,105287,2,0,L|411:144,1,110,8|0,0:0|0:0,0:0:0:0:
233,57,105544,2,0,L|124:53,1,110,8|0,0:0|0:0,0:0:0:0:
310,246,105801,1,0,3:0:0:0:
178,327,105972,2,0,L|240:326,1,55,8|0,0:0|3:0,0:0:0:0:
300,325,106144,1,0,0:0:0:0:
59,254,106315,6,0,P|27:236|58:135,1,165,2|0,3:2|0:0,0:0:0:0:
266,73,106657,2,0,L|157:71,1,110,8|0,0:0|0:0,0:0:0:0:
314,173,106915,1,0,3:0:0:0:
148,295,107172,2,0,L|145:183,1,110,0|8,3:0|0:0,0:0:0:0:
303,157,107430,1,0,3:0:0:0:
105,332,107687,5,2,3:2:0:0:
80,273,107773,1,0,0:0:0:0:
105,214,107857,1,0,0:0:0:0:
164,189,107943,1,0,0:0:0:0:
339,136,108029,2,0,L|224:132,1,110,8|0,0:0|0:0,0:0:0:0:
387,59,108287,1,0,3:0:0:0:
223,271,108543,2,0,L|338:267,1,110,0|8,3:0|0:0,0:0:0:0:
175,194,108801,1,0,3:0:0:0:
373,103,109058,6,0,L|209:98,1,165,2|0,3:2|0:0,0:0:0:0:
385,200,109401,1,8,0:0:0:0:
220,300,109658,2,0,L|330:298,1,110,0|0,3:0|0:0,0:0:0:0:
178,220,109915,1,0,3:0:0:0:
310,141,110087,1,8,0:0:0:0:
157,137,110172,1,0,3:0:0:0:
355,341,110429,5,2,3:2:0:0:
405,303,110514,1,0,0:0:0:0:
405,240,110600,1,0,0:0:0:0:
351,205,110686,1,0,0:0:0:0:
175,195,110772,2,0,L|64:194,1,110,8|0,0:0|0:0,0:0:0:0:
241,91,111029,2,0,L|130:90,1,110,8|0,0:0|0:0,0:0:0:0:
310,17,111287,1,0,3:0:0:0:
178,264,111458,2,0,L|233:262,1,55,8|0,0:0|3:0,0:0:0:0:
299,258,111629,1,0,0:0:0:0:
57,163,111800,5,6,2:0:0:0:
