osu file format v14

[General]
AudioFilename: audio.mp3
AudioLeadIn: 0
PreviewTime: 67786
Countdown: 0
SampleSet: Soft
StackLeniency: 0.7
Mode: 2
LetterboxInBreaks: 0
WidescreenStoryboard: 1

[Editor]
DistanceSpacing: 1.1
BeatDivisor: 4
GridSize: 32
TimelineZoom: 1.8

[Metadata]
Title:Outbreak (feat. MYLK) (Cut Ver.)
TitleUnicode:Outbreak (feat. MYLK) (Cut Ver.)
Artist:Feint
ArtistUnicode:Feint
Creator:Nelly
Version:Cup
Source:Rocket League
Tags:rew0825 phob video game instrumental monstercat monster cat drum and n bass dnb electro dubstep
BeatmapID:2773225
BeatmapSetID:1337319

[Difficulty]
HPDrainRate:3
CircleSize:2.5
OverallDifficulty:6
ApproachRate:6
SliderMultiplier:1.2
SliderTickRate:1

[Events]
//Background and Video events
0,0,"BG.jpg",0,0
//Break Periods
2,46172,55893
//Storyboard Layer 0 (Background)
//Storyboard Layer 1 (Fail)
//Storyboard Layer 2 (Pass)
//Storyboard Layer 3 (Foreground)
//Storyboard Layer 4 (Overlay)
//Storyboard Sound Samples

[TimingPoints]
715,342.857142857143,4,2,1,30,1,0
13057,-100,4,2,1,30,0,0
24029,-100,4,2,1,40,0,0
35000,-100,4,2,1,25,0,0
37743,-100,4,2,1,30,0,0
40486,-100,4,2,1,35,0,0
43229,-100,4,2,1,45,0,0
44600,-100,4,2,1,45,0,0
45972,-100,4,2,1,60,0,0
56943,-100,4,2,1,75,0,0
67915,-100,4,1,1,85,0,1
87115,-100,4,1,1,85,0,0
89857,-100,4,1,1,85,0,1
111800,-100,4,1,1,85,0,0

[Colours]
Combo1 : 81,106,111
Combo2 : 108,210,180
Combo3 : 36,169,213
Combo4 : 205,54,54

[HitObjects]
125,346,13057,5,2,0:0:0:0:
364,288,13743,2,0,L|366:166,1,120,0|2,0:0|0:0,0:0:0:0:
43,262,15115,2,0,L|41:140,1,120,0|2,0:0|0:0,0:0:0:0:
310,81,16486,2,0,L|190:79,1,120,0|2,0:0|0:0,0:0:0:0:
477,258,17857,6,0,L|357:256,1,120,0|2,0:0|0:0,0:0:0:0:
70,369,19229,2,0,L|68:249,1,120,0|2,0:0|0:0,0:0:0:0:
319,96,20600,2,0,L|438:94,1,120,0|2,0:0|0:0,0:0:0:0:
116,270,21972,2,0,L|235:268,1,120,0|2,0:0|0:0,0:0:0:0:
489,199,23343,2,0,L|369:197,1,120
249,327,24029,6,0,L|246:206,1,120,2|0,0:0|0:0,0:0:0:0:
367,162,24715,1,0,0:0:0:0:
128,316,25400,6,0,L|131:195,1,120,2|0,0:0|0:0,0:0:0:0:
251,154,26086,2,0,L|370:151,1,120,2|0,0:0|0:0,0:0:0:0:
251,336,26772,2,0,L|248:215,1,120,2|0,0:0|0:0,0:0:0:0:
368,171,27457,1,2,0:0:0:0:
129,124,28143,6,0,L|10:121,1,120,2|0,0:0|0:0,0:0:0:0:
129,246,28829,2,0,L|248:243,1,120,2|0,0:0|0:0,0:0:0:0:
129,279,29515,2,0,P|101:272|129:116,1,240,2|2,0:0|0:0,0:0:0:0:
363,102,30886,6,0,L|482:99,1,120,2|0,0:0|0:0,0:0:0:0:
363,304,31572,2,0,L|360:185,1,120,0|0,0:0|0:0,0:0:0:0:
240,251,32257,2,0,L|237:132,1,120,2|0,0:0|0:0,0:0:0:0:
363,304,32943,2,0,L|366:185,1,120,2|0,0:0|0:0,0:0:0:0:
246,159,33629,6,0,L|123:156,1,120,2|0,0:0|0:0,0:0:0:0:
246,51,34315,2,0,L|369:48,1,120,2|0,0:0|0:0,0:0:0:0:
246,273,35000,6,0,P|168:261|125:120,1,240,2|0,3:2|0:0,0:0:0:0:
364,290,36372,2,0,L|367:168,1,120,2|8,3:2|0:0,0:0:0:0:
247,205,37057,2,0,L|250:83,1,120,0|8,0:0|0:0,0:0:0:0:
130,49,37743,6,0,L|10:46,1,120,2|8,3:2|0:0,0:0:0:0:
130,164,38429,2,0,L|249:161,1,120,0|8,0:0|0:0,0:0:0:0:
370,321,39115,2,0,L|373:199,1,120,2|8,3:2|0:0,0:0:0:0:
253,161,39800,2,0,L|133:158,1,120,0|8,0:0|0:0,0:0:0:0:
253,44,40486,6,0,L|373:41,1,120,2|8,3:2|0:0,0:0:0:0:
274,250,41086,2,0,L|271:157,1,90,0|0,3:0|3:0,0:0:0:0:
344,136,41515,1,8,0:0:0:0:
224,73,41857,6,0,L|104:70,1,120,2|8,3:2|0:0,0:0:0:0:
37,179,42457,2,0,L|130:176,1,90,0|0,3:0|3:0,0:0:0:0:
199,174,42886,1,8,0:0:0:0:
319,325,43229,6,0,L|322:205,1,120,2|8,3:2|0:0,0:0:0:0:
223,121,43829,2,0,L|130:118,1,90,0|0,3:0|3:0,0:0:0:0:
205,66,44257,1,8,0:0:0:0:
349,59,44600,5,2,3:2:0:0:
204,280,45286,2,0,L|201:160,1,120,0|0,0:0|0:0,0:0:0:0:
345,117,45972,5,4,0:0:0:0:
478,66,56943,6,0,L|358:63,1,120,6|10,3:2|0:0,0:0:0:0:
226,178,57629,1,2,0:0:0:0:
285,176,57800,1,0,3:0:0:0:
345,175,57971,1,10,0:0:0:0:
213,327,58315,6,0,L|210:207,1,120,2|10,3:2|0:0,0:0:0:0:
342,77,59000,1,2,0:0:0:0:
283,75,59171,1,0,3:0:0:0:
223,74,59342,1,10,0:0:0:0:
91,310,59686,6,0,L|88:190,1,120,2|10,3:2|0:0,0:0:0:0:
221,141,60372,1,2,0:0:0:0:
287,142,60543,1,0,3:0:0:0:
221,141,60715,1,10,0:0:0:0:
89,74,61057,5,2,3:2:0:0:
23,75,61228,1,0,0:0:0:0:
89,74,61400,1,10,0:0:0:0:
221,346,61743,2,0,L|224:226,1,120,2|10,0:0|0:0,0:0:0:0:
158,220,62257,1,0,0:0:0:0:
92,214,62429,5,6,3:2:0:0:
224,126,62772,1,10,0:0:0:0:
356,91,63115,1,2,0:0:0:0:
422,92,63286,1,0,3:0:0:0:
356,91,63458,1,10,0:0:0:0:
224,270,63800,6,0,L|222:151,1,120,2|10,3:2|0:0,0:0:0:0:
354,46,64486,1,2,0:0:0:0:
295,44,64657,1,0,3:0:0:0:
235,43,64828,1,10,0:0:0:0:
367,162,65172,6,0,L|486:160,1,120,2|2,1:2|1:2,0:0:0:0:
355,267,65857,1,2,1:2:0:0:
289,268,66028,1,2,0:0:0:0:
355,267,66200,1,2,1:2:0:0:
487,263,66543,5,2,3:0:0:0:
248,147,67229,2,0,L|367:145,1,120,0|10,3:0|0:0,0:0:0:0:
236,45,67915,6,0,L|117:43,1,120,6|8,3:2|0:0,0:0:0:0:
248,163,68600,1,0,0:0:0:0:
314,164,68771,1,0,3:0:0:0:
248,163,68943,1,8,0:0:0:0:
116,344,69286,6,0,L|114:225,1,120,2|8,3:2|0:0,0:0:0:0:
246,214,69972,1,0,0:0:0:0:
378,211,70315,1,8,0:0:0:0:
444,212,70486,1,0,0:0:0:0:
378,211,70658,5,2,3:2:0:0:
246,214,71000,1,8,0:0:0:0:
378,101,71343,1,0,0:0:0:0:
318,99,71514,1,0,3:0:0:0:
258,98,71685,1,8,0:0:0:0:
125,97,72029,5,2,3:2:0:0:
59,98,72200,1,0,0:0:0:0:
125,97,72372,1,8,0:0:0:0:
257,239,72715,1,0,3:0:0:0:
197,237,72886,1,0,3:0:0:0:
137,236,73057,1,8,0:0:0:0:
269,337,73400,6,0,L|271:217,1,120,2|8,3:2|0:0,0:0:0:0:
404,170,74086,1,0,0:0:0:0:
470,171,74257,1,0,3:0:0:0:
404,170,74429,1,8,0:0:0:0:
272,102,74772,6,0,L|152:104,2,120,2|8|0,3:2|0:0|0:0,0:0:0:0:
404,266,75800,1,8,0:0:0:0:
344,264,75971,1,0,0:0:0:0:
284,263,76142,5,2,3:2:0:0:
151,260,76486,1,8,0:0:0:0:
19,131,76829,1,0,0:0:0:0:
79,129,77000,1,0,3:0:0:0:
139,128,77171,1,8,0:0:0:0:
271,123,77515,5,2,3:2:0:0:
337,124,77686,1,0,0:0:0:0:
271,123,77858,1,8,0:0:0:0:
139,225,78200,1,0,3:0:0:0:
73,226,78371,1,0,3:0:0:0:
139,225,78543,1,8,0:0:0:0:
271,345,78886,6,0,L|273:225,1,120,6|8,3:2|0:0,0:0:0:0:
141,117,79572,1,0,0:0:0:0:
201,115,79743,1,0,3:0:0:0:
261,114,79914,1,8,0:0:0:0:
393,286,80257,6,0,L|395:166,1,120,2|8,3:2|0:0,0:0:0:0:
263,141,80943,1,0,0:0:0:0:
395,70,81286,1,8,0:0:0:0:
461,71,81457,1,0,0:0:0:0:
395,70,81629,5,2,3:2:0:0:
263,74,81972,1,8,0:0:0:0:
131,188,82315,1,0,0:0:0:0:
191,186,82486,1,0,3:0:0:0:
251,185,82657,1,8,0:0:0:0:
383,301,83000,5,2,3:2:0:0:
323,299,83171,1,0,0:0:0:0:
263,298,83342,1,8,0:0:0:0:
131,294,83686,1,0,3:0:0:0:
65,295,83857,1,0,3:0:0:0:
131,294,84029,1,8,0:0:0:0:
263,298,84372,6,0,L|265:178,1,120,0|8,3:0|0:0,0:0:0:0:
133,214,85057,2,0,L|135:94,1,120,0|8,0:0|0:0,0:0:0:0:
267,69,85743,6,0,L|387:67,1,120,0|8,3:0|0:0,0:0:0:0:
255,292,86429,2,0,L|253:172,1,120,0|8,0:0|0:0,0:0:0:0:
385,157,87115,5,0,3:0:0:0:
451,158,87286,1,0,3:0:0:0:
385,157,87458,1,0,3:0:0:0:
253,279,87800,1,0,3:0:0:0:
312,278,87971,1,0,3:0:0:0:
372,277,88142,1,0,3:0:0:0:
240,337,88486,6,0,P|183:322|166:167,1,240,0|0,3:0|3:0,0:0:0:0:
299,144,89515,1,8,0:0:0:0:
167,64,89857,6,0,L|47:62,1,120,6|8,3:2|0:0,0:0:0:0:
146,178,90457,2,0,L|236:175,1,90,0|0,3:0|3:0,0:0:0:0:
308,171,90886,1,8,0:0:0:0:
428,318,91229,6,0,L|430:198,1,120,2|8,3:2|0:0,0:0:0:0:
331,159,91829,2,0,L|241:156,1,90,0|0,3:0|3:0,0:0:0:0:
169,155,92257,1,8,0:0:0:0:
49,304,92600,6,0,L|172:301,1,120,2|8,3:2|0:0,0:0:0:0:
268,293,93200,2,0,L|271:203,1,90,0|0,3:0|3:0,0:0:0:0:
199,185,93629,1,8,0:0:0:0:
343,13,93972,6,0,L|347:133,1,120,2|8,3:2|0:0,0:0:0:0:
248,228,94572,2,0,L|338:225,1,90,8|0,0:0|3:0,0:0:0:0:
410,224,95000,1,8,0:0:0:0:
290,129,95343,6,0,L|170:127,1,120,2|8,3:2|0:0,0:0:0:0:
269,321,95943,2,0,L|359:318,1,90,0|0,3:0|3:0,0:0:0:0:
287,224,96372,1,8,0:0:0:0:
167,215,96715,6,0,L|165:95,1,120,2|8,3:2|0:0,0:0:0:0:
264,112,97315,2,0,L|267:22,1,90,0|0,3:0|3:0,0:0:0:0:
195,4,97744,1,8,0:0:0:0:
75,111,98086,6,0,L|195:109,1,120,2|8,3:2|0:0,0:0:0:0:
96,330,98686,2,0,L|93:240,1,90,0|0,3:0|3:0,0:0:0:0:
165,222,99115,1,8,0:0:0:0:
285,205,99457,6,0,L|405:203,1,120,2|8,3:2|0:0,0:0:0:0:
306,116,100057,2,0,L|216:113,1,90,8|0,0:0|3:0,0:0:0:0:
288,19,100486,1,8,0:0:0:0:
432,340,100829,6,0,L|434:220,1,120,6|8,3:2|0:0,0:0:0:0:
335,237,101429,2,0,L|332:147,1,90,0|0,3:0|3:0,0:0:0:0:
404,129,101858,1,8,0:0:0:0:
272,44,102200,6,0,L|152:42,1,120,2|8,3:2|0:0,0:0:0:0:
251,256,102800,2,0,L|254:166,1,90,0|0,3:0|3:0,0:0:0:0:
182,148,103229,1,8,0:0:0:0:
62,56,103572,6,0,L|182:54,1,120,2|8,3:2|0:0,0:0:0:0:
281,179,104172,2,0,L|191:176,1,90,0|0,3:0|3:0,0:0:0:0:
119,175,104600,1,8,0:0:0:0:
239,310,104943,6,0,L|359:308,1,120,2|8,3:2|0:0,0:0:0:0:
260,208,105543,2,0,L|170:205,1,90,8|0,0:0|3:0,0:0:0:0:
242,111,105972,1,8,0:0:0:0:
386,283,106315,6,0,L|388:163,1,120,2|8,3:2|0:0,0:0:0:0:
289,66,106915,2,0,L|379:63,1,90,0|0,3:0|3:0,0:0:0:0:
451,62,107343,1,8,0:0:0:0:
331,169,107686,6,0,L|211:167,1,120,2|8,3:2|0:0,0:0:0:0:
112,275,108286,2,0,L|202:272,1,90,0|0,3:0|3:0,0:0:0:0:
274,271,108714,1,8,0:0:0:0:
154,165,109057,6,0,L|152:45,1,120,2|8,3:2|0:0,0:0:0:0:
251,137,109657,2,0,L|341:134,1,90,0|0,3:0|3:0,0:0:0:0:
269,40,110086,1,8,0:0:0:0:
389,347,110429,6,0,L|391:227,1,120,2|8,3:2|0:0,0:0:0:0:
292,204,111029,2,0,L|289:114,1,90,8|0,0:0|3:0,0:0:0:0:
361,96,111458,1,8,0:0:0:0:
217,85,111800,5,6,2:0:0:0:
