osu file format v14

[General]
AudioFilename: audio.mp3
AudioLeadIn: 0
PreviewTime: -1
Countdown: 0
SampleSet: Soft
StackLeniency: 0.2
Mode: 0
LetterboxInBreaks: 0
WidescreenStoryboard: 0

[Editor]
Bookmarks: 12315,23286,34258,45229,56201,65801,66144,66486,66829,67172,78144,87744,88086,88429,88772,89115,100086,111058
DistanceSpacing: 1.1
BeatDivisor: 4
GridSize: 8
TimelineZoom: 1

[Metadata]
Title:Outbreak (feat. MYLK)
TitleUnicode:Outbreak (feat. MYLK)
Artist:Feint
ArtistUnicode:Feint
Creator:[[Pika]]
Version:meow
Source:Rocket League
Tags:
BeatmapID:1444060
BeatmapSetID:682891

[Difficulty]
HPDrainRate:5.5
CircleSize:4.2
OverallDifficulty:8.8
ApproachRate:9.4
SliderMultiplier:1.67
SliderTickRate:1

[Events]
//Background and Video events
0,0,"autbrak.jpg",0,0
//Break Periods
//Storyboard Layer 0 (Background)
//Storyboard Layer 1 (Fail)
//Storyboard Layer 2 (Pass)
//Storyboard Layer 3 (Foreground)
//Storyboard Sound Samples

[TimingPoints]
1344,342.857142857143,4,2,0,65,1,0
23286,-89.2857142857143,4,2,0,65,0,0
34944,-92.5925925925926,4,2,0,65,0,0
35629,-131.578947368421,4,2,0,65,0,0
36315,-92.5925925925926,4,2,0,65,0,0
37001,-113.636363636364,4,2,0,65,0,0
37686,-92.5925925925926,4,2,0,65,0,0
38372,-106.382978723404,4,2,0,65,0,0
39058,-92.5925925925926,4,2,0,65,0,0
39744,-99.009900990099,4,2,0,65,0,0
40429,-92.5925925925926,4,2,0,65,0,0
42486,-89.2857142857143,4,2,0,65,0,0
45229,-74.6268656716418,4,2,0,65,0,0
56201,-84.0336134453781,4,2,0,65,0,0
67172,-78.125,4,2,0,65,0,1
88772,-78.125,4,2,0,65,0,0
89115,-74.6268656716418,4,2,0,65,0,1
111058,-74.6268656716418,4,2,0,65,0,0

[HitObjects]
136,102,12315,5,0,0:0:0:0:
130,179,13001,5,0,0:0:0:0:
136,102,13344,1,0,0:0:0:0:
212,221,14372,5,0,0:0:0:0:
206,144,14715,1,0,0:0:0:0:
285,176,15744,5,0,0:0:0:0:
291,99,16087,1,0,0:0:0:0:
367,219,17115,5,0,0:0:0:0:
361,142,17458,1,0,0:0:0:0:
376,296,17801,5,0,0:0:0:0:
376,296,18486,5,0,0:0:0:0:
361,142,18829,1,0,0:0:0:0:
367,219,19172,5,0,0:0:0:0:
367,219,19858,5,0,0:0:0:0:
355,65,20201,1,0,0:0:0:0:
361,142,20544,1,0,0:0:0:0:
361,142,21229,5,0,0:0:0:0:
207,154,21572,1,0,0:0:0:0:
367,219,21915,5,0,0:0:0:0:
361,142,22258,1,0,0:0:0:0:
367,219,22601,5,0,0:0:0:0:
355,65,22944,1,0,0:0:0:0:
216,286,23286,6,0,L|323:278,1,93.5200011416016
367,219,23544,1,0,0:0:0:0:
386,235,23630,1,0,0:0:0:0:
387,248,23715,1,0,0:0:0:0:
388,261,23801,1,0,0:0:0:0:
389,274,23886,1,0,0:0:0:0:
390,287,23972,1,0,0:0:0:0:
146,185,24229,1,0,0:0:0:0:
162,201,24315,2,0,L|269:193,1,93.5200011416016
216,286,24658,5,0,0:0:0:0:
284,99,24829,2,0,P|324:117|350:163,1,93.5200011416016
187,125,25172,2,0,P|182:81|209:35,1,93.5200011416016
255,194,25515,1,0,0:0:0:0:
105,245,25686,2,0,B|54:250|-5:245,1,93.5200011416016
132,322,26029,6,0,P|182:277|109:168,2,187.040002283203
236,30,27058,1,0,0:0:0:0:
212,27,27143,1,0,0:0:0:0:
189,28,27229,1,0,0:0:0:0:
166,34,27315,1,0,0:0:0:0:
145,44,27401,6,0,P|71:49|1:43,1,140.280001712402
104,132,27744,2,0,P|178:127|208:131,1,93.5200011416016
304,156,28086,1,0,0:0:0:0:
304,156,28258,1,0,0:0:0:0:
401,117,28429,1,0,0:0:0:0:
268,55,28601,1,0,0:0:0:0:
259,248,28772,5,0,0:0:0:0:
259,248,28815,2,0,B|343:274|343:227|435:250,1,163.660001997803
304,156,29458,1,0,0:0:0:0:
318,355,29801,5,0,0:0:0:0:
304,156,29972,1,0,0:0:0:0:
139,268,30144,5,0,0:0:0:0:
337,76,30315,2,0,P|308:70|236:100,1,93.5200011416016
390,149,30658,2,0,P|409:126|419:49,1,93.5200011416016
372,0,31001,1,0,0:0:0:0:
248,88,31172,1,0,0:0:0:0:
423,65,31344,1,0,0:0:0:0:
197,23,31515,5,0,0:0:0:0:
197,23,31858,2,0,L|-12:35,2,187.040002283203
311,184,32886,5,0,0:0:0:0:
197,23,33058,2,0,P|188:85|206:129,1,93.5200011416016
281,66,33401,1,0,0:0:0:0:
159,247,33572,2,0,P|278:234|315:173,1,187.040002283203
312,185,34258,5,0,0:0:0:0:
114,180,34601,1,0,0:0:0:0:
312,185,34944,5,0,0:0:0:0:
114,180,35115,1,0,0:0:0:0:
377,243,35286,1,0,0:0:0:0:
392,227,35372,2,0,B|399:179|399:179|389:127,1,90.1800022016602
289,54,35629,6,0,B|359:72|358:39|429:56,1,126.919998450684
223,120,36229,1,0,0:0:0:0:
207,104,36315,2,0,B|199:57|199:57|206:4,1,90.1800022016602
263,190,36658,1,0,0:0:0:0:
173,198,36744,2,0,L|263:190,1,90.1800022016602
412,241,37001,6,0,P|350:238|300:313,1,146.960004484863
401,52,37601,1,0,0:0:0:0:
385,68,37686,2,0,B|376:113|376:113|386:165,1,90.1800022016602
470,305,38029,1,0,0:0:0:0:
380,313,38115,2,0,L|469:304,1,90.1800022016602
249,361,38372,6,0,B|170:385|171:338|77:367,1,156.979997604675
187,125,38972,1,0,0:0:0:0:
203,141,39058,2,0,B|214:184|214:184|207:242,1,90.1800022016602
158,48,39400,1,0,0:0:0:0:
248,48,39486,2,0,L|146:47,1,90.1800022016602
313,144,39744,6,0,P|395:151|431:67,1,168.66999665419
395,287,40344,1,0,0:0:0:0:
411,271,40429,2,0,B|422:227|422:227|411:163,1,90.1800022016602
269,364,40772,1,0,0:0:0:0:
359,364,40858,2,0,L|257:363,1,90.1800022016602
128,287,41115,6,0,B|224:300|215:253|322:270,1,180.36000440332
189,85,41715,1,0,0:0:0:0:
173,101,41801,2,0,B|159:146|159:146|166:196,1,90.1800022016602
232,4,42144,1,0,0:0:0:0:
142,10,42229,2,0,L|253:3,1,90.1800022016602
408,54,42486,6,0,P|313:75|296:182,1,187.040002283203
112,303,43086,1,0,0:0:0:0:
128,287,43172,2,0,B|137:240|137:240|127:178,1,93.5200011416016
268,363,43515,1,0,0:0:0:0:
178,357,43600,2,0,L|289:364,1,90.1800022016602
360,369,43858,5,0,0:0:0:0:
466,59,45229,6,0,B|427:57|401:46|401:46|400:81|400:81|377:64|316:62,1,167.834992061028
293,63,45572,1,0,0:0:0:0:
455,135,45744,1,0,0:0:0:0:
252,159,45915,1,0,0:0:0:0:
350,148,46086,1,0,0:0:0:0:
310,238,46258,1,0,0:0:0:0:
52,165,46601,6,0,B|141:141|137:197|247:158,1,167.834992061028
252,159,46944,1,0,0:0:0:0:
93,246,47115,1,0,0:0:0:0:
310,238,47286,1,0,0:0:0:0:
201,243,47458,1,0,0:0:0:0:
374,329,47629,1,0,0:0:0:0:
265,334,47801,1,0,0:0:0:0:
479,347,47972,6,0,B|492:312|479:272|479:272|461:272|461:272|451:231|469:168,1,167.834992061028
468,160,48315,1,0,0:0:0:0:
310,82,48486,1,0,0:0:0:0:
494,79,48658,1,0,0:0:0:0:
354,1,48829,1,0,0:0:0:0:
448,0,49001,1,0,0:0:0:0:
404,81,49172,1,0,0:0:0:0:
361,165,49344,5,0,0:0:0:0:
494,79,49515,1,0,0:0:0:0:
494,79,49601,1,0,0:0:0:0:
494,79,49686,1,0,0:0:0:0:
216,83,49858,1,0,0:0:0:0:
468,160,50029,1,0,0:0:0:0:
468,160,50372,1,0,0:0:0:0:
354,1,50544,1,0,0:0:0:0:
311,259,50715,6,0,B|346:277|386:274|413:260|413:260|444:267|444:267|489:254,1,167.834992061028
505,249,51058,1,0,0:0:0:0:
505,74,51229,1,0,0:0:0:0:
360,169,51401,1,0,0:0:0:0:
459,166,51572,1,0,0:0:0:0:
407,79,51744,1,0,0:0:0:0:
148,248,52086,6,0,B|206:237|206:237|226:261|254:267|254:267|317:256,1,167.834992061028
328,254,52429,1,0,0:0:0:0:
186,333,52601,1,0,0:0:0:0:
377,333,52772,1,0,0:0:0:0:
281,333,52944,1,0,0:0:0:0:
422,253,53115,1,0,0:0:0:0:
328,254,53287,1,0,0:0:0:0:
500,309,53458,6,0,B|505:274|526:260|526:260|489:213|512:129,1,167.834992061028
512,128,53801,1,0,0:0:0:0:
328,127,53972,1,0,0:0:0:0:
463,46,54144,1,0,0:0:0:0:
284,47,54315,1,0,0:0:0:0:
373,208,54486,1,0,0:0:0:0:
373,46,54658,1,0,0:0:0:0:
234,127,54829,5,0,0:0:0:0:
419,126,55001,1,0,0:0:0:0:
419,126,55086,1,0,0:0:0:0:
419,126,55172,1,0,0:0:0:0:
192,53,55344,1,0,0:0:0:0:
210,284,55515,5,0,0:0:0:0:
210,284,55858,5,0,0:0:0:0:
308,202,56029,1,0,0:0:0:0:
187,51,56201,6,0,B|109:37|111:73|1:45,1,149.04749704343
13,46,56544,1,0,0:0:0:0:
137,239,56715,1,0,0:0:0:0:
137,239,56801,1,0,0:0:0:0:
137,239,56886,2,0,B|148:189|148:189|144:141,1,99.3649980289536
87,337,57229,1,0,0:0:0:0:
186,335,57315,2,0,L|84:337,1,99.3649980289536
348,199,57572,6,0,P|229:219|213:271,1,149.04749704343
212,262,57915,1,0,0:0:0:0:
447,148,58086,1,0,0:0:0:0:
447,148,58172,1,0,0:0:0:0:
447,148,58258,2,0,B|456:197|456:197|449:253,1,99.3649980289536
380,56,58601,1,0,0:0:0:0:
478,44,58686,2,0,L|377:56,1,99.3649980289536
151,22,58944,6,0,B|230:0|233:36|323:3,1,149.04749704343
322,3,59286,1,0,0:0:0:0:
209,203,59458,1,0,0:0:0:0:
209,203,59544,1,0,0:0:0:0:
209,203,59629,2,0,B|198:151|198:151|203:98,1,99.3649980289536
379,264,59972,1,0,0:0:0:0:
280,273,60058,2,0,L|401:261,1,99.3649980289536
495,251,60315,5,0,0:0:0:0:
341,360,60486,1,0,0:0:0:0:
341,360,60572,1,0,0:0:0:0:
341,360,60658,1,0,0:0:0:0:
316,117,60829,2,0,L|323:192,1,49.6824990144768
300,101,61001,6,0,B|252:97|252:97|179:108,1,99.3649980289536
153,278,61344,1,0,0:0:0:0:
252,274,61429,2,0,L|131:278,1,99.3649980289536
1,134,61686,6,0,P|95:141|112:203,1,149.04749704343
111,207,62029,1,0,0:0:0:0:
88,0,62201,1,0,0:0:0:0:
88,0,62286,1,0,0:0:0:0:
88,0,62372,2,0,B|80:49|80:49|89:105,1,99.3649980289536
300,101,62715,1,0,0:0:0:0:
201,100,62800,2,0,L|322:101,1,99.3649980289536
426,172,63058,6,0,B|341:146|358:212|255:182,1,149.04749704343
246,180,63401,1,0,0:0:0:0:
392,354,63572,1,0,0:0:0:0:
392,354,63658,1,0,0:0:0:0:
392,354,63744,2,0,B|403:300|403:300|392:240,1,99.3649980289536
237,304,64086,2,0,L|303:299,1,49.6824990144768
475,168,64258,2,0,L|409:173,1,49.6824990144768
225,129,64429,5,0,0:0:0:0:
201,100,64514,1,0,0:0:0:0:
196,64,64600,1,0,0:0:0:0:
211,30,64686,1,0,0:0:0:0:
242,10,64771,1,0,0:0:0:0:
279,8,64857,1,0,0:0:0:0:
310,27,64943,1,0,0:0:0:0:
328,59,65028,1,0,0:0:0:0:
325,96,65115,5,0,0:0:0:0:
288,89,65200,1,0,0:0:0:0:
251,87,65286,1,0,0:0:0:0:
214,90,65372,1,0,0:0:0:0:
177,98,65457,1,0,0:0:0:0:
141,105,65543,1,0,0:0:0:0:
103,108,65629,1,0,0:0:0:0:
66,105,65715,1,0,0:0:0:0:
30,100,65801,5,0,0:0:0:0:
46,67,65886,1,0,0:0:0:0:
78,48,65972,1,0,0:0:0:0:
115,50,66058,1,0,0:0:0:0:
145,71,66143,1,0,0:0:0:0:
158,106,66229,1,0,0:0:0:0:
151,142,66315,1,0,0:0:0:0:
126,168,66401,1,0,0:0:0:0:
90,177,66486,6,0,L|166:182,1,49.6824990144768
325,96,66658,2,0,L|249:91,1,49.6824990144768
46,67,66829,5,0,0:0:0:0:
428,222,67172,6,0,B|422:187|440:160|440:160|408:160|408:160|434:126|421:75,1,160.32
425,31,67515,1,0,0:0:0:0:
510,209,67686,1,0,0:0:0:0:
334,104,67858,1,0,0:0:0:0:
512,106,68029,1,0,0:0:0:0:
349,210,68201,2,0,P|285:198|246:164,1,106.88
96,49,68544,6,0,B|105:101|105:101|81:151|81:151|90:212,1,160.32
94,235,68886,1,0,0:0:0:0:
261,180,69058,1,0,0:0:0:0:
15,87,69229,1,0,0:0:0:0:
253,172,69401,1,0,0:0:0:0:
6,188,69572,1,0,0:0:0:0:
191,110,69744,1,0,0:0:0:0:
221,332,69915,6,0,B|171:329|171:329|153:355|119:359|119:359|54:354,1,160.32
36,356,70258,1,0,0:0:0:0:
169,187,70429,1,0,0:0:0:0:
295,338,70601,1,0,0:0:0:0:
113,288,70772,1,0,0:0:0:0:
287,230,70944,1,0,0:0:0:0:
105,280,71115,1,0,0:0:0:0:
389,287,71286,5,0,0:0:0:0:
179,83,71458,1,0,0:0:0:0:
179,83,71544,1,0,0:0:0:0:
179,83,71629,1,0,0:0:0:0:
175,109,71714,1,0,0:0:0:0:
173,135,71800,1,0,0:0:0:0:
175,162,71886,1,0,0:0:0:0:
180,188,71972,2,0,B|132:201|132:201|63:196,1,106.88
253,136,72315,1,0,0:0:0:0:
0,189,72486,1,0,0:0:0:0:
248,240,72658,6,0,B|284:242|311:223|311:223|315:258|315:258|339:238|396:241,1,160.32
405,247,73001,1,0,0:0:0:0:
253,136,73172,1,0,0:0:0:0:
266,333,73344,1,0,0:0:0:0:
365,143,73515,1,0,0:0:0:0:
179,246,73686,2,0,P|118:251|66:222,1,106.88
127,0,74029,6,0,B|122:58|122:58|143:104|143:104|139:166,1,160.32
139,178,74372,1,0,0:0:0:0:
223,39,74544,1,0,0:0:0:0:
0,70,74715,1,0,0:0:0:0:
233,49,74886,1,0,0:0:0:0:
8,78,75058,1,0,0:0:0:0:
177,104,75229,1,0,0:0:0:0:
20,244,75401,6,0,B|100:224|100:262|183:245,1,160.32
212,240,75744,1,0,0:0:0:0:
58,328,75915,1,0,0:0:0:0:
144,172,76086,1,0,0:0:0:0:
218,335,76258,1,0,0:0:0:0:
272,177,76429,1,0,0:0:0:0:
226,343,76601,1,0,0:0:0:0:
209,88,76772,5,0,0:0:0:0:
371,276,76944,1,0,0:0:0:0:
371,276,77029,1,0,0:0:0:0:
371,276,77115,1,0,0:0:0:0:
397,279,77200,1,0,0:0:0:0:
424,280,77286,1,0,0:0:0:0:
450,278,77372,1,0,0:0:0:0:
476,273,77458,2,0,B|486:217|486:217|475:158,1,106.88
445,349,77801,1,0,0:0:0:0:
454,87,77972,1,0,0:0:0:0:
204,211,78144,6,0,B|165:213|139:202|139:202|141:231|141:231|104:219|39:222,1,160.32
32,224,78486,1,0,0:0:0:0:
195,137,78658,1,0,0:0:0:0:
96,326,78829,1,0,0:0:0:0:
85,128,79001,1,0,0:0:0:0:
209,285,79172,2,0,P|260:265|281:207,1,106.88
492,171,79515,6,0,B|433:177|433:177|401:145|401:145|332:149,1,160.32
306,154,79858,1,0,0:0:0:0:
460,88,80029,1,0,0:0:0:0:
495,333,80201,1,0,0:0:0:0:
468,96,80372,1,0,0:0:0:0:
356,244,80544,1,0,0:0:0:0:
512,169,80715,1,0,0:0:0:0:
292,82,80886,6,0,B|374:65|374:97|463:77,1,160.32
486,73,81229,1,0,0:0:0:0:
498,245,81401,1,0,0:0:0:0:
337,159,81572,1,0,0:0:0:0:
363,349,81744,1,0,0:0:0:0:
452,185,81915,1,0,0:0:0:0:
371,357,82086,1,0,0:0:0:0:
202,153,82258,5,0,0:0:0:0:
452,80,82429,1,0,0:0:0:0:
452,80,82515,1,0,0:0:0:0:
452,80,82601,1,0,0:0:0:0:
456,106,82686,1,0,0:0:0:0:
460,132,82772,1,0,0:0:0:0:
456,159,82858,1,0,0:0:0:0:
452,185,82944,2,0,B|444:241|444:241|452:298,1,106.88
377,136,83286,1,0,0:0:0:0:
461,369,83458,1,0,0:0:0:0:
220,306,83629,6,0,P|150:307|48:327,1,160.32
40,338,83972,1,0,0:0:0:0:
23,134,84144,1,0,0:0:0:0:
130,227,84315,1,0,0:0:0:0:
31,236,84486,1,0,0:0:0:0:
14,39,84658,1,0,0:0:0:0:
292,306,85001,6,0,P|362:307|464:327,1,160.32
472,338,85344,1,0,0:0:0:0:
489,134,85516,1,0,0:0:0:0:
382,227,85687,1,0,0:0:0:0:
400,30,85858,1,0,0:0:0:0:
481,236,86029,1,0,0:0:0:0:
498,39,86201,1,0,0:0:0:0:
229,15,86372,5,0,0:0:0:0:
229,15,86544,1,0,0:0:0:0:
295,219,86715,1,0,0:0:0:0:
400,30,86886,1,0,0:0:0:0:
172,142,87058,5,0,0:0:0:0:
172,142,87229,1,0,0:0:0:0:
465,151,87401,1,0,0:0:0:0:
250,92,87572,1,0,0:0:0:0:
269,324,87744,5,0,0:0:0:0:
278,355,87829,1,0,0:0:0:0:
304,375,87915,1,0,0:0:0:0:
337,377,88001,1,0,0:0:0:0:
365,360,88086,1,0,0:0:0:0:
378,330,88172,1,0,0:0:0:0:
372,298,88258,1,0,0:0:0:0:
349,274,88344,1,0,0:0:0:0:
316,269,88429,6,0,P|350:269|393:263,1,53.44
512,164,88601,2,0,P|478:164|435:170,1,53.44
228,184,88772,5,0,0:0:0:0:
493,262,88944,1,0,0:0:0:0:
169,315,89115,6,0,B|129:321|100:311|100:311|105:342|105:342|73:328|15:334,1,167.834992061028
17,337,89458,1,0,0:0:0:0:
128,98,89629,1,0,0:0:0:0:
142,115,89715,2,0,B|154:174|154:174|136:238,1,111.889994707352
2,176,89972,2,0,L|62:171,1,55.944997353676
239,155,90144,2,0,L|299:150,1,55.944997353676
2,176,90315,1,0,0:0:0:0:
257,53,90486,5,0,0:0:0:0:
238,365,90658,1,0,0:0:0:0:
234,316,90744,1,0,0:0:0:0:
262,274,90829,2,0,L|336:276,1,55.944997353676
409,131,91001,1,0,0:0:0:0:
393,147,91086,2,0,B|385:206|385:206|399:259,1,111.889994707352
440,344,91344,2,0,L|372:339,1,55.944997353676
194,279,91515,2,0,L|126:274,1,55.944997353676
440,344,91686,1,0,0:0:0:0:
256,176,91858,6,0,B|251:137|270:108|270:108|238:110|238:110|259:86|256:28,1,167.834992061028
255,20,92201,1,0,0:0:0:0:
20,30,92372,1,0,0:0:0:0:
36,46,92458,2,0,B|90:58|90:58|180:48,1,111.889994707352
310,13,92715,2,0,L|238:21,1,55.944997353676
120,131,92886,2,0,L|65:138,1,55.944997353676
310,13,93058,1,0,0:0:0:0:
317,275,93229,5,0,0:0:0:0:
459,86,93401,1,0,0:0:0:0:
458,38,93486,1,0,0:0:0:0:
420,11,93572,2,0,B|361:3|361:3,1,55.944997353676
354,128,93743,1,0,0:0:0:0:
370,112,93829,2,0,B|378:54|378:54|358:-20,1,111.889994707352
233,64,94086,2,0,L|312:59,1,55.944997353676
457,160,94258,2,0,L|536:155,1,55.944997353676
233,64,94429,1,0,0:0:0:0:
271,356,94601,6,0,B|361:380|359:337|459:359,1,167.834992061028
465,364,94944,1,0,0:0:0:0:
318,151,95115,1,0,0:0:0:0:
334,167,95201,2,0,B|340:227|340:227|325:283,1,111.889994707352
196,221,95458,2,0,L|273:215,1,55.944997353676
457,201,95629,2,0,L|534:195,1,55.944997353676
196,221,95801,1,0,0:0:0:0:
397,102,95972,5,0,0:0:0:0:
129,272,96144,1,0,0:0:0:0:
112,230,96229,1,0,0:0:0:0:
120,184,96315,2,0,B|138:157|138:157|189:138,1,55.944997353676
314,60,96486,1,0,0:0:0:0:
330,76,96572,2,0,L|179:75,1,111.889994707352
73,75,96829,2,0,L|157:75,1,55.944997353676
308,155,97001,2,0,L|392:155,1,55.944997353676
73,75,97172,1,0,0:0:0:0:
103,363,97344,6,0,B|163:359|163:359|205:325|205:325|269:321,1,167.834992061028
299,315,97686,1,0,0:0:0:0:
461,384,97858,1,0,0:0:0:0:
445,368,97944,2,0,B|437:315|437:315|454:241,1,111.889994707352
414,187,98201,2,0,L|500:177,1,55.944997353676
182,175,98372,2,0,L|268:165,1,55.944997353676
414,187,98544,1,0,0:0:0:0:
273,31,98715,5,0,0:0:0:0:
262,279,98886,1,0,0:0:0:0:
301,246,98972,1,0,0:0:0:0:
316,197,99058,2,0,B|321:166|321:166|313:125,1,55.944997353676
110,164,99229,1,0,0:0:0:0:
126,180,99315,2,0,L|254:166,1,111.889994707352
126,89,99572,2,0,L|70:96,1,55.944997353676
206,286,99744,2,0,L|262:279,1,55.944997353676
123,91,99915,5,0,0:0:0:0:
182,364,100086,6,0,B|225:366|252:354|252:354|250:380|250:380|275:362|331:362,1,167.834992061028
346,366,100429,1,0,0:0:0:0:
186,159,100601,1,0,0:0:0:0:
202,175,100686,2,0,B|213:232|213:232|204:300,1,111.889994707352
73,238,100944,2,0,L|141:229,1,55.944997353676
307,204,101115,2,0,L|375:195,1,55.944997353676
73,238,101286,1,0,0:0:0:0:
227,41,101458,5,0,0:0:0:0:
339,290,101629,1,0,0:0:0:0:
385,296,101715,1,0,0:0:0:0:
428,270,101801,2,0,B|448:242|448:242|453:198,1,55.944997353676
409,29,101972,1,0,0:0:0:0:
425,13,102058,2,0,L|422:150,1,111.889994707352
288,80,102315,2,0,L|367:74,1,55.944997353676
428,270,102486,2,0,L|507:264,1,55.944997353676
288,80,102658,1,0,0:0:0:0:
197,314,102829,6,0,B|153:317|126:305|126:305|125:334|125:334|101:318|36:322,1,167.834992061028
31,327,103172,1,0,0:0:0:0:
305,228,103344,1,0,0:0:0:0:
289,212,103429,2,0,L|157:222,1,111.889994707352
294,126,103686,2,0,L|375:120,1,55.944997353676
197,314,103858,2,0,L|278:308,1,55.944997353676
294,126,104029,1,0,0:0:0:0:
380,354,104201,5,0,0:0:0:0:
434,102,104372,1,0,0:0:0:0:
414,59,104458,1,0,0:0:0:0:
371,38,104544,2,0,B|347:32|347:32|306:34,1,55.944997353676
99,75,104715,1,0,0:0:0:0:
115,91,104801,2,0,B|168:99|168:99|248:82,1,111.889994707352
233,94,105058,2,0,L|225:166,1,55.944997353676
210,315,105229,2,0,L|202:387,1,55.944997353676
233,94,105401,1,0,0:0:0:0:
441,268,105572,6,0,B|400:271|371:257|371:257|371:286|371:286|341:269|289:278,1,167.834992061028
280,283,105915,1,0,0:0:0:0:
46,190,106086,1,0,0:0:0:0:
62,206,106172,2,0,B|120:215|120:215|185:203,1,111.889994707352
282,147,106429,2,0,L|214:150,1,55.944997353676
79,285,106601,2,0,L|11:288,1,55.944997353676
282,147,106772,1,0,0:0:0:0:
20,123,106944,5,0,0:0:0:0:
367,146,107115,1,0,0:0:0:0:
359,102,107201,1,0,0:0:0:0:
328,68,107286,2,0,B|297:55|297:55|255:60,1,55.944997353676
94,135,107458,1,0,0:0:0:0:
115,150,107544,2,0,B|170:159|170:159|254:143,1,111.889994707352
178,27,107801,2,0,L|171:96,1,55.944997353676
155,262,107972,2,0,L|148:331,1,55.944997353676
178,27,108144,1,0,0:0:0:0:
355,305,108315,6,0,B|405:305|425:289|425:289|426:316|426:316|447:300|501:301,1,167.834992061028
511,304,108658,1,0,0:0:0:0:
254,249,108829,1,0,0:0:0:0:
270,265,108915,2,0,B|284:321|284:321|275:388,1,111.889994707352
205,322,109172,2,0,L|137:316,1,55.944997353676
463,217,109344,2,0,L|395:211,1,55.944997353676
205,322,109515,1,0,0:0:0:0:
192,41,109686,5,0,0:0:0:0:
82,380,109858,1,0,0:0:0:0:
59,331,109944,1,0,0:0:0:0:
66,276,110029,2,0,B|80:250|80:250|120:229,1,55.944997353676
260,85,110201,1,0,0:0:0:0:
223,160,110286,2,0,B|84:156,1,111.889994707352
56,79,110544,2,0,B|125:81,1,55.944997353676
419,186,110715,2,0,B|349:184,1,55.944997353676
257,288,110886,2,0,B|187:286,1,55.944997353676
256,0,111058,5,0,0:0:0:0:
