osu file format v14

[General]
AudioFilename: audio.mp3
AudioLeadIn: 0
PreviewTime: 62814
Countdown: 0
SampleSet: Soft
StackLeniency: 0.7
Mode: 0
LetterboxInBreaks: 0
WidescreenStoryboard: 1

[Editor]
Bookmarks: 265,5704,11143,22021,43777,54655,62814,65534,81851,87290,109046
DistanceSpacing: 1.4
BeatDivisor: 8
GridSize: 4
TimelineZoom: 1

[Metadata]
Title:No Chance
TitleUnicode:No Chance
Artist:Feint
ArtistUnicode:Feint
Creator:CRIZZOMIN
Version:Hyper
Source:
Tags:Feint DNB dubstep Drum and Bass
BeatmapID:1325456
BeatmapSetID:607815

[Difficulty]
HPDrainRate:5.5
CircleSize:4
OverallDifficulty:6
ApproachRate:7.5
SliderMultiplier:2.6
SliderTickRate:2

[Events]
//Background and Video events
0,0,"madoka magica.jpg",0,0
//Break Periods
//Storyboard Layer 0 (Background)
//Storyboard Layer 1 (Fail)
//Storyboard Layer 2 (Pass)
//Storyboard Layer 3 (Foreground)
//Storyboard Sound Samples

[TimingPoints]
265,679.886685552408,4,1,0,60,1,0
22021,-100,4,2,0,60,0,0
43777,-100,4,1,0,70,0,0
44457,-100,4,3,0,60,0,0
45137,-100,4,2,0,60,0,0
47177,-100,4,3,0,60,0,0
47857,-100,4,2,0,60,0,0
49896,-100,4,3,0,60,0,0
50576,-100,4,2,0,60,0,0
52616,-100,4,3,0,60,0,0
53296,-100,4,2,0,60,0,0
54655,-100,4,1,0,70,0,0
65534,-100,4,1,0,70,0,1
66214,-100,4,3,0,80,0,1
85930,-100,4,3,0,60,0,0
87290,-100,4,3,0,60,0,1
109046,-100,4,3,0,60,0,0

[Colours]
Combo1 : 255,128,128
Combo2 : 128,128,255
Combo3 : 244,221,255
Combo4 : 255,128,255
Combo5 : 128,255,255
Combo6 : 102,0,102

[HitObjects]
192,80,22021,6,0,P|96:96|80:120,1,130
156,312,22701,1,0,0:0:0:0:
260,304,22871,1,0,0:0:0:0:
192,80,23381,1,0,0:0:0:0:
388,176,24061,6,0,P|436:208|512:196,1,130
336,264,24740,1,0,0:0:0:0:
188,160,25080,2,0,L|72:224,1,130
176,248,25590,1,0,0:0:0:0:
100,316,25760,1,0,0:0:0:0:
144,84,26100,1,0,0:0:0:0:
348,128,26440,1,0,0:0:0:0:
396,220,26610,1,0,0:0:0:0:
348,312,26780,2,0,L|216:284,1,130
116,104,27460,6,0,L|272:140,1,130
244,340,28140,1,0,0:0:0:0:
144,312,28310,1,0,0:0:0:0:
120,212,28480,1,0,0:0:0:0:
308,32,28820,1,0,0:0:0:0:
408,272,29500,6,0,P|348:236|248:268,1,130
40,320,30180,2,0,P|93:354|157:351,1,130
152,144,30859,1,0,0:0:0:0:
248,104,31029,1,0,0:0:0:0:
348,124,31199,1,0,0:0:0:0:
224,288,31539,2,0,L|344:344,1,130
444,324,32049,1,0,0:0:0:0:
464,220,32219,2,0,P|444:140|396:104,1,130
180,160,32899,6,0,P|264:207|271:235,1,130
80,316,33579,1,0,0:0:0:0:
36,220,33749,1,0,0:0:0:0:
344,48,34259,1,0,0:0:0:0:
172,368,34939,6,0,P|224:332|241:270,1,130
400,180,35618,1,0,0:0:0:0:
220,192,35958,2,0,L|156:76,1,130
260,92,36468,1,0,0:0:0:0:
364,108,36638,1,0,0:0:0:0:
156,264,36978,1,0,0:0:0:0:
356,212,37318,1,0,0:0:0:0:
460,228,37488,1,0,0:0:0:0:
412,320,37658,2,0,P|344:280|280:292,1,130
108,104,38338,6,0,P|176:144|240:132,1,130
432,152,39018,1,0,0:0:0:0:
392,248,39188,1,0,0:0:0:0:
295,284,39358,1,0,0:0:0:0:
388,68,39698,1,0,0:0:0:0:
72,248,40378,6,0,L|181:165,1,130
12,300,41058,2,0,P|64:328|128:304,1,130
236,160,41737,1,0,0:0:0:0:
184,84,41907,1,0,0:0:0:0:
92,88,42077,1,0,0:0:0:0:
232,276,42417,2,0,L|340:204,1,130
392,112,42927,2,0,P|435:159|444:222,1,130
376,300,43436,1,0,0:0:0:0:
168,280,43777,6,0,P|120:188|128:128,1,130
256,176,44457,1,0,0:0:0:0:
320,216,44627,1,0,0:0:0:0:
336,288,44797,1,0,0:0:0:0:
320,360,44967,2,0,P|368:360|396:312,1,65
272,88,45647,1,0,0:0:0:0:
112,200,45987,1,0,0:0:0:0:
264,312,46327,2,0,L|368:304,1,65
424,144,46837,5,0,0:0:0:0:
312,232,47177,2,0,L|204:276,1,65
184,248,47517,1,0,0:0:0:0:
112,224,47687,1,0,0:0:0:0:
64,168,47857,2,0,L|16:44,1,130
96,56,48366,1,0,0:0:0:0:
152,248,48706,1,0,0:0:0:0:
344,284,49046,2,0,P|392:285|410:269,1,65
408,108,49556,6,0,P|328:100|248:148,1,130
216,152,50066,1,0,0:0:0:0:
160,200,50236,1,0,0:0:0:0:
132,268,50406,1,0,0:0:0:0:
116,340,50576,2,0,P|180:324|200:248,1,130
276,260,51086,1,0,0:0:0:0:
438,160,51426,1,0,0:0:0:0:
272,64,51766,1,0,0:0:0:0:
320,144,51936,6,0,L|404:280,1,130
248,304,52616,1,0,0:0:0:0:
176,288,52786,1,0,0:0:0:0:
128,232,52956,1,0,0:0:0:0:
96,168,53126,2,0,L|140:104,1,65
368,272,53806,6,0,L|284:164,2,130
328,332,54655,5,0,0:0:0:0:
169,222,54995,1,0,0:0:0:0:
352,161,55335,2,0,L|400:224,1,65
144,56,56015,1,0,0:0:0:0:
48,328,56525,5,0,0:0:0:0:
128,344,56695,2,0,P|184:272|176:212,1,130
376,208,57375,1,0,0:0:0:0:
296,32,57715,1,0,0:0:0:0:
240,216,58055,2,0,L|172:136,1,65
8,104,58735,1,0,0:0:0:0:
144,360,59245,1,0,0:0:0:0:
216,312,59415,1,0,0:0:0:0:
72,224,59755,1,0,0:0:0:0:
88,56,60095,6,0,L|196:104,3,65
172,168,60774,2,0,L|280:216,3,65
308,148,61454,2,0,L|416:196,3,65
392,260,62133,2,0,L|500:308,3,65
352,320,62814,6,0,P|320:322|296:316,3,32.5
316,264,63154,2,0,P|299:263|283:265,3,32.5
280,208,63494,2,0,P|248:210|224:204,3,32.5
244,152,63834,2,0,P|227:151|211:153,3,32.5
176,124,64174,1,0,0:0:0:0:
296,64,64514,6,0,L|364:120,1,65
320,176,64854,2,0,L|260:128,1,65
208,168,65194,1,0,0:0:0:0:
144,200,65364,1,0,0:0:0:0:
112,280,65534,6,0,P|140:324|176:336,1,65
228,308,65874,1,0,0:0:0:0:
308,280,66044,2,0,L|408:336,1,65
348,216,66383,1,0,0:0:0:0:
452,276,66553,2,0,L|552:332,1,65
504,208,66893,1,0,0:0:0:0:
464,132,67063,2,0,P|372:112|336:132,1,130
276,88,67573,5,0,0:0:0:0:
196,60,67743,1,0,0:0:0:0:
120,96,67913,1,0,0:0:0:0:
104,180,68083,1,0,0:0:0:0:
176,224,68253,2,0,L|224:276,1,65
300,280,68593,1,0,0:0:0:0:
268,200,68763,2,0,P|352:164|364:128,1,130
420,204,69273,1,0,0:0:0:0:
288,308,69613,1,0,0:0:0:0:
212,340,69783,1,0,0:0:0:0:
128,328,69953,1,0,0:0:0:0:
164,116,70293,6,0,L|244:84,1,65
176,208,70633,2,0,L|116:232,1,65
56,288,70973,1,0,0:0:0:0:
240,348,71313,1,0,0:0:0:0:
316,316,71483,2,0,L|404:288,1,65
320,208,71823,1,0,0:0:0:0:
236,196,71993,2,0,L|172:212,1,65
220,112,72332,1,0,0:0:0:0:
268,44,72502,2,0,L|360:20,1,65
112,56,73012,6,0,L|232:120,2,130
24,228,74032,1,0,0:0:0:0:
120,176,74202,2,0,L|208:216,1,65
100,240,74542,1,0,0:0:0:0:
172,128,74712,2,0,L|260:168,1,65
172,236,75052,6,0,P|264:248|328:176,1,195
226,153,75732,1,0,3:0:0:0:
144,103,75902,1,0,3:0:0:0:
93,183,76072,1,0,3:0:0:0:
174,234,76242,1,0,3:0:0:0:
268,236,76412,6,0,P|268:206|248:176,1,65
344,148,76752,1,0,0:0:0:0:
432,108,76922,2,0,P|416:82|416:48,1,65
320,56,77262,1,0,0:0:0:0:
224,60,77432,2,0,P|239:85|236:120,1,65
160,168,77772,1,0,0:0:0:0:
80,220,77942,2,0,P|79:249|96:280,1,65
264,272,78451,5,0,0:0:0:0:
323,115,78791,2,0,P|378:150|416:203,1,130
224,312,79471,1,0,0:0:0:0:
192,220,79641,2,0,L|132:176,1,65
64,196,79981,1,0,0:0:0:0:
96,288,80151,2,0,L|152:328,1,65
244,296,80491,1,0,0:0:0:0:
332,256,80661,1,0,0:0:0:0:
396,328,80831,1,0,0:0:0:0:
512,160,81171,6,0,L|480:88,1,65
360,64,81511,2,0,L|386:123,1,65
376,204,81851,1,0,0:0:0:0:
200,316,82191,1,0,0:0:0:0:
168,240,82361,2,0,L|140:168,1,65
68,204,82701,1,0,0:0:0:0:
192,164,82871,2,0,L|223:93,1,65
148,72,83211,1,0,0:0:0:0:
268,120,83381,2,0,L|340:92,1,65
488,184,83891,5,0,0:0:0:0:
503,268,84061,1,0,0:0:0:0:
445,328,84231,1,0,0:0:0:0:
360,331,84401,1,0,0:0:0:0:
284,296,84570,2,0,L|204:256,1,65
148,228,84910,1,0,0:0:0:0:
248,196,85080,2,0,L|384:172,1,130
316,112,85590,1,0,0:0:0:0:
108,92,85930,6,0,L|80:152,1,65
108,232,86270,1,0,0:0:0:0:
200,276,86440,2,0,L|260:304,1,65
340,276,86780,1,0,0:0:0:0:
392,184,86950,2,0,L|420:124,1,65
392,44,87290,1,0,0:0:0:0:
204,132,87630,6,0,P|144:208|180:272,1,130
200,300,88140,1,0,0:0:0:0:
272,256,88310,1,0,0:0:0:0:
340,308,88480,1,0,0:0:0:0:
408,256,88650,2,0,P|464:184|444:124,1,130
380,176,89160,2,0,L|312:144,1,65
227,116,89500,2,0,P|222:179|264:228,1,130
216,300,90010,5,0,0:0:0:0:
48,180,90349,2,0,P|7:131|16:69,1,130
92,108,90859,1,0,0:0:0:0:
160,156,91029,1,0,0:0:0:0:
228,204,91199,1,0,0:0:0:0:
332,152,91369,2,0,L|484:80,1,130
424,200,91879,2,0,L|356:168,1,65
260,188,92219,2,0,L|318:215,1,65
336,300,92559,1,0,0:0:0:0:
412,336,92729,1,0,0:0:0:0:
240,180,93069,6,0,P|180:256|216:320,1,130
268,260,93579,1,0,0:0:0:0:
324,196,93749,1,0,0:0:0:0:
296,116,93919,1,0,0:0:0:0:
412,132,94089,2,0,P|393:48|345:10,1,130
280,36,94599,1,0,0:0:0:0:
200,64,94769,1,0,0:0:0:0:
240,140,94939,2,0,P|245:203|203:252,1,130
124,284,95449,1,0,0:0:0:0:
240,140,95789,6,0,P|291:99|359:107,1,130
312,180,96299,1,0,0:0:0:0:
240,224,96469,1,0,0:0:0:0:
240,140,96639,1,0,0:0:0:0:
348,100,96809,2,0,P|404:172|384:232,1,130
336,260,97319,2,0,L|268:308,1,65
277,159,97658,2,0,L|336:186,1,65
215,256,97998,2,0,L|209:191,1,65
44,64,98508,6,0,L|184:88,1,130
220,156,99018,1,0,0:0:0:0:
292,112,99188,1,0,0:0:0:0:
336,184,99358,1,0,0:0:0:0:
408,140,99528,2,0,P|420:202|385:254,1,130
336,184,100038,2,0,L|268:152,1,65
200,120,100378,2,0,P|195:183|237:232,1,130
316,260,100888,5,0,0:0:0:0:
460,112,101228,2,0,P|421:61|358:56,1,130
292,108,101738,1,0,0:0:0:0:
221,154,101908,1,0,0:0:0:0:
144,117,102078,1,0,0:0:0:0:
104,36,102247,2,0,P|176:32|228:92,1,130
292,108,102757,2,0,L|350:135,1,65
240,180,103097,2,0,L|298:207,1,65
384,212,103437,1,0,0:0:0:0:
436,148,103607,5,0,0:0:0:0:
232,112,103947,2,0,P|172:184|208:240,1,130
112,264,104457,1,0,0:0:0:0:
104,180,104627,1,0,0:0:0:0:
178,209,104797,1,0,0:0:0:0:
192,296,104967,2,0,P|256:248|264:196,1,130
332,148,105477,1,0,0:0:0:0:
416,140,105647,1,0,0:0:0:0:
382,218,105817,2,0,P|320:232|264:201,1,130
184,212,106327,5,0,0:0:0:0:
380,108,106667,2,0,P|318:93|262:124,1,130
188,168,107177,1,0,0:0:0:0:
264,204,107347,1,0,0:0:0:0:
192,248,107517,1,0,0:0:0:0:
292,312,107687,2,0,P|352:268|372:192,1,130
264,204,108197,2,0,L|216:136,1,65
156,276,108536,2,0,L|193:329,1,65
264,204,108876,2,0,L|226:150,1,65
