osu file format v14

[General]
AudioFilename: audio.mp3
AudioLeadIn: 0
PreviewTime: 62814
Countdown: 0
SampleSet: Soft
StackLeniency: 0.7
Mode: 0
LetterboxInBreaks: 0
WidescreenStoryboard: 1

[Editor]
Bookmarks: 265,5704,11143,22021,43777,54655,62814,65534,81851,84061,87290,109046
DistanceSpacing: 1.3
BeatDivisor: 4
GridSize: 4
TimelineZoom: 1

[Metadata]
Title:No Chance
TitleUnicode:No Chance
Artist:Feint
ArtistUnicode:Feint
Creator:CRIZZOMIN
Version:Hard
Source:
Tags:Feint DNB dubstep Drum and Bass
BeatmapID:1286304
BeatmapSetID:607815

[Difficulty]
HPDrainRate:5
CircleSize:4
OverallDifficulty:5
ApproachRate:6
SliderMultiplier:2.2
SliderTickRate:2

[Events]
//Background and Video events
0,0,"madoka magica.jpg",0,0
//Break Periods
//Storyboard Layer 0 (Background)
//Storyboard Layer 1 (Fail)
//Storyboard Layer 2 (Pass)
//Storyboard Layer 3 (Foreground)
//Storyboard Sound Samples

[TimingPoints]
265,679.886685552408,4,1,0,60,1,0
22021,-100,4,2,0,60,0,0
43777,-100,4,1,0,70,0,0
44457,-100,4,3,0,60,0,0
45137,-100,4,2,0,60,0,0
47177,-100,4,3,0,60,0,0
47857,-100,4,2,0,60,0,0
49896,-100,4,3,0,60,0,0
50236,-100,4,2,0,60,0,0
52616,-100,4,3,0,60,0,0
52956,-100,4,2,0,60,0,0
54655,-100,4,1,0,70,0,0
65534,-100,4,1,0,70,0,1
66214,-100,4,3,0,80,0,1
85930,-100,4,3,0,60,0,0
87290,-100,4,3,0,60,0,1
109046,-100,4,3,0,60,0,0

[Colours]
Combo1 : 255,128,128
Combo2 : 128,128,255
Combo3 : 244,221,255
Combo4 : 255,128,255
Combo5 : 128,255,255
Combo6 : 102,0,102

[HitObjects]
344,296,22021,6,0,P|256:284|228:256,1,110
320,152,22701,2,0,L|329:97,1,55
504,224,23381,1,0,0:0:0:0:
224,280,24061,5,0,0:0:0:0:
88,244,24400,1,0,0:0:0:0:
144,112,24740,2,0,L|264:64,1,110
388,80,25420,2,0,L|482:116,1,55
348,296,26100,1,0,0:0:0:0:
136,336,26610,2,0,L|84:315,1,55
24,188,27120,1,0,0:0:0:0:
152,128,27460,2,0,L|272:176,1,110
396,160,28140,1,0,0:0:0:0:
456,120,28310,1,0,0:0:0:0:
254,168,28820,1,0,0:0:0:0:
4,304,29500,6,0,P|80:364|104:360,1,110
216,308,30180,1,0,0:0:0:0:
332,224,30519,1,0,0:0:0:0:
324,80,30859,2,0,L|248:24,1,55
72,100,31539,2,0,P|26:166|44:244,1,165
116,232,32219,1,0,0:0:0:0:
256,200,32559,1,0,0:0:0:0:
296,64,32899,6,0,P|347:78|374:124,1,110
336,264,33579,1,0,0:0:0:0:
400,300,33749,1,0,0:0:0:0:
504,112,34259,1,0,0:0:0:0:
228,32,34939,6,0,P|171:43|136:88,1,110
264,152,35619,2,0,P|228:197|232:252,1,110
372,240,36298,2,0,L|432:188,1,55
284,32,36978,1,0,0:0:0:0:
72,72,37488,2,0,L|124:132,1,55
248,148,37998,1,0,0:0:0:0:
148,252,38338,6,0,L|44:340,2,110
152,180,39188,1,0,0:0:0:0:
324,52,39698,1,0,0:0:0:0:
500,280,40378,6,0,P|469:324|417:340,1,110
280,296,41058,1,0,0:0:0:0:
332,164,41398,1,0,0:0:0:0:
200,108,41738,2,0,L|112:76,1,55
12,256,42417,1,0,0:0:0:0:
212,332,42927,2,0,L|256:280,1,55
348,188,43437,1,0,0:0:0:0:
212,236,43777,6,0,P|149:135|152:96,1,110
252,144,44457,2,0,L|376:104,2,110
164,256,45477,1,0,0:0:0:0:
300,296,45817,2,0,P|356:316|440:260,1,165
464,196,46497,5,0,0:0:0:0:
308,108,46837,2,0,L|164:80,1,110
64,128,47517,1,0,0:0:0:0:
132,252,47857,2,0,P|180:312|132:376,1,165
4,316,48706,1,0,0:0:0:0:
56,184,49046,1,0,0:0:0:0:
112,140,49216,5,0,0:0:0:0:
288,164,49556,2,0,P|352:136|400:144,1,110
496,236,50236,1,0,0:0:0:0:
424,360,50576,2,0,P|374:310|359:216,1,165
260,116,51426,2,0,L|64:72,1,165
28,204,52276,6,0,P|12:284|48:320,1,110
92,328,52786,2,0,L|172:344,2,55
80,256,53296,1,0,0:0:0:0:
296,268,53806,2,0,L|372:168,2,110
328,332,54655,5,0,0:0:0:0:
228,232,54995,1,0,0:0:0:0:
362,180,55335,2,0,P|402:148|402:112,1,55
212,48,56015,1,0,0:0:0:0:
80,216,56525,5,0,0:0:0:0:
144,252,56695,2,0,P|225:210|239:159,1,110
312,80,57375,1,0,0:0:0:0:
448,36,57715,1,0,0:0:0:0:
476,176,58055,2,0,L|484:236,1,55
284,148,58735,1,0,0:0:0:0:
112,276,59245,1,0,0:0:0:0:
184,292,59415,1,0,0:0:0:0:
316,236,59755,1,0,0:0:0:0:
260,104,60095,6,0,L|210:80,3,55
196,152,60774,2,0,L|146:128,3,55
124,196,61454,2,0,L|74:172,3,55
60,244,62133,2,0,L|10:220,3,55
256,192,62814,12,0,64174,0:0:0:0:
68,148,64514,6,0,L|25:113,2,55
128,188,65024,2,0,L|162:145,2,55
120,260,65534,6,0,P|195:286|231:353,2,110
68,208,66383,2,0,P|60:168|80:136,1,55
192,92,66893,2,0,L|302:92,1,110
364,128,67403,1,0,0:0:0:0:
404,188,67573,5,0,0:0:0:0:
440,248,67743,1,0,0:0:0:0:
380,288,67913,2,0,P|330:264|303:218,1,110
356,84,68593,1,0,0:0:0:0:
220,248,69103,1,0,0:0:0:0:
148,248,69273,1,0,0:0:0:0:
172,112,69613,6,0,L|248:64,2,55
140,176,70123,1,0,0:0:0:0:
148,248,70293,1,0,0:0:0:0:
196,304,70463,1,0,0:0:0:0:
244,248,70633,2,0,P|268:320|248:356,1,110
112,364,71313,1,0,0:0:0:0:
80,152,71823,2,0,L|100:100,1,55
240,120,72332,6,0,L|316:136,2,55
168,128,72842,2,0,L|104:140,1,55
120,208,73182,2,0,L|56:220,1,55
36,360,73692,2,0,P|120:360|172:328,2,110
24,288,74542,2,0,P|28:256|44:232,1,55
164,164,75052,5,0,0:0:0:0:
224,128,75222,1,0,0:0:0:0:
292,148,75392,2,0,L|340:116,1,55
400,156,75732,1,0,0:0:0:0:
460,196,75902,1,0,0:0:0:0:
456,268,76072,2,0,L|410:298,1,55
340,316,76412,6,0,P|285:312|240:283,2,110
410,298,77261,2,0,P|434:286|449:263,1,55
408,128,77771,2,0,L|292:80,1,110
236,68,78281,1,0,0:0:0:0:
168,84,78451,5,0,0:0:0:0:
216,136,78621,1,0,0:0:0:0:
284,156,78791,2,0,P|344:148|375:107,1,110
500,180,79471,1,0,0:0:0:0:
312,284,79981,1,0,0:0:0:0:
240,292,80151,1,0,0:0:0:0:
128,204,80491,6,0,L|96:160,2,55
200,192,81001,1,0,0:0:0:0:
272,200,81171,1,0,0:0:0:0:
324,248,81341,1,0,0:0:0:0:
304,316,81511,2,0,P|244:363|203:356,1,110
140,236,82191,1,0,0:0:0:0:
260,60,82701,2,0,L|324:44,1,55
380,172,83210,6,0,L|452:208,2,55
308,172,83721,2,0,L|231:197,1,55
188,168,84061,2,0,L|116:132,1,55
36,44,84570,2,0,P|108:2|169:3,2,110
20,116,85420,2,0,P|23:143|36:166,1,55
164,236,85930,5,0,0:0:0:0:
188,168,86100,2,0,L|236:136,1,55
320,128,86440,1,0,0:0:0:0:
296,196,86610,2,0,L|248:228,1,55
164,236,86950,1,0,0:0:0:0:
188,168,87120,2,0,L|236:136,1,55
108,204,87630,6,0,P|84:124|120:76,1,110
160,144,88140,2,0,L|236:192,2,55
92,103,88650,2,0,P|80:40|140:24,1,110
184,36,89160,2,0,L|280:72,1,55
196,116,89500,2,0,L|102:158,1,55
192,196,89840,1,0,0:0:0:0:
256,224,90010,6,0,L|368:184,2,110
184,220,90859,2,0,L|120:240,2,55
240,152,91369,2,0,P|197:73|129:128,1,165
80,224,92219,2,0,L|48:304,1,55
108,328,92559,1,0,0:0:0:0:
180,312,92729,5,0,0:0:0:0:
308,252,93069,2,0,P|368:236|412:260,1,110
356,308,93579,2,0,P|296:324|252:300,1,110
168,324,94089,2,0,P|108:284|180:216,1,165
232,100,94939,2,0,P|187:69|133:75,1,110
68,104,95449,5,0,0:0:0:0:
60,248,95789,2,0,L|152:364,1,110
200,344,96298,1,0,0:0:0:0:
268,328,96468,1,0,0:0:0:0:
336,304,96638,1,0,0:0:0:0:
372,240,96808,2,0,P|360:172|436:104,1,165
296,40,97658,2,0,L|160:120,1,110
152,148,98168,5,0,0:0:0:0:
12,112,98508,2,0,P|51:38|110:29,1,110
144,28,99018,2,0,L|220:76,2,55
72,30,99528,2,0,P|52:77|89:114,1,110
96,184,100038,2,0,L|192:220,1,55
180,268,100378,2,0,L|276:304,1,55
300,268,100718,1,0,0:0:0:0:
368,244,100888,6,0,L|480:204,2,110
304,280,101737,2,0,L|272:339,2,55
304,208,102248,2,0,L|244:48,1,165
108,96,103097,2,0,L|28:152,1,55
40,196,103437,1,0,0:0:0:0:
16,264,103607,5,0,0:0:0:0:
144,328,103947,2,0,P|197:296|211:248,1,110
140,256,104457,2,0,P|78:261|38:230,1,110
100,192,104967,2,0,P|152:128|112:32,1,165
64,108,105817,2,0,P|16:152|12:200,1,110
56,248,106327,5,0,0:0:0:0:
188,300,106667,2,0,L|348:328,1,110
364,296,107176,1,0,0:0:0:0:
396,232,107346,1,0,0:0:0:0:
384,160,107516,1,0,0:0:0:0:
320,124,107686,2,0,P|252:112|164:172,1,165
276,260,108536,2,0,L|332:300,2,55
220,216,109046,1,0,0:0:0:0:
